#TITLE:Happy Music;
#SUBTITLE:;
#ARTIST:Happy Around!;
#TITLETRANSLIT:;
#SUBTITLETRANSLIT:;
#ARTISTTRANSLIT:;
#GENRE:;
#CREDIT:;
#BANNER:Happy Music.png;
#BACKGROUND:Happy Music-BG.png;
#LYRICSPATH:;
#CDTITLE:;
#MUSIC:Happy Music.ogg;
#OFFSET:-0.060000;
#SAMPLESTART:57.633713;
#SAMPLELENGTH:12.000000;
#SELECTABLE:YES;
#BPMS:0.000000=175.000000
;
#STOPS:
;
#BGCHANGES:;
#KEYSOUNDS:;
#ATTACKS:;

//---------------dance-single - ----------------
#NOTES:
     dance-single:
     :
     Easy:
     5:
     0.000000,0.000000,0.000000,0.000000,0.000000,0.000000,0.000000,0.000000,0.000000,0.000000,0.000000,0.000000,0.000000,0.000000,0.000000,0.000000,0.000000,0.000000,0.000000,0.000000,0.000000,0.000000:
0000
0000
0000
0000
,
0000
0000
0000
0000
,
0000
0000
0000
0000
,
0000
0000
0000
0000
,
1001
0000
0000
0000
,
0000
0000
0000
0000
,
0000
0000
0000
0000
,
0000
0000
0000
0000
,
1000
0100
1000
0100
,
0001
0010
0001
0010
,
1000
0001
1000
0001
,
2002
0000
0000
3003
,
1001
0000
0000
0000
,
0110
0000
0000
0000
,
1000
1000
0001
0001
,
1000
0000
1000
0000
,
0001
0001
1000
1000
,
0001
0000
0001
0000
,
0000
0110
0000
0110
,
0010
0010
0100
0100
,
0010
0000
0010
0000
,
0100
0000
0100
0000
,
0100
0000
0000
0000
,
0000
0000
0000
0000
,
1000
0000
0001
0001
,
0001
0000
0100
0100
,
0001
0001
1000
1000
,
1001
0000
1001
0000
,
0001
0000
1000
1000
,
0001
0000
0100
0100
,
1000
1000
0001
0001
,
1001
0000
1001
0000
,
1000
0000
0000
0000
,
1000
0000
0000
0000
,
0001
0000
0000
0000
,
0001
0000
0000
0000
,
1000
0100
0001
0100
,
1000
0010
0001
0010
,
1100
0000
0000
0000
,
0101
0000
0000
0000
,
1100
0000
0000
0000
,
0110
0000
0000
0000
,
0001
1000
0001
0000
,
0001
0100
0001
0000
,
0001
0010
0001
0000
,
1001
0000
0000
0000
,
1000
1000
1000
0000
,
0010
0010
0010
0000
,
0100
0100
0100
0000
,
0011
0000
0000
0000
,
1000
0001
1000
0000
,
1000
0010
1000
0000
,
1000
0100
1000
0000
,
1001
0000
0000
0000
,
0001
0001
0001
0000
,
0100
0100
0100
0000
,
0010
0010
0010
0000
,
0011
0000
1010
0000
,
1001
0000
0000
0000
,
0000
0000
0000
0000
,
0001
1000
0001
1000
,
0110
0000
0000
0000
,
1000
0001
1000
0001
,
1000
0100
1000
0100
,
0001
1000
0001
1000
,
0001
0010
0001
0010
,
1000
1000
0001
0001
,
0010
0010
0100
0100
,
0001
0001
1000
1000
,
0100
0100
0010
0010
,
1100
0000
0000
0000
,
1100
0000
0000
0000
,
0011
0000
0000
0000
,
0011
0000
0000
0000
,
0101
0000
0000
0000
,
0101
0000
0000
0000
,
1010
0000
0000
0000
0000
0000
0000
1010
,
0000
0000
0000
0000
,
0110
0000
0000
0000
,
0110
0000
0000
0000
,
0001
1000
0001
0100
,
0001
0010
0001
0001
,
1000
1000
1000
0000
,
0010
0010
0010
0000
,
0100
0100
0100
0000
,
0011
0000
0000
0000
,
1000
0001
1000
0000
,
1000
0010
1000
0000
,
1000
0100
1000
0000
,
1001
0000
0000
0000
,
0001
0001
0001
0000
,
0100
0100
0100
0000
,
0010
0010
0010
0000
,
0011
0000
1010
0000
,
0001
0000
0000
0000
;

//---------------dance-single - ----------------
#NOTES:
     dance-single:
     :
     Medium:
     7:
     0.000000,0.000000,0.000000,0.000000,0.000000,0.000000,0.000000,0.000000,0.000000,0.000000,0.000000,0.000000,0.000000,0.000000,0.000000,0.000000,0.000000,0.000000,0.000000,0.000000,0.000000,0.000000:
0000
0000
0000
0000
,
0000
0000
0000
0000
,
0000
0000
0000
0000
,
0000
0000
0000
0000
,
1001
0000
0000
0000
,
0010
0000
0100
0000
,
0001
0000
1000
0000
,
0110
0000
0000
0000
0000
0000
1000
1000
,
1000
0001
0001
0001
,
0010
0010
0010
0010
,
0100
0100
0100
0100
,
2000
0000
3002
0000
,
2000
0000
0000
3003
,
1000
1000
1001
0010
,
1000
0100
1000
0010
,
1000
0100
1000
0001
,
0001
0010
0001
0100
,
0001
1000
0001
0100
,
0000
0110
0000
1001
,
1000
1000
0001
0001
,
0100
0010
0100
0010
0100
0010
0100
0010
,
0200
0000
0020
0300
,
0032
0000
0003
0000
,
0000
0000
0000
0000
,
1000
0100
0001
0001
,
0001
0010
1000
1000
,
1001
0001
1000
1000
,
0001
0000
1000
0000
0001
0010
0001
0010
,
0001
0100
1000
1000
,
1000
0010
0001
0001
,
1001
1000
0001
0001
,
1000
0001
2020
3030
,
0001
0000
0000
0010
,
1000
0000
0000
0010
,
0001
0000
0000
0100
,
1000
0000
0000
0100
,
0001
0011
0010
0110
,
0100
1100
1000
1001
,
1200
0000
0310
0010
,
0120
0000
0031
0001
,
0012
0000
1003
1000
,
0200
0000
0300
0000
,
1000
0100
0001
1000
,
0001
0100
1000
0000
0001
0100
1000
0001
,
1000
0010
0001
1000
,
1000
0010
0001
0000
1000
0010
0001
1000
,
0001
0001
1000
1000
,
0001
0000
0001
0000
1000
0010
1000
0010
,
1000
1000
0010
0010
,
1001
0000
0000
1001
0000
0000
0010
0000
,
0001
0010
1000
0001
,
0001
0010
1000
0000
0001
0010
1000
0100
,
1000
0100
0001
1000
,
1000
0100
0001
0000
1000
0100
0001
1000
,
1000
1000
0001
0001
,
1000
0000
1000
0000
0001
0010
0001
0010
,
0001
0001
0010
0010
,
0110
0000
0110
0000
,
2002
0000
0000
0000
,
3003
0000
0000
0000
,
1000
1000
1001
1001
,
0002
0000
0003
1001
,
1000
1000
0001
0000
0001
0001
1000
0000
,
1000
0000
1000
0000
1000
1000
0001
0000
,
1000
1000
0010
0000
0001
0001
0100
0000
,
1000
0000
1000
0000
0001
0001
0100
0000
,
1000
1000
0101
0101
,
0001
0001
1100
1100
,
1000
0010
1000
0010
1000
0010
1000
0000
,
0001
0001
0110
0110
,
0002
0000
0000
0000
,
2003
0000
0000
0000
,
3200
0000
0000
0000
,
2300
0000
0000
0000
,
3001
0001
1010
1010
,
1000
1000
0011
0011
,
0001
1000
0001
1000
,
0000
0000
0000
0000
,
0110
0000
0000
0000
,
1001
0000
0000
0000
,
0010
1000
0010
0100
,
0010
1000
0001
0000
0010
1000
0001
1000
,
0001
0001
1000
1000
,
0001
0000
0001
0000
1000
0010
1000
0010
,
1000
1000
0010
0010
,
1001
0000
0000
1001
0000
0000
0000
0000
,
0010
0001
0010
0100
,
0010
0001
1000
0000
0010
0001
1000
0001
,
0100
1000
0100
0010
,
0100
0001
1000
0000
0100
0001
1000
0001
,
1000
1000
0001
0001
,
1000
0000
1000
0000
0001
0010
0001
0010
,
0001
0001
0010
0010
,
0110
0000
0110
0000
,
1001
0000
0000
0000
;

//---------------dance-single - ----------------
#NOTES:
     dance-single:
     :
     Hard:
     14:
     0.000000,0.000000,0.000000,0.000000,0.000000,0.000000,0.000000,0.000000,0.000000,0.000000,0.000000,0.000000,0.000000,0.000000,0.000000,0.000000,0.000000,0.000000,0.000000,0.000000,0.000000,0.000000:
0000
0000
0000
0000
,
0000
0000
0000
0000
,
0000
0000
0000
0000
,
0000
0000
0000
0000
,
2002
0003
0002
3003
,
0010
0000
0001
0010
0000
0100
0000
1000
,
0200
0000
0000
0302
0000
0000
0000
0003
,
0220
0000
0000
0330
0010
0000
1000
1000
,
1000
0000
0010
0000
0010
0000
0010
0001
,
0000
0000
0010
0000
0010
0010
0010
0010
,
1000
0100
1000
0100
0010
0001
0010
0001
,
0200
0000
0000
0000
0020
0000
0000
0330
,
2002
0000
0000
3003
,
1100
0000
0000
0101
0000
0000
0210
0000
0000
0000
0000
0000
0310
0000
0000
0000
,
0010
1000
0100
1000
0010
0001
0100
0001
,
0010
0100
0001
1000
0100
0010
1000
0001
,
1000
0100
0001
0100
1000
0010
0001
0010
,
0100
0001
1000
0100
0010
1000
0001
0010
,
0200
0300
0110
0000
2000
3000
1001
0000
,
0002
0003
1001
0000
0020
0030
0110
0000
,
0001
0001
1000
1000
0001
0001
0100
0100
,
1000
1000
0001
0001
1000
1000
0010
0010
,
0220
0000
0000
0000
,
0330
0000
0000
0000
,
0001
1000
0010
1000
0011
0000
1010
0000
,
0000
0001
0100
0001
0011
0000
0011
0000
,
1010
0000
0000
0000
1000
0000
0000
0000
1010
0000
0000
1001
0000
0000
0011
0000
,
1001
0000
0000
1001
0000
0000
0110
0000
0000
0000
0001
0010
0002
0000
0003
0000
,
1000
0001
0100
0001
0101
0000
1100
0000
,
0000
1000
0010
1000
0101
0000
1100
0000
,
0101
0000
0000
0000
0001
0000
0000
0000
0101
0000
0000
1001
0000
0000
1100
0000
,
1001
0000
0000
1001
0000
0000
0110
0000
0000
0000
0000
0000
0000
0000
0000
0000
,
2000
0000
0000
0000
3000
1000
0000
0000
,
2000
0000
0000
0000
0000
0000
0000
0000
3000
0000
1000
0000
1000
0100
1000
0100
,
0002
0000
0000
0000
0003
0001
0000
0000
,
0002
0000
0000
0000
0000
0000
0000
0000
0003
0000
0001
0000
0001
0010
0001
0010
,
1100
0100
0011
0010
,
1010
0100
0101
0010
,
2002
0000
0000
0000
0000
0000
0000
0000
3003
0000
1010
0000
0000
1010
0000
0000
,
0022
0000
0000
0000
0000
0000
0000
0000
0033
0000
0011
0000
0000
0011
0000
0000
,
2020
0000
3000
0000
2000
0000
3000
0000
1030
0000
1000
0000
1000
0010
1000
0020
,
0000
0000
0000
0030
0010
0010
0010
0010
,
0021
0000
0031
0000
,
0020
0000
2000
0030
0002
3000
0020
0003
,
0130
0100
0100
0100
,
2002
0000
0000
0000
3003
0001
0001
0001
,
0200
0000
0300
1000
2020
0000
0000
0000
,
0000
0000
0000
0000
3030
0001
0001
0001
,
0200
0000
0300
0010
2200
0000
3300
0000
,
0101
0000
0000
0101
0000
0000
0011
0000
0000
0000
0000
0000
0110
0000
0000
0000
,
1200
0000
1300
0000
,
0200
0000
0002
0300
2000
0003
0200
3000
,
0310
0010
0010
0010
,
2002
0000
0000
0000
3003
1000
1000
1000
,
0020
0000
0030
0001
0202
0000
0000
0000
,
0000
0000
0000
0000
0303
1000
1000
1000
,
0020
0000
0030
0100
0022
0000
0033
0000
,
0022
0033
2020
3030
,
2002
0000
0000
3003
,
0001
0000
0000
0001
0000
0000
1000
0000
0000
1000
0000
0000
0100
0000
0100
0000
0100
0000
0100
0000
0000
0000
0000
0000
,
1000
0100
0000
0001
0100
0000
1000
0010
0000
0001
0010
0000
,
1200
0000
0000
0300
0100
0100
0110
0000
,
0010
0010
1010
0000
0010
0010
0011
0000
,
1000
0001
1000
0001
0010
0010
1001
0000
,
0100
0100
0101
0000
0100
0100
1100
0000
,
0001
1000
0001
1000
0100
0100
1001
0000
,
0100
1000
0100
1000
0101
0000
1100
0000
,
0010
0001
0010
0001
0011
0000
1010
0000
,
1000
0001
0001
0001
0010
0100
1001
0000
,
2200
3300
2200
3300
0011
0000
0101
0000
,
0020
0000
2000
0030
0002
3000
0020
0003
,
0200
0030
0002
0300
2000
0003
0200
3000
,
0020
0300
0002
0030
2000
0003
0020
3000
,
0200
0030
2000
0300
0002
3000
0010
0003
,
1000
1000
0101
0011
,
0001
0001
1100
1010
,
1000
0000
0100
0000
1000
0000
0100
0000
0010
0001
0010
0001
0010
0001
0020
0000
,
0000
0000
0000
0030
0010
0010
0010
0010
,
2002
0000
0000
3003
,
0220
0000
0000
0000
0000
0330
0110
0000
,
1000
0010
0100
0001
0010
0001
1000
0100
,
0022
0000
0000
0000
0033
0001
0001
0001
,
1000
0010
0100
1000
0001
0100
0010
0001
,
0100
0001
1000
0100
0010
1000
0001
0010
,
0200
0000
0300
0010
2020
0000
3030
0000
,
1100
0000
0000
0101
0000
0000
1001
0000
0000
0000
0000
0000
0110
0000
0000
0000
,
1000
0100
0001
0100
1000
0100
0001
0100
,
1000
0010
0001
0010
1000
0010
0001
0010
,
0100
0001
1000
0100
0010
1000
0001
0010
,
2200
0000
0000
0000
3300
1000
1000
1000
,
0001
1000
0001
1000
0001
0010
1000
0010
,
0100
1000
0010
0001
0100
0001
1000
0100
,
0010
0010
0010
0010
0100
0100
0100
0100
,
0022
0000
0000
0033
2020
0000
0000
3030
,
1001
0000
0000
0000
;

//---------------dance-single - ----------------
#NOTES:
     dance-single:
     :
     Beginner:
     2:
     0.126695,0.209691,0.105221,0.000000,0.000000,118.000000,104.000000,14.000000,0.000000,0.000000,0.000000,0.126695,0.209691,0.105221,0.000000,0.000000,118.000000,104.000000,14.000000,0.000000,0.000000,0.000000:
// measure 0
0000
0000
0000
0000
,  // measure 1
0000
0000
0000
0000
,  // measure 2
0000
0000
0000
0000
,  // measure 3
0000
0000
0000
0000
,  // measure 4
0000
0000
0000
0000
,  // measure 5
0000
0000
0000
0000
,  // measure 6
0000
0000
0000
0000
,  // measure 7
0000
0000
0000
0000
,  // measure 8
0010
0000
0000
0000
,  // measure 9
0000
0000
0000
0000
,  // measure 10
0010
0000
0000
0000
,  // measure 11
1001
0000
0000
0000
,  // measure 12
1001
0000
0000
0000
,  // measure 13
0000
0000
0000
0000
,  // measure 14
1000
0000
0000
0000
,  // measure 15
1000
0000
0000
0000
,  // measure 16
0001
0000
0000
0000
,  // measure 17
0001
0000
0000
0000
,  // measure 18
0000
1001
0000
0000
,  // measure 19
0010
0000
0000
0000
,  // measure 20
0100
0000
0000
0000
,  // measure 21
0010
0000
0000
0000
,  // measure 22
0100
0000
0000
0000
,  // measure 23
0000
0000
0000
0000
,  // measure 24
0001
0000
0000
0000
,  // measure 25
0001
0000
0000
0000
,  // measure 26
0100
0000
0000
0000
,  // measure 27
0100
0000
0000
0000
,  // measure 28
1000
0000
0000
0000
,  // measure 29
1000
0000
0000
0000
,  // measure 30
0100
0000
0000
0000
,  // measure 31
0100
0000
0000
0000
,  // measure 32
0010
0000
0000
0000
,  // measure 33
0000
0000
0000
0000
,  // measure 34
0010
0000
0000
0000
,  // measure 35
0000
0000
0000
0000
,  // measure 36
1000
0000
0000
0000
,  // measure 37
0001
0000
0000
0000
,  // measure 38
0010
0000
0000
0000
,  // measure 39
0010
0000
0000
0000
,  // measure 40
0010
0000
0000
0000
,  // measure 41
1001
0000
0000
0000
,  // measure 42
0010
0000
0010
0000
,  // measure 43
0001
0000
0001
0000
,  // measure 44
1000
0000
1000
0000
,  // measure 45
0001
0000
0001
0000
,  // measure 46
0010
0000
0000
0000
,  // measure 47
0010
0000
0000
0000
,  // measure 48
0100
0000
0000
0000
,  // measure 49
0110
0000
0000
0000
,  // measure 50
0010
0000
0010
0000
,  // measure 51
1000
0000
1000
0000
,  // measure 52
0001
0000
0001
0000
,  // measure 53
1000
0000
1000
0000
,  // measure 54
0010
0000
0000
0000
,  // measure 55
0010
0000
0000
0000
,  // measure 56
0100
0000
0000
0000
,  // measure 57
0110
0000
0000
0000
,  // measure 58
1001
0000
0000
0000
,  // measure 59
0001
0000
0001
0000
,  // measure 60
0001
0000
0001
0000
,  // measure 61
0100
0000
0000
0000
,  // measure 62
1000
0000
0001
0000
,  // measure 63
1000
0000
0001
0000
,  // measure 64
0001
0000
1000
0000
,  // measure 65
0001
0000
1000
0000
,  // measure 66
1000
0000
0010
0000
,  // measure 67
1000
0000
0010
0000
,  // measure 68
0100
0000
0001
0000
,  // measure 69
0100
0000
0001
0000
,  // measure 70
0110
0000
0000
0000
,  // measure 71
0000
0000
0000
0000
,  // measure 72
0110
0000
0000
0000
,  // measure 73
0000
0000
0000
0000
,  // measure 74
0001
0000
0100
0000
,  // measure 75
0001
0000
0100
0000
,  // measure 76
1001
0000
0000
0000
,  // measure 77
0000
0000
0000
0000
,  // measure 78
0110
0000
0000
0000
,  // measure 79
0110
0000
0000
0000
,  // measure 80
1000
0000
1000
0000
,  // measure 81
0001
0000
0001
0000
,  // measure 82
0010
0000
0000
0000
,  // measure 83
0010
0000
0000
0000
,  // measure 84
0100
0000
0000
0000
,  // measure 85
0110
0000
0000
0000
,  // measure 86
0010
0000
0010
0000
,  // measure 87
1000
0000
1000
0000
,  // measure 88
0001
0000
0001
0000
,  // measure 89
1000
0000
1000
0000
,  // measure 90
0010
0000
0000
0000
,  // measure 91
0010
0000
0000
0000
,  // measure 92
0100
0000
0000
0000
,  // measure 93
0110
0000
0000
0000
;
