#TITLE:ぐるぐるDJ TURN!!;
#SUBTITLE:D4DJ First Mix OP Theme;
#ARTIST:Happy Around! ft. Kyoko Yamate & Saki Izumo;
#TITLETRANSLIT:;
#SUBTITLETRANSLIT:;
#ARTISTTRANSLIT:;
#GENRE:;
#CREDIT:;
#BANNER:Guru Guru DJ TURN!!.png;
#BACKGROUND:Guru Guru DJ TURN!!-bg.png;
#LYRICSPATH:;
#CDTITLE:;
#MUSIC:Guru Guru DJ TURN!!.ogg;
#OFFSET:-3.040002;
#SAMPLESTART:68.320602;
#SAMPLELENGTH:12.000000;
#SELECTABLE:YES;
#BPMS:0.000000=220.000000
,128.000000=124.999992
,164.000000=220.000000
;
#STOPS:
;
#BGCHANGES:0.000=Happy Around!.mp4=1.000=0=0=1=====,
48.000=EV01455N.mpg=1.000=0=0=1=====,
112.000=730_JumpBack.mpg=1.000=0=0=1=====,
132.000=319_JumpBack_NTSC_DV.avi=1.000=0=0=1=====,
164.000=Happy Around!.mp4=1.000=0=0=1=====,
180.000=920_JumpBack.mpg=1.000=0=0=1=====,
212.000=739_JumpBack.mpg=1.000=0=0=1=====,
276.000=707_JumpBack.avi=1.000=0=0=1=====,
348.000=VOL1-16-NTSC.mpg=1.000=0=0=1=====,
380.000=739_JumpBack.mpg=1.000=0=0=1=====,
428.000=Happy Around!.mp4=1.000=0=0=1=====,
99999.000=-nosongbg-=1.000=0=0=0=StretchNoLoop====,
99999=-nosongbg-=1.000=0=0=0 // don't automatically add -songbackground-
;
#KEYSOUNDS:;
#ATTACKS:;

//---------------dance-single - ----------------
#NOTES:
     dance-single:
     :
     Easy:
     8:
     0.000000,0.000000,0.000000,0.000000,0.000000,0.000000,0.000000,0.000000,0.000000,0.000000,0.000000,0.000000,0.000000,0.000000,0.000000,0.000000,0.000000,0.000000,0.000000,0.000000,0.000000,0.000000:
0000
0000
0000
0000
,
0000
0000
0000
0000
,
0000
0000
0000
0000
,
0000
0000
0000
0000
,
1000
1000
1000
0000
,
0001
0001
0001
0000
,
1000
0001
1000
0000
,
0001
1000
0001
0000
,
0001
0001
0001
0000
,
1000
1000
1000
0000
,
0100
0000
0100
0000
,
0010
0000
0010
0000
,
1000
0100
1000
0100
,
1000
0001
1000
0001
,
1100
0000
1100
0000
,
0101
0000
0101
0000
,
0001
0010
0001
0010
,
0001
1000
0001
1000
,
0001
0001
1000
1000
,
1001
0000
1001
0000
,
1000
0010
1000
0010
,
1000
0001
1000
0001
,
0011
0000
0011
0000
,
1010
0000
1010
0000
,
0001
0100
0001
0100
,
0001
1000
0001
1000
,
1000
1000
0001
0001
,
1001
0000
1001
0000
,
1100
0000
0000
0000
,
0101
0000
0000
0000
,
0011
0000
0000
0000
,
1010
0000
0000
0000
,
0200
0000
0000
0300
,
1000
1000
1000
0000
,
0001
0001
0001
0000
,
0001
0001
1000
0000
,
1000
1000
0001
0000
,
0010
0010
1000
0000
,
0100
0100
0001
0000
,
2000
0000
3200
0000
,
0320
0000
0032
0000
,
1003
0000
0100
0000
,
0010
0000
0001
0000
,
2002
0000
0000
3003
,
0110
0000
0000
0000
,
0001
0001
0001
0000
,
0010
0010
0010
0000
,
0100
0100
0100
0000
,
1000
1000
1000
0000
,
1000
0000
1100
0000
,
0001
0000
0101
0000
,
1010
0000
1010
0000
,
0011
0000
0000
0000
,
0010
0010
0010
0000
,
0100
0000
0100
0000
,
0001
0001
0001
0000
,
0100
0000
0100
0000
,
1000
1000
1000
0000
,
0100
0000
0100
0000
,
1000
0001
1000
0000
,
0001
1000
0001
0000
,
0010
0010
0010
0000
,
0100
0000
0100
0000
,
1000
0000
1001
0000
,
0001
0000
1001
0000
,
2020
0000
3030
2020
,
0000
3030
2020
0000
,
3030
2002
0000
0000
,
3003
0000
0000
0000
,
0001
1000
0001
0000
,
0100
0001
0100
0000
,
0001
0100
0001
0000
,
0010
0001
0010
0000
,
1000
0001
1000
0000
,
0010
1000
0010
0000
,
1000
0010
1000
0000
,
0100
1000
0100
0000
,
1000
0100
1000
0000
,
0010
0100
0010
0000
,
1000
0001
1000
0000
,
0001
0001
0001
0000
,
1100
0000
0000
0101
,
0000
0000
0000
0000
,
0011
0000
0000
1010
,
0000
0000
0000
0000
,
0220
0000
0000
0330
,
0100
0000
0000
0000
,
0110
0100
0000
0100
,
0000
0100
0000
0100
,
1001
1000
0000
1000
,
0000
1000
0000
1000
,
0110
0100
0000
0100
,
0000
0100
0000
0100
,
1000
0001
1000
0001
,
1000
0000
1001
0000
,
0010
0010
0010
0000
,
0100
0000
0100
0000
,
0001
0000
0001
0000
,
1000
0000
1000
0000
,
0022
0000
0033
0022
,
0000
0033
0022
0000
,
0033
2002
0000
0000
,
3003
0000
0000
0000
,
2020
0000
3030
2020
,
0000
3030
2020
0000
,
3030
0220
0000
0000
,
0330
0000
0000
0000
,
1000
1000
0100
0100
,
0010
0010
0001
0001
,
1100
0000
0101
0000
,
0110
0000
1001
0000
;

//---------------dance-single - ----------------
#NOTES:
     dance-single:
     :
     Medium:
     13:
     0.000000,0.000000,0.000000,0.000000,0.000000,0.000000,0.000000,0.000000,0.000000,0.000000,0.000000,0.000000,0.000000,0.000000,0.000000,0.000000,0.000000,0.000000,0.000000,0.000000,0.000000,0.000000:
0000
0000
0000
0000
,
0000
0000
0000
0000
,
0000
0000
0000
0000
,
0000
0000
0000
0000
,
1000
0010
1000
0000
,
1000
0010
1100
0000
,
0001
0010
0001
0000
,
0001
0010
0101
1100
,
1000
0100
0001
0000
,
0010
0100
1001
0000
,
1100
0000
0000
0100
0100
0000
0000
0010
,
0010
0000
0011
0011
,
0100
1000
0010
0001
,
1000
0001
1000
0001
,
1100
0000
0000
0101
0000
0000
0000
0000
,
0101
0000
0000
1100
0000
0000
0000
0000
,
0100
0001
0010
1000
,
0001
1000
0001
1000
,
1000
0100
1000
0000
1000
0010
1000
0000
,
0001
0100
0001
0000
0001
0010
0001
0000
,
1000
0100
0010
0001
,
1000
0001
1000
0001
,
1010
0000
0000
0011
0000
0000
0000
0000
,
0011
0000
0000
1010
0000
0000
0000
0000
,
0001
0010
0100
1000
,
0001
1000
0001
1000
,
0100
1000
0100
0000
0100
0001
0100
0000
,
0010
1000
0010
0000
0010
0001
0010
0000
,
1100
0000
1010
0000
,
1001
0000
0011
0000
,
0101
0000
1001
0000
,
1000
1000
0001
0001
,
0220
0000
0000
0330
,
1000
0100
1000
0000
0100
1000
0100
0000
,
0001
0100
0001
0000
0100
0001
0100
0000
,
1000
0010
1000
0000
0010
1000
0010
0000
,
0001
0010
0001
0000
0010
0001
0010
0000
,
1000
0100
0001
0000
0001
0010
1000
0000
,
1000
0010
0001
0000
0001
0100
1000
0000
,
1000
0100
1000
0100
0000
0000
0001
0100
0001
0100
0000
0000
,
1100
0000
0101
0000
1000
1000
0001
0001
,
1100
0000
1001
0000
,
0101
0000
1001
0000
,
1000
1000
0100
0100
,
0010
0010
0002
0003
,
1000
0100
1000
0100
1000
0000
0000
0000
,
0100
0010
0100
0010
0100
0000
0000
0000
,
0010
0001
0010
0001
0010
0000
0000
0000
,
1000
0001
1000
0001
1000
0000
0000
0000
,
0001
0001
0010
0010
,
0100
0100
1000
1000
,
1100
0000
0110
0000
,
0022
0000
0000
0033
,
1010
1010
0000
0000
,
0001
1000
0001
1000
0001
0100
0001
0000
,
0011
0011
0000
0000
,
1000
0001
1000
0001
1000
0100
1000
0000
,
1001
1001
0000
0000
,
1000
0100
0010
0001
,
1100
0000
1010
0000
,
0001
0001
1000
1000
,
0110
0110
0000
0000
,
1000
0001
1000
0001
0100
0010
0100
0000
,
1100
0000
0101
0000
,
0100
0100
0010
0010
,
0002
0000
0000
0023
0000
0000
0230
0000
,
0000
2300
0000
0000
3200
0000
0000
0320
,
0000
0000
0002
0000
0000
0000
0000
0033
,
0000
0000
0000
0000
,
1000
0100
1000
0100
,
0001
0100
0001
0100
,
1000
0001
1000
0001
,
1000
0100
1000
0000
0001
0100
0001
0000
,
0001
0010
0001
0010
,
1000
0010
1000
0010
,
0001
0010
0001
0000
1000
0010
1000
0000
,
1001
0000
1001
0000
,
1000
0100
1000
0100
,
0001
0100
0001
0100
,
1000
0010
1000
0010
,
0001
0010
0001
0010
,
0002
0000
0000
0023
0000
0000
0230
0000
,
0000
2300
0000
0000
3001
0000
0001
0000
,
1100
0000
0000
0110
0000
0000
0011
0000
,
0000
0110
0000
0000
1001
0000
0000
0000
,
0220
0000
0000
0330
,
0110
0000
0000
0000
,
1000
0001
0000
0001
,
0000
0001
0000
0001
,
0001
1000
0000
1000
,
0000
1000
0000
1000
,
1000
0001
0000
0001
,
0000
0001
0000
0001
,
1000
0001
1000
0000
0001
1000
0001
0000
,
1001
0000
0000
0000
,
0110
0110
0000
0000
,
1000
0001
1000
0001
0010
0100
0010
0000
,
0011
0000
1010
0000
,
0010
0010
0100
0100
,
0002
0000
0000
0023
0000
0000
0230
0000
,
0000
2300
0000
0000
3200
0000
0000
0320
,
0000
0002
0000
0033
,
0000
0000
0000
0000
,
2000
0000
0000
3200
0000
0000
0320
0000
,
0000
0032
0000
0000
0023
0000
0000
0230
,
0000
0000
2000
0000
0000
0000
0000
3300
,
0000
0000
0000
0000
,
1000
0100
1000
0000
1000
0010
1000
0000
,
0001
0010
0001
0000
0001
0100
0001
0000
,
1100
0000
0101
0000
,
0110
0000
2002
0000
,
0000
0000
3003
0000
;

//---------------dance-single - ----------------
#NOTES:
     dance-single:
     :
     Hard:
     17:
     0.000000,0.000000,0.000000,0.000000,0.000000,0.000000,0.000000,0.000000,0.000000,0.000000,0.000000,0.000000,0.000000,0.000000,0.000000,0.000000,0.000000,0.000000,0.000000,0.000000,0.000000,0.000000:
0000
0000
0000
0000
,
0000
0000
0000
0000
,
0000
0000
0000
0000
,
0000
0000
0000
0000
,
0100
0000
0010
0000
1000
0010
0000
0000
,
1010
0011
1001
0010
,
2001
0000
0100
0000
0001
0010
3000
0000
,
1001
0000
0011
0000
1000
0100
0000
1001
,
0000
0000
0010
0000
1000
0100
0000
0100
,
0011
0110
1100
0000
,
1010
0000
0100
0101
0000
0010
1010
0000
,
1100
0110
0011
1001
,
1000
0000
0001
0000
0010
0001
0000
0001
,
0000
0100
0001
0001
0010
0000
1000
0000
,
2200
0000
3300
2002
0000
3003
0000
0000
,
0202
0000
0303
2002
0000
3003
0000
0000
,
0001
0000
1000
0000
1000
1000
0000
0100
,
0000
0010
0000
0010
0010
0000
1000
0100
,
0011
0000
1100
0000
0011
1100
0000
2010
,
0000
3001
0000
0001
0110
0000
0110
0000
,
2000
0000
3100
0000
0100
0100
0000
1000
,
0000
0001
0000
1000
0001
0000
0001
0000
,
0202
0000
0303
2020
0000
3030
0000
0000
,
2002
0000
3003
0220
0000
0330
1000
0000
,
0011
0000
1000
0100
0011
0000
0001
0010
,
1100
0000
0100
0010
1001
0000
1000
0001
,
0010
0000
0010
0000
0010
0010
0000
0100
,
0000
0100
0000
0100
0100
0000
1001
0000
,
0002
0000
0000
1003
0020
0000
0000
1030
,
0200
0000
0000
1300
2000
0000
0000
3000
,
1001
0000
0110
0000
,
1100
0110
0011
1001
,
0220
0000
0000
0000
0000
0000
0000
0330
,
0001
0000
0001
0000
1000
0000
0100
0000
0001
1000
0000
1001
0000
0000
0201
0000
,
0000
0310
0100
1000
1010
0000
0101
0000
,
0021
0000
0000
0000
1030
0000
0000
0000
0010
0100
0000
0110
0000
0000
0010
0000
,
1000
0001
0100
1000
0202
0303
1100
0000
,
0001
0000
1000
0000
1000
0000
1000
0000
0001
0001
0000
0011
0000
0000
0002
0000
,
0000
1003
1000
0001
1000
0001
0202
0303
,
1000
0000
0100
0000
0010
0000
0001
0000
0000
0010
0000
0000
0001
0000
0010
0000
0100
0000
1000
0000
0000
0100
0000
0000
,
0022
0033
0202
0303
1000
1000
0001
0001
,
2002
0000
3003
0010
0220
0000
0330
1000
,
2200
0000
3300
0010
0022
0000
0000
0033
,
0010
0010
0010
0010
0010
0010
0010
0010
,
1100
0000
1001
0000
2002
0000
0000
3003
,
0001
0010
0001
0100
1010
0202
0000
0303
,
1000
0100
1000
0010
1100
0022
0000
0033
,
1000
0001
1000
0010
1000
0002
0000
0103
,
0010
0100
0010
0100
0220
0000
0330
0000
,
1100
1100
0110
0110
,
0011
0011
1001
1001
,
2020
3030
0202
0303
,
2002
0000
3003
0110
,
1100
0000
0022
0000
0033
0001
1000
0011
,
0000
0110
0000
1100
0000
1000
0100
0010
,
0101
0000
2020
0000
3030
0001
1000
0110
,
0000
0110
0000
0220
0000
0000
0000
0330
,
1100
0000
0022
0000
0033
0010
0000
0010
,
0000
0010
0000
0220
0000
0330
1000
0001
,
1100
0000
1001
1001
0000
1100
0000
0011
,
0000
1010
0000
0202
0000
0000
0000
0303
,
0011
0000
2200
0000
3300
0001
0010
0100
,
0000
1100
0000
1100
0000
1000
0100
0001
,
0100
0000
0100
0010
0000
0100
0000
1002
,
0000
1003
0000
0011
0000
1100
0000
0000
,
0022
0000
0033
0220
0000
0330
2200
0000
,
3300
0220
0000
0330
0022
0000
0033
0220
,
0000
0330
2002
0000
0000
0000
3003
1001
,
0000
0100
0010
0100
0010
0000
0110
0000
,
0001
0010
0001
0010
1000
0100
1000
0100
,
1000
0001
1000
0001
1000
0010
1000
0010
,
0001
1000
0001
1000
0010
0001
0010
0001
,
0100
0010
0100
0010
1000
0100
1000
0100
,
0001
0010
0001
0010
0100
0001
0100
0001
,
0010
1000
0010
1000
0001
1000
0001
1000
,
0011
0000
0000
0110
0000
0110
0000
1100
,
0000
1100
0000
1001
1001
0000
0110
0000
,
1000
0100
1000
0100
0001
0010
0001
0010
,
0001
0100
0001
0100
1000
0010
1000
0010
,
0100
0001
0100
0001
0010
1000
0010
1000
,
1000
0100
1000
0100
0010
0100
0010
0100
,
0011
0000
0000
1010
0000
0000
1100
0000
,
0000
0101
0000
0000
1001
0000
0110
0000
,
1100
1100
0000
0110
0110
0000
0011
0011
,
0000
1001
1001
0000
1100
0000
0011
0000
,
0010
0010
0010
0010
0010
0010
0010
0010
,
0220
0000
0000
0000
0000
0330
0001
0000
,
1100
0011
0000
0001
,
0000
0001
0000
0001
,
0011
1100
0000
1000
,
0000
1000
0000
1000
,
1010
0101
0000
0001
,
0000
0001
0000
0001
,
1100
0000
0011
0011
0000
2000
0000
3001
,
0000
0110
0000
2200
0000
3300
0011
0000
,
1001
0000
2002
0000
3003
0100
0000
0011
,
0000
0110
0000
1010
0000
0001
0010
1000
,
0100
0000
0001
1000
0000
0100
0000
2001
,
0000
3001
0000
1001
0000
0110
0000
0000
,
0022
0000
0033
0220
0000
0330
2200
0000
,
3300
0220
0000
0330
0022
0000
0033
0220
,
0000
0330
2200
0000
0000
0000
3300
1001
,
0000
0100
0010
0100
0010
0000
0110
0000
,
2020
0000
3030
2002
0000
3003
0202
0000
,
0303
2002
0000
3003
2020
0000
3030
2002
,
0000
3003
0202
0000
0000
0000
0303
0101
,
0000
0100
0010
0100
0010
0000
0110
0000
,
0110
0000
MM00
M0M0
M00M
M00M
M0M0
MM00
,
0000
M0M0
M0M0
M0M0
MMMM
00M0
00M0
MM00
,
M0M0
M00M
M00M
M0M0
MM00
0000
MMMM
000M
,
000M
000M
M0M0
0M00
2002
0000
0000
0000
,
3003
0000
0000
0000
;

//---------------dance-single - ----------------
#NOTES:
     dance-single:
     :
     Beginner:
     3:
     0.178502,0.248032,0.142160,0.000000,0.000000,167.000000,148.000000,19.000000,0.000000,0.000000,0.000000,0.178502,0.248032,0.142160,0.000000,0.000000,167.000000,148.000000,19.000000,0.000000,0.000000,0.000000:
// measure 0
0000
0000
0000
0000
,  // measure 1
0000
0000
0000
0000
,  // measure 2
0000
0000
0000
0000
,  // measure 3
0000
0000
0000
0000
,  // measure 4
1000
0000
1000
0000
,  // measure 5
0001
0000
0001
0000
,  // measure 6
1000
0000
1000
0000
,  // measure 7
0001
0000
0001
0000
,  // measure 8
1000
0000
1000
0000
,  // measure 9
0001
0000
0001
0000
,  // measure 10
0010
0000
0010
0000
,  // measure 11
0100
0000
0100
0000
,  // measure 12
1000
0000
1000
0000
,  // measure 13
1000
0000
1000
0000
,  // measure 14
0001
0000
0001
0000
,  // measure 15
0001
0000
0001
0000
,  // measure 16
0010
0000
0010
0000
,  // measure 17
0010
0000
0010
0000
,  // measure 18
0100
0000
0100
0000
,  // measure 19
0100
0000
0100
0000
,  // measure 20
0001
0000
0001
0000
,  // measure 21
0001
0000
0001
0000
,  // measure 22
0100
0000
0100
0000
,  // measure 23
0100
0000
0100
0000
,  // measure 24
1000
0000
1000
0000
,  // measure 25
1000
0000
1000
0000
,  // measure 26
0010
0000
0010
0000
,  // measure 27
0010
0000
0010
0000
,  // measure 28
1000
0000
1000
0000
,  // measure 29
0001
0000
0001
0000
,  // measure 30
1001
0000
0000
0000
,  // measure 31
0110
0000
0000
0000
,  // measure 32
0000
0000
0000
0000
,  // measure 33
1000
0000
0000
0000
,  // measure 34
0001
0000
0000
0000
,  // measure 35
0010
0000
0000
0000
,  // measure 36
0100
0000
0000
0000
,  // measure 37
0001
0000
0000
0000
,  // measure 38
1000
0000
0000
0000
,  // measure 39
0100
0000
0000
0000
,  // measure 40
0010
0000
0000
0000
,  // measure 41
1001
0000
0000
0000
,  // measure 42
0000
0000
0000
0000
,  // measure 43
0000
0000
0000
0000
,  // measure 44
0000
0000
0000
0000
,  // measure 45
0110
0000
0000
0000
,  // measure 46
1001
0000
0000
0000
,  // measure 47
1001
0000
0000
0000
,  // measure 48
0110
0000
0000
0000
,  // measure 49
1000
0000
1000
0000
,  // measure 50
0100
0000
0100
0000
,  // measure 51
0010
0000
0010
0000
,  // measure 52
0001
0000
0001
0000
,  // measure 53
0001
0000
0001
0000
,  // measure 54
1000
0000
1000
0000
,  // measure 55
0001
0000
0001
0000
,  // measure 56
0100
0000
0100
0000
,  // measure 57
0010
0000
0010
0000
,  // measure 58
0001
0000
0001
0000
,  // measure 59
1001
0000
0000
0000
,  // measure 60
0110
0000
0000
0000
,  // measure 61
1000
0000
1000
0000
,  // measure 62
0001
0000
0001
0000
,  // measure 63
0010
0000
0000
0000
,  // measure 64
0010
0000
0000
0000
,  // measure 65
1100
0000
0000
0000
,  // measure 66
0000
0000
0000
0000
,  // measure 67
0000
0101
0000
0000
,  // measure 68
0000
0000
0000
0000
,  // measure 69
1000
0000
1000
0000
,  // measure 70
1000
0000
1000
0000
,  // measure 71
0001
0000
0001
0000
,  // measure 72
0001
0000
0001
0000
,  // measure 73
0100
0000
0100
0000
,  // measure 74
0100
0000
0100
0000
,  // measure 75
0010
0000
0010
0000
,  // measure 76
0010
0000
0010
0000
,  // measure 77
1000
0000
0001
0000
,  // measure 78
1000
0000
0001
0000
,  // measure 79
0001
0000
1000
0000
,  // measure 80
0001
0000
1000
0000
,  // measure 81
0110
0000
0000
0000
,  // measure 82
0000
0000
0000
0000
,  // measure 83
0110
0000
0000
0000
,  // measure 84
0000
0000
0000
0000
,  // measure 85
1001
0000
0000
0000
,  // measure 86
0000
0000
0000
0000
,  // measure 87
1000
0000
0000
0000
,  // measure 88
0000
0000
0000
0000
,  // measure 89
1000
0000
0000
0000
,  // measure 90
0000
0000
0000
0000
,  // measure 91
0001
0000
0000
0000
,  // measure 92
0000
0000
0000
0000
,  // measure 93
0001
0000
0000
0000
,  // measure 94
0000
0000
0000
0000
,  // measure 95
1000
0000
1000
0000
,  // measure 96
0001
0000
0001
0000
,  // measure 97
0100
0000
0010
0000
,  // measure 98
0100
0000
0010
0000
,  // measure 99
0110
0000
0000
0000
,  // measure 100
0000
0000
0000
0000
,  // measure 101
0000
0110
0000
0000
,  // measure 102
0000
0000
0000
0000
,  // measure 103
1001
0000
0000
0000
,  // measure 104
0000
0000
0000
0000
,  // measure 105
0000
1001
0000
0000
,  // measure 106
0000
0000
0000
0000
,  // measure 107
1000
0000
1000
0000
,  // measure 108
0100
0000
0100
0000
,  // measure 109
0010
0000
0010
0000
,  // measure 110
0001
0000
1001
0000
;
