#TITLE:ぎぶみーAwesome!!!!;
#SUBTITLE:;
#ARTIST:Muni Ohnaruto from Happy Around!;
#TITLETRANSLIT:;
#SUBTITLETRANSLIT:;
#ARTISTTRANSLIT:;
#GENRE:;
#CREDIT:;
#BANNER:Give Me Awesome!!!!.png;
#BACKGROUND:Give Me Awesome!!!!-BG.png;
#LYRICSPATH:;
#CDTITLE:;
#MUSIC:Give Me Awesome!!!!.ogg;
#OFFSET:-0.120000;
#SAMPLESTART:50.461304;
#SAMPLELENGTH:12.000000;
#SELECTABLE:YES;
#BPMS:0.000000=180.000000
,262.000000=90.000000
,265.000000=180.000000
;
#STOPS:263.000000=0.780001
;
#BGCHANGES:;
#KEYSOUNDS:;
#ATTACKS:;

//---------------dance-single - ----------------
#NOTES:
     dance-single:
     :
     Easy:
     5:
     0.000000,0.000000,0.000000,0.000000,0.000000,0.000000,0.000000,0.000000,0.000000,0.000000,0.000000,0.000000,0.000000,0.000000,0.000000,0.000000,0.000000,0.000000,0.000000,0.000000,0.000000,0.000000:
0000
0000
0000
0000
,
0000
0000
0000
0000
,
0000
0000
0000
0000
,
0000
0000
0000
0000
,
1000
1000
0001
0001
,
1000
1000
0001
0001
,
0100
0010
0100
0010
,
1000
1000
0001
0001
,
0000
0000
0000
0000
,
0001
0000
0001
0000
,
1000
0000
1000
0000
,
1000
0100
1000
0100
,
0001
0100
0001
0100
,
0001
0000
0001
0000
,
1000
0000
1000
0000
,
0001
0100
0001
0100
,
1000
0100
1000
0100
,
1000
1000
1000
1000
,
0001
0001
0001
0001
,
1000
1000
1000
1000
,
0001
0001
0001
0001
,
1000
1000
1000
1000
,
0001
0001
0001
0001
,
1000
0100
1000
0100
,
1001
0000
1001
0000
,
1000
1000
1000
0001
,
0001
0001
1000
1000
,
1000
0110
0000
0110
,
0001
0001
0001
1000
,
1000
1000
0001
0001
,
0001
0110
0000
0110
,
1000
1000
1000
0001
,
0001
0001
1000
1000
,
1000
0100
0000
0000
,
0001
0001
0001
0001
,
1000
1000
1000
1000
,
0020
0000
0000
0030
,
0000
0000
0000
1001
,
1000
0001
1000
0000
,
0001
1000
0001
0000
,
1000
0001
1000
0000
,
0001
1000
0001
0000
,
1000
0000
1000
0000
,
0001
0000
0001
0000
,
1000
0000
1000
0000
,
1001
0000
0000
0000
,
1000
0001
1000
0000
,
0001
1000
0001
0000
,
1000
0001
1000
0000
,
0001
1000
0001
0000
,
0001
0000
0001
0000
,
1000
0000
1000
0000
,
1001
0000
0000
0000
,
0110
0000
0000
0000
,
0002
0000
0000
1003
,
1100
0000
0101
0000
,
1001
0000
0000
0000
,
1000
1000
0001
0001
,
1000
1000
0001
0001
,
1000
1000
0001
0001
,
1000
1000
0001
0001
,
1000
1000
0001
0001
,
1000
1000
0001
0001
,
0100
0010
0100
0010
,
1000
1000
0001
0001
,
0000
0000
0000
0000
,
0000
0000
1000
0001
,
1000
0000
0001
1000
,
0001
0000
1000
0001
,
1000
0000
0001
1000
,
0001
0000
1000
0000
,
1000
0000
0001
0000
,
0001
0000
1001
0000
,
0000
0000
0000
0000
,
0000
0000
1000
0001
,
1000
0000
0001
1000
,
0001
0000
1000
0001
,
1000
0000
0001
1000
,
0001
0000
0001
0000
,
0001
0000
1000
0000
,
1000
0000
1001
0000
,
0000
0000
0110
0000
,
0000
0000
2000
0000
,
0000
3001
0011
0000
,
1010
0000
1001
0000
,
0000
0000
1000
1000
,
0001
0001
1000
1000
,
0001
0001
1000
1000
,
0001
0001
1000
1000
,
0001
0001
1000
1000
,
0001
0001
1000
1000
,
0001
0001
0100
0010
,
0100
0010
1000
1000
,
0001
0001
0000
1001
;

//---------------dance-single - ----------------
#NOTES:
     dance-single:
     :
     Medium:
     12:
     0.000000,0.000000,0.000000,0.000000,0.000000,0.000000,0.000000,0.000000,0.000000,0.000000,0.000000,0.000000,0.000000,0.000000,0.000000,0.000000,0.000000,0.000000,0.000000,0.000000,0.000000,0.000000:
0000
0000
0000
0000
,
0000
0000
0000
0000
,
0000
0000
0000
0000
,
0000
0000
0000
0000
,
2000
3010
2000
3010
,
0002
0013
0002
0013
,
0100
0000
0010
0100
0100
0000
0010
0000
,
1000
0100
0001
0000
0010
0000
0010
0000
,
0000
0000
0000
0000
0100
1000
0200
0000
,
0301
0001
0001
0001
,
1000
1000
1000
1000
,
2000
0000
3000
0020
0000
0000
0030
0002
,
0000
0000
0003
0110
0000
0010
0010
0000
,
1000
1000
1000
1000
,
0001
0001
0001
0001
,
0002
0000
0003
0020
0000
0000
0030
2000
,
0000
0000
3000
0110
0000
0010
0010
0000
,
1000
0000
0100
0000
0001
0100
0001
0100
,
0001
0000
0100
0000
1000
0100
1000
0100
,
1000
0000
0001
0000
0010
0100
0010
0100
,
1000
0001
1000
0000
0001
1000
0001
0000
,
1000
0010
1000
0010
1000
0010
1000
0010
,
0001
0010
0001
0010
0001
0010
0001
0010
,
0100
0010
0100
0010
0100
0010
0100
0010
,
0000
0100
0100
0110
0000
0000
0000
0000
,
0001
0001
0001
1000
,
1000
1000
0001
0001
,
0001
1100
1100
1100
,
1000
1000
1000
0001
,
0001
0001
1000
1000
,
1000
0101
0101
0101
,
0001
0001
0001
1000
,
1000
1000
0001
0001
,
0001
0010
0000
0000
,
0100
0100
0100
0100
,
0010
0010
0010
0010
,
1000
0010
1000
0010
0001
0010
0001
0010
,
0000
0010
0000
0110
0000
0000
0000
0000
,
1000
1000
0001
0110
,
0001
0001
1000
0110
,
1000
1000
0001
0110
,
0001
0001
1000
0110
,
1000
0010
1000
0010
,
0100
0010
0100
0010
,
0002
0000
0000
0000
0000
0000
1000
1003
,
0000
0100
0100
0010
0010
0000
0000
0000
,
0001
0001
1000
0110
,
1000
1000
0001
0110
,
0001
0001
1000
0110
,
1000
1000
0001
0110
,
0001
0010
0001
0010
,
0100
0010
0100
0010
,
2000
0000
0000
0000
,
3001
0000
0000
1001
0000
0000
0000
0000
,
2002
0000
0000
0000
0000
0003
3010
0000
,
1000
0100
1000
0000
0001
0100
0001
0000
,
1000
0001
1000
0001
0000
0000
0000
0000
,
2000
3010
2000
3010
,
0002
0013
0002
0013
,
2000
3010
2000
3010
,
0002
0013
0002
0013
,
2000
3010
2000
3010
,
0002
0013
0002
0013
,
1000
1000
0001
0001
,
0100
0010
0100
0000
1001
0000
1001
0000
,
0000
0000
0000
0000
,
0000
0000
1000
1000
,
0100
1001
0001
0001
,
0010
1001
1000
1000
,
0100
1001
0001
0001
,
0010
1001
1000
0010
,
1000
0010
0100
0010
,
0100
0010
0002
0000
,
0000
0000
1000
1003
0000
0100
0100
0010
,
0010
0000
0001
0001
,
0010
1001
1000
1000
,
0100
1001
0001
0001
,
0010
1001
1000
1000
,
0100
1001
0001
0010
,
0001
0010
0100
0010
,
0100
0010
2000
0000
,
0000
0000
0000
0000
3001
0000
0000
1001
,
0000
0000
2002
0000
,
0000
0003
3010
0000
0001
0010
0001
0000
,
1000
0010
1000
0000
0001
1000
0001
1000
,
0000
0000
0002
0013
,
0020
1030
2000
3100
,
0200
0301
0002
0013
,
0020
1030
2000
3100
,
0200
0301
2000
3010
,
0020
0031
0002
0103
,
0200
1300
0001
0001
,
1000
0000
1000
0000
0010
0100
0010
0000
,
1001
1001
0000
1001
;

//---------------dance-single - ----------------
#NOTES:
     dance-single:
     :
     Hard:
     14:
     0.000000,0.000000,0.000000,0.000000,0.000000,0.000000,0.000000,0.000000,0.000000,0.000000,0.000000,0.000000,0.000000,0.000000,0.000000,0.000000,0.000000,0.000000,0.000000,0.000000,0.000000,0.000000:
0000
0000
0000
0000
,
0000
0000
0000
0000
,
0000
0000
0000
0000
,
0000
0000
0000
0000
,
0010
0101
0010
1100
,
0010
0101
0010
1100
,
0001
0000
0010
1000
1000
0000
1001
0000
,
0100
0010
0100
0000
0010
0000
1001
0000
,
0200
0000
0000
0300
1000
0100
0001
0100
,
0000
0001
0000
0001
0000
0001
0000
0001
,
0000
1000
0000
1000
0000
1000
0000
1000
,
0220
0000
0330
2200
0000
0000
3300
0202
,
0000
0000
0303
2002
3003
0110
0110
0000
,
0000
0010
0000
0010
0000
0010
0000
0010
,
0000
0100
0000
0100
0000
0100
0000
0100
,
0022
0000
0033
0220
0000
0000
0330
1100
,
0000
0001
0001
0001
0001
0001
0001
0001
,
0001
0000
0001
0000
0100
0000
1000
0000
0010
0000
0100
0010
0000
0000
0110
0000
,
0000
0000
1000
0000
0100
0000
0001
0000
0010
0000
0000
0010
0000
0000
0110
0000
,
0000
0010
1000
0100
0001
1000
0001
1000
,
0000
0010
0100
0000
1001
0000
0000
0000
,
0010
0001
0010
0100
0010
0001
0010
0100
,
0010
1000
0010
0100
0010
1000
0010
0100
,
1000
1000
0100
0100
0001
0001
0100
0100
,
0000
0100
0100
2200
0000
0000
3300
0000
,
1000
1000
1100
0001
,
0001
0101
1001
0000
,
0010
0110
0110
0110
,
0001
0001
0011
1000
,
1000
1010
1001
0000
,
0000
0110
0110
0110
,
0010
0010
1010
0100
,
0100
0101
1000
0010
,
0001
0000
1001
0000
0020
0000
0000
1000
,
0030
1000
0001
1000
0001
0000
0100
0010
,
0000
0010
0000
0100
0000
0100
0000
2002
,
0000
0000
0000
0000
0000
0000
3003
0010
,
0000
0010
0000
0110
0000
0000
0000
1000
,
0000
0010
0001
0000
0011
0000
0000
0001
,
0000
0010
1000
0000
1010
0000
0000
1000
,
0000
0010
0001
0000
0011
0000
0000
0001
,
0000
0010
1000
0000
1010
0000
0000
0000
,
0010
0010
1000
0001
,
0100
1000
0100
1000
0000
0100
0000
0202
,
0000
0000
0000
0000
0303
0000
0010
0010
,
0000
0100
0100
0001
1001
0000
0000
0001
,
0000
0100
1000
0000
1100
0000
0000
1000
,
0000
0100
0001
0000
0101
0000
0000
0001
,
0000
0100
1000
0000
1100
0000
0000
1000
,
0000
0100
0001
0000
0101
0000
0000
0000
,
0100
0100
0010
0010
,
0001
0000
0001
1000
0000
1000
0000
0220
,
0000
0000
0000
0330
,
1000
0010
1000
0010
0000
0100
0010
0000
,
2002
0000
0000
3003
,
1000
1000
1000
0000
0001
0001
0001
0000
,
0010
0010
0100
0200
0000
0000
0300
0000
,
0100
1010
0100
0011
,
0100
1010
0100
0011
,
0100
1010
0100
0011
,
0100
1010
0100
0011
,
0100
1001
0100
0110
,
0100
0110
0100
1001
,
1000
0000
0001
0010
0010
0000
0110
0000
,
1000
0010
0001
0000
1001
0000
1001
0000
,
0000
0000
0000
0000
0000
0000
0000
0010
,
0010
0010
0010
1000
0000
0010
0001
0000
,
0011
0000
0000
0001
0000
0010
1000
0000
,
1010
0000
0000
1000
0000
0010
0001
0000
,
0011
0000
0000
0001
0000
0010
1000
0000
,
1010
0000
0010
0010
,
1000
0000
0001
0000
0100
0001
0100
0001
,
0000
0100
0000
2200
0000
0000
0000
0000
,
0000
3300
0100
0100
0000
0010
0010
1000
,
1001
0000
0000
0001
0000
0100
1000
0000
,
1100
0000
0000
1000
0000
0100
0001
0000
,
0101
0000
0000
0001
0000
0100
1000
0000
,
1100
0000
0000
1000
0000
0100
0001
0000
,
0101
0000
0010
0010
,
0100
0000
0100
0000
1000
0000
1000
0001
,
0000
0001
0000
0220
0000
0000
0000
0000
,
0000
0000
0000
0330
0001
0010
0001
0010
,
0000
0100
0010
0000
2002
0000
0000
0000
,
0000
3003
1001
0000
0001
0001
0001
0000
,
1000
1000
1000
0000
0100
0100
0010
0020
,
0000
0030
0110
0000
1000
0000
0110
0000
,
0001
0110
1000
0110
,
0001
0110
1000
0110
,
0001
0110
1000
0110
,
0001
0110
0100
1010
,
0100
0011
0100
1001
,
0010
0000
1001
0000
1000
0000
0001
0010
,
0010
0000
0110
0000
1000
0010
0001
0000
,
0110
0110
0000
1001
;

//---------------dance-single - ----------------
#NOTES:
     dance-single:
     :
     Beginner:
     2:
     0.108193,0.181127,0.077281,0.000000,0.000000,98.000000,88.000000,10.000000,0.000000,0.000000,0.000000,0.108193,0.181127,0.077281,0.000000,0.000000,98.000000,88.000000,10.000000,0.000000,0.000000,0.000000:
// measure 0
0000
0000
0000
0000
,  // measure 1
0000
0000
0000
0000
,  // measure 2
0000
0000
0000
0000
,  // measure 3
0000
0000
0000
0000
,  // measure 4
1000
0000
0000
0000
,  // measure 5
0001
0000
0000
0000
,  // measure 6
1000
0000
0000
0000
,  // measure 7
0001
0000
0000
0000
,  // measure 8
0000
0000
0000
0000
,  // measure 9
0100
0000
0000
0000
,  // measure 10
0000
0000
0000
0000
,  // measure 11
0010
0000
0000
0000
,  // measure 12
0010
0000
0000
0000
,  // measure 13
0100
0000
0000
0000
,  // measure 14
0000
0000
0000
0000
,  // measure 15
0010
0000
0000
0000
,  // measure 16
0010
0000
0000
0000
,  // measure 17
1000
0000
0000
0000
,  // measure 18
1000
0000
0000
0000
,  // measure 19
0001
0000
0000
0000
,  // measure 20
0001
0000
0000
0000
,  // measure 21
1000
0000
0000
0000
,  // measure 22
1000
0000
0000
0000
,  // measure 23
0001
0000
0000
0000
,  // measure 24
0001
0000
0000
0000
,  // measure 25
1000
0000
0000
1000
,  // measure 26
0000
0000
1000
0000
,  // measure 27
0000
1001
0000
0000
,  // measure 28
0001
0000
0000
0001
,  // measure 29
0000
0000
0001
0000
,  // measure 30
0000
1001
0000
0000
,  // measure 31
0100
0000
0000
0100
,  // measure 32
0000
0000
0100
0000
,  // measure 33
0000
0010
0000
0000
,  // measure 34
0010
0000
0000
0000
,  // measure 35
0010
0000
0000
0000
,  // measure 36
1001
0000
0000
0000
,  // measure 37
0000
0000
0000
0000
,  // measure 38
0010
0000
0000
0000
,  // measure 39
0010
0000
0000
0000
,  // measure 40
0010
0000
0000
0000
,  // measure 41
0010
0000
0000
0000
,  // measure 42
1000
0000
0000
0000
,  // measure 43
1000
0000
0000
0000
,  // measure 44
1001
0000
0000
0000
,  // measure 45
0000
0000
0000
0000
,  // measure 46
0010
0000
0000
0000
,  // measure 47
0010
0000
0000
0000
,  // measure 48
0010
0000
0000
0000
,  // measure 49
0010
0000
0000
0000
,  // measure 50
0001
0000
0000
0000
,  // measure 51
0001
0000
0000
0000
,  // measure 52
1001
0000
0000
0000
,  // measure 53
0100
0000
0000
0000
,  // measure 54
1001
0000
0000
0000
,  // measure 55
0100
0000
0100
0000
,  // measure 56
0100
0000
0000
0000
,  // measure 57
1000
0000
0000
0000
,  // measure 58
0001
0000
0000
0000
,  // measure 59
1000
0000
0000
0000
,  // measure 60
0001
0000
0000
0000
,  // measure 61
1000
0000
0000
0000
,  // measure 62
0001
0000
0000
0000
,  // measure 63
1000
0000
0000
0000
,  // measure 64
0001
0000
0000
0000
,  // measure 65
0000
0000
0000
0000
,  // measure 66
0000
0000
0010
0000
,  // measure 67
0000
0000
0010
0000
,  // measure 68
0000
0000
0010
0000
,  // measure 69
0000
0000
0010
0000
,  // measure 70
0000
0000
1000
0000
,  // measure 71
0000
0000
1000
0000
,  // measure 72
0000
0000
1001
0000
,  // measure 73
0000
0000
0000
0000
,  // measure 74
0000
0000
0010
0000
,  // measure 75
0000
0000
0010
0000
,  // measure 76
0000
0000
0010
0000
,  // measure 77
0000
0000
0010
0000
,  // measure 78
0000
0000
0001
0000
,  // measure 79
0000
0000
0001
0000
,  // measure 80
0000
0000
1001
0000
,  // measure 81
0000
0000
0010
0000
,  // measure 82
0000
0000
1001
0000
,  // measure 83
0000
0000
0010
0000
,  // measure 84
0010
0000
0010
0000
,  // measure 85
0000
0000
1000
0000
,  // measure 86
0000
0000
0001
0000
,  // measure 87
0000
0000
1000
0000
,  // measure 88
0000
0000
0001
0000
,  // measure 89
0000
0000
1000
0000
,  // measure 90
0000
0000
0001
0000
,  // measure 91
0000
0000
1000
0000
,  // measure 92
0000
0000
0001
0000
,  // measure 93
0000
0000
0000
1001
;
