#VERSION:0.83;
#TITLE:G.O.A.T.;
#SUBTITLE:;
#ARTIST:Merm4id;
#TITLETRANSLIT:;
#SUBTITLETRANSLIT:;
#ARTISTTRANSLIT:;
#GENRE:;
#ORIGIN:;
#TAGS:;
#CREDIT:;
#BANNER:G.O.A.T.png;
#BACKGROUND:G.O.A.T-BG.png;
#PREVIEWVID:;
#JACKET:G.O.A.T-Jacket.png;
#CDIMAGE:;
#DISCIMAGE:G.O.A.T-Jacket.png;
#LYRICSPATH:;
#CDTITLE:;
#MUSIC:G.O.A.T.ogg;
#OFFSET:0.100000;
#SAMPLESTART:62.465153;
#SAMPLELENGTH:12.000000;
#SELECTABLE:YES;
#DISPLAYBPM:140.000000;
#BPMS:0.000000=140.000000,
243.000000=150.000000,
244.000000=160.000000,
245.000000=170.000000,
246.000000=190.000000,
247.000000=200.000000,
249.000000=220.000000,
251.000000=240.000000,
253.000000=260.000000,
255.000000=280.000000,
258.000000=300.000000;
#STOPS:;
#DELAYS:;
#WARPS:;
#TIMESIGNATURES:0.000000=4=4;
#TICKCOUNTS:0.000000=4;
#COMBOS:0.000000=1;
#SPEEDS:0.000000=1.000000=0.000000=0;
#SCROLLS:0.000000=1.000000;
#FAKES:;
#LABELS:0.000000=Song Start;
#BGCHANGES:;
#KEYSOUNDS:;
#ATTACKS:
;

//---------------dance-single - ----------------
#NOTEDATA:;
#CHARTNAME:;
#CHARTHASH:3713648630;
#STEPSTYPE:dance-single;
#BANNER:;
#DESCRIPTION:;
#CHARTSTYLE:;
#DIFFICULTY:Easy;
#METER:4;
#METERF:4.000000;
#RADARVALUES:0.228977,0.272392,0.171089,0.009005,0.000000,178.000000,159.000000,19.000000,1.000000,0.000000,0.000000,0.000000,0.000000,0.000000,0.228977,0.272392,0.171089,0.009005,0.000000,178.000000,159.000000,19.000000,1.000000,0.000000,0.000000,0.000000,0.000000,0.000000;
#CREDIT:;
#DISPLAYBPM:140.000000;
#NOTES:
0000
0000
0000
0000
,
0000
0000
0000
0000
,
0000
0000
0000
0000
,
0000
0000
0000
0000
,
0000
0000
0001
0001
,
0001
0000
1000
1000
,
1000
0000
0001
0001
,
0001
0000
1000
1000
,
1000
1001
0001
0000
,
1000
0001
1000
0001
,
1000
0010
0100
0000
,
0001
1000
0001
1000
,
0001
0100
0001
0000
,
0001
0000
1000
0000
,
1000
0000
0001
0000
,
0001
0000
1000
0000
,
1000
0000
1000
1000
,
1000
0000
0010
0010
,
0010
0000
0001
0001
,
0001
0000
0100
0100
,
0100
0000
1000
0000
,
1001
0000
1001
0000
,
0000
0000
0001
0000
,
1001
0000
1001
0000
,
0000
0100
0010
0000
,
0110
0000
0110
0000
,
0000
0000
1000
0000
,
0001
0000
0110
0000
,
0001
0000
0001
0001
,
0001
0001
1000
1000
,
1000
1000
0001
0001
,
0001
0001
1000
1000
,
1000
1000
0100
0100
,
0100
0100
0010
0010
,
0010
0010
0001
0001
,
0001
0001
2000
0000
,
0000
3000
0001
0001
,
1100
0000
1000
1000
,
0101
0000
0001
0001
,
1001
0000
1000
1000
,
1001
0000
1000
1000
,
0011
0000
0001
0001
,
1010
0000
1000
1000
,
0110
0000
0001
0001
,
0110
0000
1000
0001
,
1000
0001
0100
0001
,
0100
0001
0010
1000
,
0010
1000
0001
1000
,
0001
1000
0100
0001
,
0100
0001
1000
0001
,
1000
0001
0100
0010
,
0100
0010
1000
0010
,
1000
0010
1001
0000
,
1000
0000
0100
0000
,
0100
0000
1001
0000
,
0001
0000
0010
0000
,
0010
0000
0110
0000
,
0000
0000
0100
0000
,
0000
0000
0010
0000
,
0000
0000
0010
0000
,
0000
0000
0100
0000
;

//---------------dance-single - ----------------
#NOTEDATA:;
#CHARTNAME:;
#CHARTHASH:1443381229;
#STEPSTYPE:dance-single;
#BANNER:;
#DESCRIPTION:;
#CHARTSTYLE:;
#DIFFICULTY:Medium;
#METER:9;
#METERF:9.000000;
#RADARVALUES:0.414217,0.633481,0.477250,0.234122,0.193601,322.000000,269.000000,53.000000,26.000000,0.000000,0.000000,0.000000,0.000000,0.000000,0.414217,0.633481,0.477250,0.234122,0.193601,322.000000,269.000000,53.000000,26.000000,0.000000,0.000000,0.000000,0.000000,0.000000;
#CREDIT:;
#DISPLAYBPM:140.000000;
#NOTES:
0000
0000
0000
0000
,
0000
0000
0000
0000
,
0000
0000
0000
0000
,
0000
0000
0000
0000
,
0000
0000
0000
0000
1000
0000
1000
0010
,
0000
0100
0000
0010
0000
1000
0001
0001
,
1000
0010
0100
0010
0001
0000
0100
0100
,
0000
0010
0000
2000
0000
0000
0000
0000
,
3000
0000
1001
0000
0110
0000
0000
0010
,
0000
1000
0001
1000
0000
0000
0100
0000
0000
0001
1000
0001
0000
0000
0010
0000
,
0000
1000
0001
1000
0000
0000
0100
0000
1001
0000
0000
0000
0000
0000
1000
0000
,
0000
0100
0010
0100
0000
0000
0001
0000
0000
0010
0100
0010
0000
0000
1000
0000
,
0000
0100
0010
0100
0000
0000
0000
0000
0001
0000
0000
0000
0001
0000
1000
0001
,
0000
0000
0000
0000
1000
0000
0100
0000
0100
0000
0000
0000
0100
0000
0010
0100
,
0000
0000
0100
0000
0000
0000
0000
0000
1000
0000
0000
0000
1000
0000
0001
1000
,
0000
0000
0000
0000
0001
0000
0000
0000
0010
0000
0000
0000
0010
0000
0100
0010
,
0000
0000
0010
0000
0000
0000
0000
0000
0001
0000
0000
0000
0001
0000
0000
0100
,
0000
0000
0000
0000
0010
0010
0100
0100
,
0010
0100
0000
0000
0000
0000
0000
0000
0001
0010
0000
0000
1000
0010
0000
0000
,
0001
0100
0000
0000
1000
0100
0000
0000
1001
0000
0000
1001
0000
0000
1001
0000
,
0110
0000
0000
0110
0000
0000
0110
0000
2000
0000
0000
0000
0000
0000
0000
0000
,
3001
0000
0000
0000
0000
0000
0000
0000
1100
0000
0000
1100
0000
0000
1010
0000
,
1010
0000
0002
0000
,
1003
0000
0000
0000
0000
0000
0000
0000
0101
0000
0000
0101
0000
0000
0011
0000
,
0011
0000
0000
1000
2000
0000
0000
0000
,
3001
0000
0000
0000
0000
0000
0000
0000
1100
0000
0000
0101
0000
0000
0011
0000
,
1010
0000
2000
3100
,
0002
0000
0103
0000
0022
0000
0000
0030
,
1000
1003
0000
0000
2200
0000
0000
0000
,
0000
3300
0101
0000
0202
0000
0000
0000
,
0000
0303
1010
1010
2020
0000
0000
0000
,
0000
3030
0011
0000
0022
0000
0000
0000
,
0000
0033
1000
1000
,
1000
1000
0100
0100
,
0100
0000
0100
0000
0010
0010
0010
0010
,
0010
0000
0010
0000
0010
0000
0010
0000
0001
0010
0001
0010
0001
0010
0001
0010
,
0002
1003
0011
1010
,
0001
0000
0000
0001
0000
0000
0000
0000
1010
0000
0000
0000
0011
0000
0000
0000
,
1000
0000
0000
1000
0000
0000
0000
0000
0011
0000
0000
0000
1010
0000
0000
0000
,
0001
0000
0000
1000
0000
1000
0000
0000
1010
0000
0000
0000
0011
0000
0000
0000
,
1000
0000
0000
0001
0000
0000
0000
0000
1100
0000
0000
0000
0101
0000
0000
0000
,
0100
0000
0000
0010
0000
0000
0000
0000
0101
0000
0000
0000
1100
0000
0000
0000
,
0010
0000
0000
0100
0000
0000
0000
0000
1100
0000
0000
0000
0101
0000
0000
0000
,
0100
0000
0000
0010
0000
0010
0000
0000
0101
0000
0000
0000
1100
0000
0000
0000
,
0010
0000
0000
0100
0000
0000
0000
0000
0001
0000
0100
0000
0001
0000
0100
0000
,
0010
0100
0010
0000
1000
0010
1000
0010
,
1100
0000
0101
0000
0100
0010
0100
0001
,
0100
0000
1000
0000
0100
0000
1000
0000
0001
0000
0000
0001
0000
0000
0001
0000
,
2002
0000
3003
0000
1000
0001
0010
1000
,
0001
1000
0100
0000
0001
0010
1000
0001
,
1000
0100
0001
1000
1001
0000
0001
0100
,
0000
0000
1001
0000
0000
0000
0110
0000
0100
0000
0000
0100
0000
0000
0100
0000
,
0200
0000
0000
0300
1000
0001
1000
0001
,
1000
0001
0100
0000
0001
1000
0001
1000
,
0001
1000
0100
0000
0001
0100
0001
0100
,
1000
0100
0010
0000
1000
0100
1000
0100
,
0001
0100
0010
0000
2002
0000
0000
0000
,
0000
3000
0103
0000
0200
0000
0000
0000
,
0000
0310
0020
0000
,
0000
0031
0002
0000
,
0000
1003
2000
0000
,
0000
0000
0000
0000
,
0000
0000
0000
0000
,
0000
0000
0000
0000
,
0000
0000
0000
0000
,
0000
0000
0000
0000
,
0000
0000
0000
0000
,
3000
0000
0000
0000
;

//---------------dance-single - ----------------
#NOTEDATA:;
#CHARTNAME:;
#CHARTHASH:2189283192;
#STEPSTYPE:dance-single;
#BANNER:;
#DESCRIPTION:;
#CHARTSTYLE:;
#DIFFICULTY:Hard;
#METER:13;
#METERF:13.000000;
#RADARVALUES:0.499118,0.723979,0.612320,0.486254,0.355686,388.000000,320.000000,68.000000,54.000000,0.000000,0.000000,0.000000,0.000000,0.000000,0.499118,0.723979,0.612320,0.486254,0.355686,388.000000,320.000000,68.000000,54.000000,0.000000,0.000000,0.000000,0.000000,0.000000;
#CREDIT:;
#DISPLAYBPM:140.000000;
#NOTES:
0000
0000
0000
0000
,
0000
0000
0000
0000
,
0000
0000
0000
0000
,
0000
0000
0000
0000
,
0000
0000
0000
0000
0001
0001
1000
1000
,
0000
0100
0000
0100
0000
0001
0010
1000
,
0001
1000
0100
1000
0010
0000
0010
1000
,
0000
0001
0000
2002
0000
0000
0000
0000
,
3003
0000
0000
0000
0110
0000
0000
0000
1100
0000
0000
0000
0001
0000
1000
0001
,
0000
1000
0100
1000
0000
0100
0010
0100
0000
0010
0001
0010
0000
0001
0010
0001
,
0000
0010
0100
0010
0000
0100
1000
0100
0020
0000
0030
0000
0100
0000
1000
1000
,
0000
0001
0010
0001
0000
0010
0100
0010
0000
0100
1000
0100
0000
0100
0010
0100
,
0000
0000
0000
0000
0000
0000
0000
0000
0110
0000
0000
0000
1000
0000
0010
0020
,
0000
0000
0030
0000
0000
0000
0010
0000
0001
0000
0000
0000
1000
0000
0000
0002
,
0000
0003
0011
0000
0000
0000
0000
0000
0010
0000
0000
0000
1000
0000
0010
0020
,
0000
0000
0030
0000
0000
0000
0000
0000
1000
0000
0000
0000
0010
0000
0100
1000
,
0000
0000
1001
0000
0000
0000
0000
0000
1100
0000
0000
0000
2000
0000
0000
3001
,
0000
0000
0000
0000
0110
0000
0000
0000
1000
0000
0100
0000
0001
0010
0000
0001
,
0200
0000
0000
0000
0301
0000
0000
0000
0001
1000
0000
0001
1000
0000
0001
2000
,
0000
0000
0000
0000
3010
0000
0000
0000
0011
0000
0000
1001
0000
0000
1100
0000
,
1010
0000
0000
0110
0000
0000
0101
0000
2002
0000
0000
0000
0000
0000
3003
0000
,
0110
0000
0020
0000
0000
0000
0130
0000
1010
0000
0000
0110
0000
0000
1100
0000
,
0110
0000
0001
0000
0010
0100
1000
0000
0220
0000
0000
0000
0000
0000
0330
0000
,
1001
0000
1000
0000
2000
0000
0000
0000
3010
0000
0000
0110
0000
0000
0011
0000
,
1001
0000
1000
0000
0100
0010
0001
0000
0022
0000
0000
0000
0000
0000
0033
0000
,
1100
0000
0010
0000
0010
0000
0010
0000
0011
0000
0000
0110
0000
0000
0101
0000
,
1001
0000
0001
0000
0010
0100
1000
0000
2200
0000
0000
0000
3300
0000
0000
0000
,
0010
0000
0000
0010
0000
0000
0010
0000
0202
0000
0000
0000
0000
0000
0303
0000
,
0002
0000
2003
0000
3000
0000
0000
0000
0001
0000
0000
0001
0000
0000
0001
0000
,
0000
0001
0000
0000
0101
0000
0000
0000
1000
0000
0000
1000
0000
0000
1000
0000
,
0000
1000
0000
0000
1000
0000
1100
0000
0001
0000
0000
0001
0000
0000
0001
0000
,
0000
0001
0000
0000
0011
0000
0000
0000
1000
0000
0000
1000
0000
0000
1000
0000
,
0000
1000
0000
0000
1010
0000
0000
0000
0010
0000
0000
0010
0000
0000
0010
0000
,
0000
0010
0000
0000
1010
0000
0000
0000
0010
0000
0000
0010
0000
0000
0010
0000
,
0000
0010
0000
0000
0010
0000
0011
0000
0100
0000
0000
0100
0000
0000
0100
0000
,
0000
0100
0000
0000
1100
0000
0000
0000
0200
0000
0000
0000
0000
0000
0000
0000
,
0000
0000
0301
0000
0002
0013
0200
1300
,
0011
0000
0000
1010
0000
0000
0000
0000
2000
0000
3100
0000
0020
0000
0031
0000
,
1100
0000
0000
0101
0000
0000
0000
0000
0002
0000
1003
0000
2000
0000
3001
0000
,
0110
0000
0000
1001
0000
0001
0000
0000
2000
0000
3001
0000
0002
0000
1003
0000
,
1001
0000
0000
0110
0000
0000
0000
0000
0002
0000
0013
0000
0200
0000
1300
0000
,
0011
0000
0000
0101
0000
0000
0000
0000
2000
0000
3100
0000
0020
0000
0031
0000
,
1100
0000
0000
1010
0000
0000
0000
0000
0020
0000
0130
0000
0200
0000
0310
0000
,
0110
0000
0000
1001
0000
1000
0000
0000
0200
0000
0310
0000
0020
0000
0130
0000
,
1001
0000
0000
0110
0000
0000
0000
0000
0011
0000
0000
0000
0100
0000
0001
0000
,
0000
0101
0000
0202
0303
0010
1000
0010
,
0200
0000
0310
0010
1100
0000
0010
1000
,
0000
0000
1000
0000
0100
0000
0001
0000
0001
0000
0000
0001
0000
0000
0002
0000
,
0000
0000
0000
0003
1001
0000
0000
0000
1010
0000
0000
0000
0100
0000
1000
0000
,
0000
1100
0000
2200
3300
0010
0001
0010
,
0200
0000
0310
0010
0011
0000
0100
0001
,
0000
0000
0101
0000
0000
0000
0101
0000
1000
0000
0000
1000
0000
0000
2000
0000
,
0000
0000
0000
0000
3100
0000
0000
0000
0011
0000
0000
0000
0100
0000
0000
0100
,
0010
0000
0100
0001
0000
0000
0100
0000
1000
0000
1000
0000
1000
0000
0000
0000
,
0010
0000
0000
0100
0010
0000
1000
0010
0001
0000
0002
0000
0003
0000
0000
0000
,
0100
0000
0100
0010
0000
0100
1000
0000
0100
0000
0001
0000
1000
0010
0100
0001
,
0100
0010
1000
0001
2000
0000
0000
0000
3002
0000
0000
0000
0000
0000
0000
0000
,
0000
0013
2000
0000
,
0000
3100
0002
0000
,
0000
0000
0103
0000
1000
1000
1000
1000
,
1000
1000
0010
0000
0200
0000
0000
0000
,
0000
0000
0000
0000
,
0000
0000
0000
0000
,
0000
0000
0000
0000
,
0000
0000
0000
0000
,
0000
0000
0000
0000
,
0000
0000
0000
0000
,
0300
0000
0000
0000
;

//---------------dance-single - ----------------
#NOTEDATA:;
#CHARTNAME:;
#CHARTHASH:1846465695;
#STEPSTYPE:dance-single;
#BANNER:;
#DESCRIPTION:;
#CHARTSTYLE:;
#DIFFICULTY:Beginner;
#METER:2;
#METERF:2.000000;
#RADARVALUES:0.091333,0.152630,0.072038,0.000000,0.000000,71.000000,63.000000,8.000000,0.000000,0.000000,0.000000,0.000000,0.000000,0.000000,0.091333,0.152630,0.072038,0.000000,0.000000,71.000000,63.000000,8.000000,0.000000,0.000000,0.000000,0.000000,0.000000,0.000000;
#CREDIT:;
#DISPLAYBPM:140.000000;
#NOTES:
// measure 0
0000
0000
0000
0000
,  // measure 1
0000
0000
0000
0000
,  // measure 2
0000
0000
0000
0000
,  // measure 3
0000
0000
0000
0000
,  // measure 4
0000
0000
0000
0000
,  // measure 5
0000
0000
0000
0000
,  // measure 6
0000
0000
0000
0000
,  // measure 7
0000
0000
0000
0000
,  // measure 8
0000
0000
1000
0000
,  // measure 9
0000
0000
0001
0000
,  // measure 10
0000
0000
1000
0000
,  // measure 11
0000
0000
0001
0000
,  // measure 12
0000
0000
0010
0000
,  // measure 13
0000
0000
0010
0000
,  // measure 14
0000
0000
0010
0000
,  // measure 15
0000
0000
0010
0000
,  // measure 16
0000
0000
0100
0000
,  // measure 17
0000
0000
0100
0000
,  // measure 18
0000
0000
0100
0000
,  // measure 19
0000
0000
0100
0000
,  // measure 20
0000
0000
1001
0000
,  // measure 21
0000
0000
1001
0000
,  // measure 22
0000
0000
0001
0000
,  // measure 23
0000
0000
1001
0000
,  // measure 24
0000
0000
0110
0000
,  // measure 25
0000
0000
0110
0000
,  // measure 26
0000
0000
1001
0000
,  // measure 27
0000
0000
0010
0000
,  // measure 28
0000
0000
1000
0000
,  // measure 29
0000
0000
1000
0000
,  // measure 30
0000
0000
0100
0000
,  // measure 31
0000
0000
0100
0000
,  // measure 32
0000
0000
0010
0000
,  // measure 33
0000
0000
0010
0000
,  // measure 34
0000
0000
0001
0000
,  // measure 35
0000
0000
0001
0000
,  // measure 36
0000
0000
1000
0000
,  // measure 37
1000
0000
0001
0000
,  // measure 38
0001
0000
1000
0000
,  // measure 39
1000
0000
0010
0000
,  // measure 40
0010
0000
0001
0000
,  // measure 41
0001
0000
1000
0000
,  // measure 42
1000
0000
0001
0000
,  // measure 43
0001
0000
0100
0000
,  // measure 44
0100
0000
0001
0000
,  // measure 45
1000
0000
0001
0000
,  // measure 46
1000
0000
0010
0000
,  // measure 47
0010
0000
0010
0000
,  // measure 48
0010
0000
1000
0000
,  // measure 49
0001
0000
1000
0000
,  // measure 50
0001
0000
0100
0000
,  // measure 51
0100
0000
0100
0000
,  // measure 52
0100
0000
1001
0000
,  // measure 53
0000
0000
0000
0000
,  // measure 54
0000
0000
0010
0000
,  // measure 55
0000
0000
0000
0000
,  // measure 56
0000
0000
0110
0000
;
