#VERSION:0.83;
#TITLE:Floor Killer;
#SUBTITLE:;
#ARTIST:Merm4id;
#TITLETRANSLIT:;
#SUBTITLETRANSLIT:;
#ARTISTTRANSLIT:;
#GENRE:;
#ORIGIN:;
#TAGS:;
#CREDIT:;
#BANNER:Floor Killer.png;
#BACKGROUND:Floor Killer-BG.png;
#PREVIEWVID:;
#JACKET:Floor Killer-Jacket.png;
#CDIMAGE:;
#DISCIMAGE:;
#LYRICSPATH:;
#CDTITLE:;
#MUSIC:floor killer.ogg;
#OFFSET:-0.140000;
#SAMPLESTART:88.282990;
#SAMPLELENGTH:12.000000;
#SELECTABLE:YES;
#BPMS:0.000000=128.000000;
#STOPS:;
#DELAYS:;
#WARPS:;
#TIMESIGNATURES:0.000000=4=4;
#TICKCOUNTS:0.000000=4;
#COMBOS:0.000000=1;
#SPEEDS:0.000000=1.000000=0.000000=0;
#SCROLLS:0.000000=1.000000;
#FAKES:;
#LABELS:0.000000=Song Start;
#BGCHANGES:5.000=vol4-06-ntsc.mpg=1.000=1=0=1===CrossFade==,
44.000=VOL1-22-NTSC.mpg=1.000=0=0=1=====,
92.000=EV01455N.mpg=1.000=0=0=1=====,
124.000=920_JumpBack.mpg=1.000=0=0=1=====,
156.000=730_JumpBack.mpg=1.000=0=0=1=====,
188.000=vol3-10-ntsc.mpg=1.000=0=0=1=====,
99999.000=-nosongbg-=1.000=0=0=0=StretchNoLoop====,
99999=-nosongbg-=1.000=0=0=0 // don't automatically add -songbackground-
;
#KEYSOUNDS:;
#ATTACKS:
;

//---------------dance-single - ----------------
#NOTEDATA:;
#CHARTNAME:;
#CHARTHASH:3593840748;
#STEPSTYPE:dance-single;
#BANNER:;
#DESCRIPTION:;
#CHARTSTYLE:;
#DIFFICULTY:Easy;
#METER:4;
#METERF:4.000000;
#RADARVALUES:0.000000,0.000000,0.000000,0.000000,0.000000,0.000000,0.000000,0.000000,0.000000,0.000000,0.000000,0.000000,0.000000,0.000000,0.000000,0.000000,0.000000,0.000000,0.000000,0.000000,0.000000,0.000000,0.000000,0.000000,0.000000,0.000000,0.000000,0.000000;
#CREDIT:;
#NOTES:
0000
0000
0000
0000
,
0000
0000
0000
0000
,
0000
0000
0000
0000
,
0000
0000
0000
0000
,
0000
0000
0000
0000
,
0000
0000
0000
0000
,
0000
0000
0000
0000
,
0000
0000
0000
0000
,
0000
0000
0000
0000
,
0000
0000
0000
0000
,
0000
0000
0000
0000
,
1000
0001
1000
0000
,
1000
0001
1000
0000
,
0001
1000
0001
0000
,
0001
1000
0001
0000
,
1000
0100
1000
0000
,
0010
0001
0010
0000
,
0010
0100
0010
0000
,
0001
1000
0001
0000
,
0001
0010
0001
0000
,
0100
1000
0100
0000
,
0100
0010
0100
0000
,
1000
0001
1000
0000
,
1000
0100
1000
0000
,
0001
0010
0001
0000
,
1000
0001
1000
0000
,
0100
0010
0100
0000
,
0001
0100
0001
0000
,
1000
0010
1000
0000
,
0001
1000
0001
0000
,
0010
0100
0010
0000
,
0100
0000
1001
0000
,
0010
0000
1001
0000
,
0100
0000
1001
0000
,
0010
0000
1001
0000
,
1000
0000
0110
0000
,
0001
0000
0110
0000
,
1000
1000
0100
0100
,
0010
0010
0001
0001
,
1000
0000
1000
0000
,
0100
0000
0100
0000
,
0010
0000
0010
0000
,
0001
0000
0001
0000
,
1000
1000
1000
1000
,
0100
0100
0100
0100
,
0020
0000
0000
0000
,
0031
0000
0000
0000
,
1000
0010
0001
0000
,
1000
0010
0001
0000
,
1000
0010
0001
0000
,
0001
0001
1000
1000
,
1000
0010
0001
0000
,
1000
0010
0001
0000
,
0001
0001
1000
1000
,
0100
0100
0010
0010
,
0001
0010
1000
0000
,
0001
0010
1000
0000
,
0001
0010
1000
0000
,
1000
1000
0001
0001
,
0001
0010
1000
0000
,
0001
0010
1000
0000
,
1000
1000
0001
0001
,
0010
0010
0100
0100
,
1001
0000
0000
0000
;

//---------------dance-single - ----------------
#NOTEDATA:;
#CHARTNAME:;
#CHARTHASH:3274865322;
#STEPSTYPE:dance-single;
#BANNER:;
#DESCRIPTION:;
#CHARTSTYLE:;
#DIFFICULTY:Medium;
#METER:10;
#METERF:10.000000;
#RADARVALUES:0.000000,0.000000,0.000000,0.000000,0.000000,0.000000,0.000000,0.000000,0.000000,0.000000,0.000000,0.000000,0.000000,0.000000,0.000000,0.000000,0.000000,0.000000,0.000000,0.000000,0.000000,0.000000,0.000000,0.000000,0.000000,0.000000,0.000000,0.000000;
#CREDIT:;
#NOTES:
0000
0000
0000
0000
,
0000
0000
0000
0000
,
0000
0000
0000
0000
,
0000
0000
0000
0000
,
0000
0000
0000
0000
,
0000
0000
0000
0000
,
0000
0000
0000
0000
,
0000
0000
0000
0000
,
0000
0000
0000
0000
,
0000
0000
0000
0000
,
0000
0000
0000
0000
,
1000
0100
1000
0000
0100
0010
0100
0000
,
0010
0001
0010
0000
0001
1000
0001
0000
,
0001
0010
0001
0000
0010
0100
0010
0000
,
0100
1000
0100
0000
1000
0001
1000
0000
,
0001
0000
0001
0000
0001
1000
0001
0000
,
1000
0000
1000
0000
1000
0001
1000
0000
,
0001
1000
0001
0000
1000
0001
1000
0000
,
0001
0001
1000
1000
,
1000
0000
1000
0000
1000
0100
1000
0000
,
0001
0000
0001
0000
0001
0010
0001
0000
,
1000
0100
1000
0000
0001
0010
0001
0000
,
0100
0100
0010
0010
,
0100
0000
0100
0000
0100
0010
0100
0000
,
0010
0000
0010
0000
0010
0100
0010
0000
,
0100
0010
0100
0000
0010
0100
0010
0000
,
0100
0100
0010
0010
,
0010
0000
0010
0000
0100
1000
0100
0000
,
0100
0000
0100
0000
0010
0001
0010
0000
,
0100
1000
0100
0000
0010
0001
0010
0000
,
0010
0010
0100
0100
,
0010
0000
0000
0000
1001
0000
0000
0100
,
0100
0000
0000
0000
1001
0000
0000
1000
,
1000
0000
0000
0000
0110
0000
0000
0001
,
0001
0000
0110
0000
,
0001
0000
0000
0000
1100
0000
0000
1000
,
1000
0000
0011
0000
,
0001
1000
0001
1000
,
0002
0000
0013
0100
,
1000
1000
1000
1000
,
0100
0100
0100
0100
,
0010
0010
0010
0010
,
0001
0001
0001
0001
,
1000
1000
1000
1000
1000
1000
1000
1000
,
0100
0100
0100
0100
0100
0100
0100
0100
,
0022
0000
0000
0000
,
0033
0000
0000
0110
,
1000
0010
0001
0011
,
1000
0010
0001
0011
,
1000
0000
0010
0000
0001
0000
0100
0100
,
0100
0000
0000
0010
0010
0000
0000
0000
,
1000
0010
0001
0011
,
1000
0000
0010
0000
0001
0000
0100
0100
,
0100
0000
0000
0010
0010
0000
0000
0000
,
1000
0100
0010
0001
,
0001
0010
1000
1010
,
0001
0010
1000
1010
,
0001
0000
0010
0000
1000
0000
0010
0010
,
0010
0000
0000
0100
0100
0000
0000
0000
,
0001
0010
1000
1010
,
0001
0000
0010
0000
1000
0000
0010
0010
,
0010
0000
0000
0100
0100
0000
0000
0000
,
0001
0010
0100
1000
,
1001
0000
0000
0000
;

//---------------dance-single - ----------------
#NOTEDATA:;
#CHARTNAME:;
#CHARTHASH:3642901809;
#STEPSTYPE:dance-single;
#BANNER:;
#DESCRIPTION:;
#CHARTSTYLE:;
#DIFFICULTY:Hard;
#METER:13;
#METERF:13.000000;
#RADARVALUES:0.000000,0.000000,0.000000,0.000000,0.000000,0.000000,0.000000,0.000000,0.000000,0.000000,0.000000,0.000000,0.000000,0.000000,0.000000,0.000000,0.000000,0.000000,0.000000,0.000000,0.000000,0.000000,0.000000,0.000000,0.000000,0.000000,0.000000,0.000000;
#CREDIT:;
#NOTES:
0000
0000
0000
0000
,
0000
0000
0000
0000
,
0000
0000
0000
0000
,
0000
0000
0000
0000
,
0000
0000
0000
0000
,
0000
0000
0000
0000
,
0010
0010
0010
0010
,
0010
0010
0010
0010
,
0001
0001
0010
0010
0100
0100
1000
1000
,
2002
0000
0000
0000
,
3003
0000
0000
0000
0000
0000
0000
0000
0001
0010
0001
0000
1000
0010
1000
0000
,
0001
0100
0001
0000
0010
0100
0010
0000
1000
0100
1000
0000
0100
0010
0100
0000
,
1000
0010
1000
0000
0100
0010
0100
0000
0001
0010
0001
0000
0010
0100
0010
0000
,
1000
0100
1000
0000
1000
0001
1000
0000
0001
0100
0001
0000
0001
1000
0001
0000
,
1000
0010
1000
0000
0001
1000
0001
0000
0001
0010
0001
0000
1000
0001
1000
0000
,
0001
0010
0001
0000
0100
0010
0100
0000
,
1000
0000
0010
0000
1000
0000
0000
0000
1000
0100
1000
0000
0010
0001
0010
0000
,
1000
0100
1000
0000
0010
0100
0010
0000
,
0001
0000
0100
0000
0001
0000
0000
0000
0001
0010
0001
0000
0100
1000
0100
0000
,
1000
0100
1000
0000
0010
0001
0010
0000
,
0001
0010
0001
0000
0100
1000
0100
0000
0001
0000
1000
0000
0001
0000
1000
0000
,
0100
0010
0100
0000
1000
0001
1000
0000
,
0100
0010
0100
0000
0010
0100
0010
0000
1000
0000
0001
0000
1000
0000
0001
0000
,
1000
0100
0101
0000
0001
0100
1100
0000
,
1000
0100
1000
0000
0010
0001
0010
0000
0001
0000
1000
0000
0001
0000
1000
0000
,
1000
0010
0011
0000
0001
0010
1010
0000
,
0100
0010
0100
0000
0010
0100
0010
0000
1000
0000
0001
0000
1000
0000
0001
0000
,
0010
0100
1010
0000
0100
0010
1100
0000
,
0001
0010
0001
0000
0100
1000
0100
0000
0001
0000
1000
0000
0001
0000
1000
0000
,
0010
0100
0011
0000
0100
0010
0101
0000
,
0001
1000
0001
0000
1000
0001
1000
0000
1000
0000
0001
0000
1000
0000
0001
0000
,
1100
0000
0000
0100
0011
0000
0000
0001
,
0101
0000
0000
0100
1010
0000
0000
0001
,
1100
0000
0000
0001
1010
0000
0000
1000
,
0101
0000
0000
0000
0000
0000
0000
0000
0011
0000
0000
1001
0000
0000
0101
0000
,
0110
0000
0000
0100
1001
0000
0000
1000
,
0110
0000
0000
0010
1001
0000
0000
0001
,
0110
0010
1010
0010
,
0120
0000
0001
0031
,
0200
2300
3200
2300
3200
1300
1100
0000
,
2000
3020
2030
3020
2030
3010
1010
0000
,
0020
0032
0023
0032
0023
0031
0011
0000
,
0002
0203
0302
0203
0302
0103
0101
0000
,
1000
1000
1000
1000
1000
1000
1000
1000
,
0100
0100
0100
0100
0100
0100
0100
0100
,
0010
0001
0010
0001
0010
0001
0010
0001
0010
0001
0010
0001
0010
0001
0010
0001
,
0020
0000
0000
0130
,
1010
0000
0000
0010
0000
0000
0010
0000
0010
0000
0000
0000
0011
0000
0000
0000
,
1010
0000
0000
0010
0000
0000
0010
0000
0010
0000
0000
0000
0011
0000
0000
0000
,
0011
0000
0000
0010
0000
0000
0010
0000
1010
0000
0000
0000
0001
0000
1000
0000
,
0002
0000
0000
1000
1003
0000
0110
0000
,
1010
0000
0000
0010
0000
0000
0010
0000
0010
0000
0000
0000
0011
0000
0000
0000
,
1010
0000
0000
0010
0000
0000
0010
0000
0011
0000
0000
0000
1000
0000
0001
0000
,
2000
0000
0000
0001
3001
0000
0000
0100
,
0101
0011
1010
1100
,
0011
0000
0000
0010
0000
0000
0010
0000
0010
0000
0000
0000
1010
0000
0000
0000
,
0011
0000
0000
0010
0000
0000
0010
0000
0010
0000
0000
0000
1010
0000
0000
0000
,
0011
0000
0000
0010
0000
0000
0010
0000
1010
0000
0000
0000
0010
0000
0100
0000
,
0020
0000
0000
0100
0130
0000
1001
0000
,
0011
0000
0000
0010
0000
0000
0010
0000
0010
0000
0000
0000
1010
0000
0000
0000
,
0011
0000
0000
0010
0000
0000
0010
0000
1010
0000
0000
0000
0100
0000
0010
0000
,
0200
0000
0000
0010
0310
0000
0000
0000
,
1100
1010
0011
0101
,
2002
0000
3003
0000
;

//---------------dance-single - ----------------
#NOTEDATA:;
#CHARTNAME:;
#CHARTHASH:4000377056;
#STEPSTYPE:dance-single;
#BANNER:;
#DESCRIPTION:;
#CHARTSTYLE:;
#DIFFICULTY:Beginner;
#METER:2;
#METERF:2.000000;
#RADARVALUES:0.090044,0.152729,0.048485,0.000000,0.000000,78.000000,72.000000,6.000000,0.000000,0.000000,0.000000,0.000000,0.000000,0.000000,0.090044,0.152729,0.048485,0.000000,0.000000,78.000000,72.000000,6.000000,0.000000,0.000000,0.000000,0.000000,0.000000,0.000000;
#CREDIT:;
#NOTES:
// measure 0
0000
0000
0000
0000
,  // measure 1
0000
0000
0000
0000
,  // measure 2
0000
0000
0000
0000
,  // measure 3
0000
0000
0000
0000
,  // measure 4
0000
0000
0000
0000
,  // measure 5
0000
0000
0000
0000
,  // measure 6
0000
0000
0000
0000
,  // measure 7
0000
0000
0000
0000
,  // measure 8
0000
0000
0000
0000
,  // measure 9
0000
0000
0000
0000
,  // measure 10
0000
0000
0000
0000
,  // measure 11
0001
0000
0000
0000
,  // measure 12
0001
0000
0000
0000
,  // measure 13
1000
0000
0000
0000
,  // measure 14
1000
0000
0000
0000
,  // measure 15
0001
0000
0000
0000
,  // measure 16
0001
0000
0000
0000
,  // measure 17
0010
0000
0000
0000
,  // measure 18
0010
0000
0000
0000
,  // measure 19
0100
0000
0000
0000
,  // measure 20
0100
0000
0000
0000
,  // measure 21
1000
0000
0000
0000
,  // measure 22
1000
0000
0000
0000
,  // measure 23
0100
0000
0000
0000
,  // measure 24
0100
0000
0000
0000
,  // measure 25
1000
0000
0000
0000
,  // measure 26
1000
0000
0000
0000
,  // measure 27
0010
0000
0000
0000
,  // measure 28
0010
0000
0000
0000
,  // measure 29
0001
0000
0000
0000
,  // measure 30
0001
0000
0000
0000
,  // measure 31
0000
0000
1001
0000
,  // measure 32
0000
0000
1001
0000
,  // measure 33
0000
0000
1001
0000
,  // measure 34
0000
0000
1001
0000
,  // measure 35
0000
0000
0110
0000
,  // measure 36
0000
0000
0110
0000
,  // measure 37
1000
0000
1000
0000
,  // measure 38
0001
0000
0001
0000
,  // measure 39
0100
0000
0100
0000
,  // measure 40
0100
0000
0100
0000
,  // measure 41
1000
0000
1000
0000
,  // measure 42
1000
0000
1000
0000
,  // measure 43
0001
0000
0001
0000
,  // measure 44
0001
0000
0001
0000
,  // measure 45
0010
0000
0000
0000
,  // measure 46
0000
0000
0000
0000
,  // measure 47
0010
0000
0000
1000
,  // measure 48
0010
0000
0000
0001
,  // measure 49
0010
0000
0000
0000
,  // measure 50
0001
0000
1000
0000
,  // measure 51
0010
0000
0000
0100
,  // measure 52
0010
0000
0000
0000
,  // measure 53
0001
0000
1000
0000
,  // measure 54
0100
0000
0100
0000
,  // measure 55
0010
0000
0000
1000
,  // measure 56
0010
0000
0000
0001
,  // measure 57
0010
0000
0000
0000
,  // measure 58
1000
0000
0001
0000
,  // measure 59
0010
0000
0000
0100
,  // measure 60
0010
0000
0000
0000
,  // measure 61
1000
0000
0001
0000
,  // measure 62
0100
0000
0010
0000
,  // measure 63
0010
0000
0000
0000
;
