#VERSION:0.83;
#TITLE:Deja Boon;
#SUBTITLE:;
#ARTIST:Peaky P-key;
#TITLETRANSLIT:;
#SUBTITLETRANSLIT:;
#ARTISTTRANSLIT:;
#GENRE:;
#ORIGIN:;
#TAGS:;
#CREDIT:;
#BANNER:Deja Boon.png;
#BACKGROUND:Deja Boon-BG.png;
#PREVIEWVID:;
#JACKET:Deja Boon-Jacket.png;
#CDIMAGE:;
#DISCIMAGE:;
#LYRICSPATH:;
#CDTITLE:;
#MUSIC:Deja Boon.ogg;
#OFFSET:-3.519977;
#SAMPLESTART:53.355488;
#SAMPLELENGTH:12.000000;
#SELECTABLE:YES;
#BPMS:0.000000=118.000000;
#STOPS:;
#DELAYS:;
#WARPS:;
#TIMESIGNATURES:0.000000=4=4;
#TICKCOUNTS:0.000000=4;
#COMBOS:0.000000=1;
#SPEEDS:0.000000=1.000000=0.000000=0;
#SCROLLS:0.000000=1.000000;
#FAKES:;
#LABELS:0.000000=Song Start;
#BGCHANGES:;
#KEYSOUNDS:;
#ATTACKS:
;

//---------------dance-single - ----------------
#NOTEDATA:;
#CHARTNAME:;
#CHARTHASH:3342814536;
#STEPSTYPE:dance-single;
#BANNER:;
#DESCRIPTION:;
#CHARTSTYLE:;
#DIFFICULTY:Easy;
#METER:6;
#METERF:6.000000;
#RADARVALUES:0.000000,0.000000,0.000000,0.000000,0.000000,0.000000,0.000000,0.000000,0.000000,0.000000,0.000000,0.000000,0.000000,0.000000,0.000000,0.000000,0.000000,0.000000,0.000000,0.000000,0.000000,0.000000,0.000000,0.000000,0.000000,0.000000,0.000000,0.000000;
#CREDIT:;
#NOTES:
0000
0000
0000
0000
,
0000
0000
0000
0000
,
0000
0000
0000
0000
,
0000
0000
0000
0000
,
0000
0000
0000
0000
,
0000
0000
2000
0000
3000
0002
0000
0003
,
2002
3003
0000
0000
,
0000
1000
0100
1000
,
0001
0001
0100
0001
,
1000
0010
1000
0010
,
0001
0010
0100
0000
,
0000
0100
1000
0100
,
0010
0100
0001
0100
,
0000
0010
0101
0000
,
1100
0000
1001
0001
,
1000
0002
0000
0000
,
0000
0000
0000
0000
,
0003
2000
0000
0000
,
0000
0000
0000
0000
,
3000
0010
0010
0010
,
0000
0100
0100
0100
,
0000
0001
1000
0001
,
1000
0010
0010
0010
,
0010
0110
1001
0110
,
1001
0000
0000
0000
,
0000
0000
2000
0000
3000
0002
0000
0003
,
1000
0001
1000
0100
,
0000
0010
0100
0001
,
0001
1000
1000
1001
,
1001
0000
0002
0000
0003
2000
0000
3000
,
0001
1000
0001
0100
,
0000
0010
0100
0001
,
1000
0001
1000
0001
,
1000
0011
0000
0000
,
0000
1100
0000
0000
,
0000
0101
0000
0000
,
0000
1010
0000
0000
,
0000
0110
0000
0000
,
0000
1000
0001
1000
,
0001
0100
0001
0100
,
0001
0010
0001
0010
,
0001
1010
0011
0110
,
1001
0000
2000
0000
3000
0002
0000
0003
,
1001
0000
0002
0000
0003
2000
0000
3000
,
1001
0000
2000
0000
3000
0002
0000
0003
,
1001
1000
0100
0010
,
0001
0000
0200
0000
0300
0020
0000
0030
,
1001
0000
0002
0000
0003
2000
0000
3000
,
0110
0000
2000
0000
3000
0200
0000
0300
,
0011
0100
0000
0000
,
0000
0000
2000
0000
3000
0200
0000
0300
,
0010
0001
0010
1000
,
0000
1000
0001
0010
,
0010
0100
0100
1001
,
1001
0000
0002
0000
0003
0020
0000
0030
,
0100
1000
0100
0001
,
0000
0001
1000
0100
,
0010
1000
0001
1000
,
0001
0000
2000
0000
3000
0002
0000
0003
,
2002
3003
0000
0000
,
0000
1001
0000
0000
;

//---------------dance-single - ----------------
#NOTEDATA:;
#CHARTNAME:;
#CHARTHASH:4173282206;
#STEPSTYPE:dance-single;
#BANNER:;
#DESCRIPTION:;
#CHARTSTYLE:;
#DIFFICULTY:Medium;
#METER:10;
#METERF:10.000000;
#RADARVALUES:0.000000,0.000000,0.000000,0.000000,0.000000,0.000000,0.000000,0.000000,0.000000,0.000000,0.000000,0.000000,0.000000,0.000000,0.000000,0.000000,0.000000,0.000000,0.000000,0.000000,0.000000,0.000000,0.000000,0.000000,0.000000,0.000000,0.000000,0.000000;
#CREDIT:;
#NOTES:
0000
0000
0000
0000
,
0000
0000
0000
0000
,
0000
0000
0000
0000
,
0000
0000
0000
0000
,
0000
0000
0000
0000
,
0000
0000
1000
0100
1000
0001
0100
0001
,
1000
0001
1000
0000
0000
0000
0000
0000
,
0000
0000
1001
0010
0001
0100
0010
0000
,
0010
0000
0010
1000
0000
0100
0010
0000
,
0100
0000
0010
0100
0010
1000
0010
0000
,
0100
0000
1000
0001
0000
1000
0001
1000
,
0001
0000
0110
0010
0001
0100
0010
0000
,
1000
0000
0100
0010
0001
1000
0010
0000
,
1000
0000
0100
0010
0022
0033
0010
0010
,
2020
3030
0100
0100
2200
3300
0101
0000
,
1001
2000
0000
0000
,
0000
0002
0000
3000
,
0000
2000
0000
0003
,
0000
0020
0000
3000
,
0000
0000
1030
0000
0100
0001
0001
0000
,
0000
0000
0001
0000
0100
1000
1000
0000
,
0000
1000
0010
0100
0001
0100
0010
1000
,
0001
1000
0020
0000
0000
0000
0000
0000
,
0000
0030
1100
0000
0101
0000
0110
0000
,
1001
0000
0000
0000
,
0000
0000
1000
0100
1000
0001
0100
0001
,
1000
0001
1000
0002
0000
0000
0003
0001
,
0100
0100
0001
0001
0000
0001
0100
0001
,
0100
0000
1000
0100
1000
0000
0101
0000
,
1100
0000
1000
0010
1000
0001
0010
0001
,
1000
0001
1000
0002
0000
0000
0003
1000
,
0100
0100
1000
1000
0000
0001
0100
0001
,
0100
0000
1000
1000
0001
0001
2000
3002
,
2003
3002
0203
0000
0000
0300
1001
0000
,
0000
0000
2000
0000
0000
3000
0110
0000
,
0000
0000
0002
0000
0000
0003
0110
0000
,
0000
0000
0020
0000
0000
0030
1001
0000
,
0000
0200
0000
0300
,
0000
0000
2100
0000
0100
3000
0102
0000
,
0100
0003
0010
1000
0001
1000
0100
0001
,
0010
0000
1000
0001
1000
0001
1000
0010
,
1000
0100
1010
0000
0011
0000
0110
0000
,
1001
0000
1000
0001
1000
0100
0001
0100
,
0100
0000
0001
1000
0001
0010
0100
0010
,
0010
0000
0100
0010
0100
0001
1000
0001
,
0001
0000
1000
0100
0010
0001
0100
1000
,
0010
0010
0001
0010
0001
1000
0100
1000
,
1000
0000
1000
0010
1000
0001
0100
0001
,
0001
0000
1000
0100
1000
0010
0001
0010
,
1001
0220
0330
0000
,
0000
0000
1000
0010
1000
0001
0010
0001
,
1000
0001
1000
0002
0000
0000
0003
0100
,
0010
0010
1000
1000
0000
0001
0100
0001
,
0100
0000
1000
0100
1000
0000
0011
0000
,
1010
0000
0001
0010
0001
1000
0010
1000
,
0001
1000
0001
2000
0000
0000
3000
0010
,
0100
0100
0001
0001
0000
1000
0100
1000
,
0100
0000
0001
0100
0001
0100
1000
0010
,
0001
0010
2200
0000
3300
0202
0000
0303
,
2002
3003
0001
0010
0100
1000
0001
0010
,
1000
0100
1001
0000
0000
0000
0000
0000
;

//---------------dance-single - ----------------
#NOTEDATA:;
#CHARTNAME:;
#CHARTHASH:458481537;
#STEPSTYPE:dance-single;
#BANNER:;
#DESCRIPTION:;
#CHARTSTYLE:;
#DIFFICULTY:Hard;
#METER:15;
#METERF:15.000000;
#RADARVALUES:0.000000,0.000000,0.000000,0.000000,0.000000,0.000000,0.000000,0.000000,0.000000,0.000000,0.000000,0.000000,0.000000,0.000000,0.000000,0.000000,0.000000,0.000000,0.000000,0.000000,0.000000,0.000000,0.000000,0.000000,0.000000,0.000000,0.000000,0.000000;
#CREDIT:;
#NOTES:
0000
0000
0000
0000
,
0000
0000
0000
0000
,
0000
0000
0000
0000
,
0000
0000
0000
0000
,
0000
0000
0000
0000
,
0000
0000
0000
0000
1000
0100
1000
0100
0000
0000
1000
0010
1000
0010
0000
0000
,
0100
0001
0100
0001
0000
0000
0000
0000
0000
0000
0000
0000
0000
0000
0000
0000
,
0000
0000
1001
0010
0001
0010
2000
3000
,
1000
0000
0000
0010
0000
0000
1000
0000
0000
0000
0100
0000
0010
0000
0000
0000
,
1100
0000
0000
0011
0000
0000
0100
0000
0010
0000
0010
0000
0110
0000
0000
0000
,
1001
0000
0000
0002
0000
0000
0200
0000
0000
0000
0000
0000
0000
0000
0303
0000
,
1010
0000
0110
0010
0001
0010
0200
0300
,
0200
0000
0000
0302
0000
0000
0013
0000
0010
0000
1000
0000
0100
0000
0000
0000
,
2001
0000
0000
3010
0000
0000
0001
0000
2200
0000
3300
0000
0100
0000
0010
0000
,
0202
0303
0010
0100
2002
3003
0101
0000
,
1010
0000
0000
0000
0020
0000
1000
0000
0100
0000
0000
0000
0001
0000
0000
0100
,
0000
0000
0100
0000
0230
0000
0001
0000
0010
0000
1000
1000
0000
0000
0010
0000
,
0000
0000
0010
0000
0302
0000
0000
1000
0000
0000
0100
0000
0010
0000
0000
1000
,
0000
0000
0100
0000
2003
0000
0000
0000
0001
0000
0000
0000
0010
0000
0000
0200
,
0000
0000
0000
0300
3010
0000
0000
0001
0000
0000
0101
0000
1100
0000
0001
0000
,
1000
0000
0010
0000
0010
0000
1000
0010
1000
0000
0101
0000
1100
0000
0001
0000
,
1000
0100
0200
0301
0200
1300
0200
0310
,
0002
1003
0220
0000
0000
0000
0000
0000
,
0000
0330
1010
0010
0011
0010
1100
0100
,
0202
0000
0000
0303
0000
0000
0000
0000
,
0000
0000
0000
0000
2000
0000
3100
1000
0000
0000
0002
0000
0103
0001
0000
0000
,
0100
0000
1000
0001
0000
0000
2002
0000
0000
0000
0000
0000
3003
0000
0001
0000
,
0010
0000
1000
0000
0002
0000
0103
0000
0000
0000
0001
0010
0001
0000
0010
0000
,
1010
0000
1000
0010
0011
0000
1100
0000
,
0011
0000
0000
0000
2000
0000
3010
1000
0000
0000
0002
0000
0013
0001
0000
0000
,
0010
0000
1000
0001
0000
0000
2002
0000
0000
0000
0000
0000
3003
0000
1000
0000
,
0100
0000
0001
0000
2000
0000
3100
0000
0000
0000
1000
0010
1000
0000
0010
0000
,
0011
0000
2000
3100
0002
0103
1100
0101
,
0101
1100
0002
0010
1000
0100
0013
0000
,
1000
0100
0020
0000
0001
0000
1030
0100
,
1000
0001
0200
0000
1000
0000
0301
0000
,
0001
0010
2000
0000
0020
0000
3000
0000
,
0000
0000
0030
0000
0220
0000
0000
0000
0000
0000
0000
0000
0330
0000
0001
0010
,
0001
0000
1000
0000
0010
0000
0000
0110
0000
0000
0000
0000
0100
0000
0000
0110
,
0000
0000
0000
0000
0002
0000
0013
0000
2000
0000
3010
0000
0010
0001
0100
1000
,
0000
0000
0000
0000
1000
0010
1000
0010
0001
0010
0001
0010
0001
0100
0001
0100
,
1000
0100
1000
0100
0011
0000
0000
0000
0101
0000
0000
0000
1100
0000
0000
0000
,
1010
0000
0000
0000
0020
0000
1030
0010
0000
0000
0200
0000
0301
0100
1010
0000
,
0011
0000
0000
0000
2000
0000
3100
1000
0000
0000
0002
0000
0103
0001
0000
0000
,
1001
0000
0000
0000
0020
0000
0031
0010
0000
0000
0200
0000
1300
0100
0101
0000
,
1100
0000
0000
0000
1000
0100
1000
0100
0010
0001
0010
0001
1000
0001
1000
0001
,
0110
0000
0110
0000
0002
0000
1003
0001
0000
0000
0020
0000
0130
0010
0101
0000
,
1100
0000
0000
0000
2000
0000
3001
1000
0000
0000
0200
0000
0310
0100
1100
0000
,
0101
0000
0000
0000
2000
0000
3100
1000
0000
0000
0020
0000
0031
0010
0000
0000
,
1001
0220
0330
0000
,
0000
0000
0000
0000
0002
0000
0013
0001
0000
0000
0020
0000
1030
0010
0000
0000
,
0010
0000
1000
0001
0000
0000
0022
0000
0000
0000
0000
0000
0033
0000
0100
0000
,
0100
0000
0100
0000
2000
0000
3010
0000
0000
0000
0001
0010
0001
0000
0010
0000
,
1010
0000
1000
0010
0011
0000
0011
0000
,
1010
0000
0000
0000
2000
0000
3100
1000
0000
0000
0200
0000
0301
0100
0000
0000
,
0100
0000
0001
1000
0000
0000
2200
0000
0000
0000
0000
0000
3300
0000
0010
0000
,
0010
0000
0010
0000
0002
0000
0013
0000
0000
0000
1000
0100
1000
0000
0100
0000
,
1001
0000
1100
1010
1100
1010
0101
0011
,
0101
0000
0011
0000
1000
0010
1000
0010
0000
0000
0001
0010
0001
0010
0000
0000
,
0001
1000
0001
1000
0001
0010
0001
0010
0100
1000
0100
1000
0100
0010
0100
0010
,
1000
0001
1000
0001
2000
0000
3000
0000
0000
0000
0000
0000
0000
0000
0000
0000
;

//---------------dance-single - ----------------
#NOTEDATA:;
#CHARTNAME:;
#CHARTHASH:131791276;
#STEPSTYPE:dance-single;
#BANNER:;
#DESCRIPTION:;
#CHARTSTYLE:;
#DIFFICULTY:Beginner;
#METER:3;
#METERF:3.000000;
#RADARVALUES:0.100327,0.229962,0.053435,0.000000,0.000000,92.000000,85.000000,7.000000,0.000000,0.000000,0.000000,0.000000,0.000000,0.000000,0.100327,0.229962,0.053435,0.000000,0.000000,92.000000,85.000000,7.000000,0.000000,0.000000,0.000000,0.000000,0.000000,0.000000;
#CREDIT:;
#NOTES:
// measure 0
0000
0000
0000
0000
,  // measure 1
0000
0000
0000
0000
,  // measure 2
0000
0000
0000
0000
,  // measure 3
0000
0000
0000
0000
,  // measure 4
0000
0000
0000
0000
,  // measure 5
0000
0000
0000
0000
,  // measure 6
0000
0000
0000
0000
,  // measure 7
0000
0001
0000
0000
,  // measure 8
0000
0000
0000
0000
,  // measure 9
0000
0000
0000
0000
,  // measure 10
0000
0001
0000
0001
,  // measure 11
0000
1000
0000
0000
,  // measure 12
0000
0000
0000
0000
,  // measure 13
0000
0000
1000
0000
,  // measure 14
1000
0000
1000
0001
,  // measure 15
0001
0010
0000
0000
,  // measure 16
0000
0000
0000
0000
,  // measure 17
0000
0000
0000
0000
,  // measure 18
0000
0000
0000
0000
,  // measure 19
0000
0001
0000
0001
,  // measure 20
0001
1000
0000
1000
,  // measure 21
1000
0100
0100
0010
,  // measure 22
0010
0001
0001
1000
,  // measure 23
1000
1001
0000
0000
,  // measure 24
0000
0000
0000
0000
,  // measure 25
0000
0001
0000
0000
,  // measure 26
0000
0000
0000
0000
,  // measure 27
0000
1000
0000
0000
,  // measure 28
0001
0000
0001
0010
,  // measure 29
0010
1000
0000
0000
,  // measure 30
0000
0000
0000
0000
,  // measure 31
0000
0001
0000
0000
,  // measure 32
1001
0100
0000
0100
,  // measure 33
0000
1000
0000
0000
,  // measure 34
0000
0000
0000
0000
,  // measure 35
0000
0001
0000
0000
,  // measure 36
0000
0001
0000
0000
,  // measure 37
0000
0100
0000
0000
,  // measure 38
0000
1000
0000
0010
,  // measure 39
0000
1000
1000
0001
,  // measure 40
0000
0001
0001
1000
,  // measure 41
1000
0110
0000
0110
,  // measure 42
0000
0001
1000
0001
,  // measure 43
0000
1000
0001
1000
,  // measure 44
0000
0001
1000
0001
,  // measure 45
0000
1001
0000
1001
,  // measure 46
0000
0100
0010
0100
,  // measure 47
0000
0010
0100
0010
,  // measure 48
0000
0100
0010
0100
,  // measure 49
0000
0100
0000
0000
,  // measure 50
0000
0001
0000
0000
,  // measure 51
0000
0000
0000
0000
,  // measure 52
0000
1000
0000
0000
,  // measure 53
0001
0000
0001
0010
,  // measure 54
0010
1000
0000
0000
,  // measure 55
0000
0000
0000
0000
,  // measure 56
0000
0001
0000
0000
,  // measure 57
0000
0100
0010
0100
,  // measure 58
0010
0000
0000
0000
,  // measure 59
0000
0000
0000
0000
,  // measure 60
0000
1001
0000
0000
;
