#TITLE:Cosmic CoaSTAR;
#SUBTITLE:;
#ARTIST:Happy Around!;
#TITLETRANSLIT:;
#SUBTITLETRANSLIT:;
#ARTISTTRANSLIT:;
#GENRE:;
#CREDIT:;
#BANNER:Cosmic CoaSTAR.png;
#BACKGROUND:Cosmic CoaSTAR-BG.png;
#LYRICSPATH:;
#CDTITLE:;
#MUSIC:Cosmic CoaSTAR.ogg;
#OFFSET:-2.480000;
#SAMPLESTART:78.521858;
#SAMPLELENGTH:12.000000;
#SELECTABLE:YES;
#BPMS:0.000000=130.000000
;
#STOPS:
;
#BGCHANGES:0.000=evening streets.mp4=1.000=0=0=1===CrossFade_Faster==,
34.500=686_JumpBack.mpg=1.000=0=0=1=====,
67.000=VOL1-48-NTSC.mpg=1.000=0=0=1=====,
131.000=vol3-12-ntsc.mpg=1.000=0=0=1=====,
166.500=Sparkle_1.mpeg=1.000=0=0=1=====,
99999=-nosongbg-=1.000=0=0=0 // don't automatically add -songbackground-
;
#KEYSOUNDS:;
#ATTACKS:;

//---------------dance-single - ----------------
#NOTES:
     dance-single:
     :
     Easy:
     4:
     0.000000,0.000000,0.000000,0.000000,0.000000,0.000000,0.000000,0.000000,0.000000,0.000000,0.000000,0.000000,0.000000,0.000000,0.000000,0.000000,0.000000,0.000000,0.000000,0.000000,0.000000,0.000000:
0000
0000
0000
0000
,
0000
0000
0000
0000
,
0000
0000
0000
0000
,
0000
0000
0000
0000
,
0000
0000
0000
0100
,
0100
0100
0000
0100
,
0100
0100
0000
0002
,
0000
0000
0003
1000
,
0001
1000
0000
0000
,
1000
1000
0001
0001
,
1000
0001
1000
0001
,
0000
1000
0001
1000
,
0000
0000
0000
0010
,
0010
0010
0010
0100
,
0100
0100
0100
0002
,
0000
0000
0000
0003
,
0000
0000
0000
1000
,
0000
1000
0000
0001
,
0000
0001
0000
0001
,
0000
0001
0000
1000
,
0000
1000
0000
0010
,
0000
0010
0000
0100
,
0000
0100
0000
0100
,
0000
0100
0000
0010
,
0000
0010
0000
0001
,
0000
0001
0000
0010
,
0000
0010
0000
1000
,
0000
1000
0000
0010
,
0000
0010
0000
0001
,
0000
0001
0000
0100
,
0000
0100
0000
1000
,
0000
1000
0000
0100
,
0000
0100
0000
1001
,
0000
0000
0000
0110
,
0000
0000
0000
1001
,
0000
1000
0000
0001
,
0000
1000
0000
0010
,
0010
0100
0000
0100
,
0100
0010
0000
1000
,
1000
1001
0000
0001
,
0001
1001
0000
0110
,
0000
0000
0000
0000
,
0001
0001
1000
1000
,
0001
0100
0010
0100
,
0000
0010
0100
0010
,
0000
0000
0000
1000
,
1000
1000
0000
0001
,
0001
0001
0000
0010
,
0000
0010
0000
0100
,
0000
0000
0000
0000
,
1000
0001
0001
1000
,
0000
0100
0010
0100
,
0000
0010
0100
0010
,
0000
0000
0000
1000
,
1000
1000
0000
0001
,
0001
0001
0000
0020
,
0000
0000
0030
0110
;

//---------------dance-single - ----------------
#NOTES:
     dance-single:
     :
     Medium:
     7:
     0.000000,0.000000,0.000000,0.000000,0.000000,0.000000,0.000000,0.000000,0.000000,0.000000,0.000000,0.000000,0.000000,0.000000,0.000000,0.000000,0.000000,0.000000,0.000000,0.000000,0.000000,0.000000:
0000
0000
0000
0000
,
0000
0000
0000
0000
,
0000
0000
0000
0000
,
0000
0000
0000
0000
,
0000
0000
0000
0001
,
0100
1100
0000
1000
,
0100
0001
0100
0220
,
0000
0000
0330
0100
,
0000
0100
0000
0000
0000
1001
0000
0000
,
1000
1000
0001
0001
,
1000
0000
0001
1000
0001
1000
0001
0000
,
0000
0000
0100
0000
0010
0000
0000
0100
0000
0000
0020
0000
0000
0000
0000
0000
,
0000
0000
0000
0030
0000
0000
0001
0000
,
0100
0001
0100
1000
,
0100
1000
0100
0020
,
0000
0000
0000
0000
0000
0000
1030
0100
,
1000
0100
0001
0100
0001
0000
1000
0000
,
1000
1000
1000
0001
,
0001
0001
1100
0001
,
0001
0001
0001
1000
,
1000
1000
0101
1000
,
1000
1000
1000
0001
,
0001
0001
0001
0002
,
0000
1003
0000
2000
,
0000
3002
0000
0103
,
0100
0100
0100
0010
,
0010
0010
0011
0010
,
0010
0010
0010
0100
,
0100
0100
1010
0100
,
0100
0100
0100
0020
,
0030
0020
0030
0020
,
0030
1000
0100
0010
,
0001
1000
0001
1001
,
0000
1000
1010
0000
0000
0000
0110
0000
,
0000
0001
0011
0000
0000
0000
2000
0000
,
0000
3002
0000
1003
,
1000
0001
0001
1000
,
0010
1000
0010
0001
,
0010
0001
0010
1100
,
0000
0011
0000
0101
,
0000
1010
0000
0110
,
0000
0000
0100
0100
0100
0020
0000
0000
,
0030
1000
1000
0001
,
0000
0000
0001
0100
0001
0100
0001
0000
,
0000
1000
0100
1000
0100
2000
0000
0000
,
0000
0000
3000
1000
,
0100
0011
0000
0001
,
0100
1010
0000
1000
,
0100
0001
0010
1001
,
0000
0000
0010
0010
0010
0200
0000
0000
,
0300
0001
0001
1000
,
0000
0000
0001
0010
0001
0010
0001
0000
,
0000
1000
0010
1000
0010
2000
0000
0000
,
0000
0000
3000
1000
,
0010
0101
0000
0001
,
0010
1100
0000
2002
,
0000
0000
3003
0010
,
0000
0100
0000
0000
0000
0110
0000
0000
;

//---------------dance-single - ----------------
#NOTES:
     dance-single:
     :
     Hard:
     10:
     0.000000,0.000000,0.000000,0.000000,0.000000,0.000000,0.000000,0.000000,0.000000,0.000000,0.000000,0.000000,0.000000,0.000000,0.000000,0.000000,0.000000,0.000000,0.000000,0.000000,0.000000,0.000000:
0000
0000
0000
0000
,
0000
0000
0000
0000
,
0000
0000
0000
0000
,
0000
0000
0000
0000
,
0000
0000
0000
0001
,
0001
1000
0000
0100
,
0100
0000
0000
0000
0010
0000
0100
0010
0000
0000
0001
0000
0002
0000
0000
0000
,
0000
0000
0000
0000
0000
0000
0000
0000
0003
0000
1000
0000
1000
0000
0000
1000
,
0000
0001
0000
0001
0000
0020
0000
0000
,
1000
1000
0001
0031
,
0100
0000
0001
0100
0001
0100
0001
0000
,
0000
0000
1000
0000
0010
0000
0000
1000
0000
0000
2020
0000
0000
0000
0000
0000
,
0000
0000
3030
0010
,
0010
0100
0010
1000
,
0001
0001
0100
0020
,
0000
0000
0000
0000
0000
0030
1000
0100
,
1000
0000
0100
0000
0001
0100
0001
0100
0002
0000
0003
0000
0010
0000
0000
0000
,
0010
0000
0000
0000
0001
0000
1000
0000
0001
0000
1000
0000
0100
0000
0000
0100
,
0000
0200
0000
0000
0000
0000
0310
0000
,
0010
0000
0000
0000
1000
0000
0001
0000
1000
0000
0001
0000
0010
0000
0000
0010
,
0000
0000
0010
0000
0100
0000
0000
0100
0000
0000
0100
0000
0000
0000
0000
0000
,
0000
0100
0001
1000
0001
1000
0002
0000
,
0003
0000
0000
0000
1000
0000
0000
0100
0000
0000
0001
0000
0002
0000
0000
0000
,
0000
0000
1003
0010
2000
0000
0000
0000
3000
0000
0010
0000
0020
0000
0000
0000
,
0000
0031
0002
0000
0000
0000
1003
0000
,
1000
0000
0000
0000
0100
0000
0010
0000
0100
0000
0010
0000
1000
0000
0000
1000
,
0000
2000
0000
0000
0000
0000
3001
0000
,
0001
0000
0000
0000
0010
0000
0100
0000
0010
0000
0100
0000
0001
0000
0000
0001
,
0000
0002
0000
0000
0000
0000
0103
0000
,
0000
1000
0100
1000
0100
0010
0001
0000
,
0010
0001
0000
0000
1000
0100
0000
0000
,
0000
1000
0100
0001
0010
1000
0002
0000
,
0000
0000
1000
0000
2003
0000
0000
0000
0000
0000
3000
0000
1000
0000
0000
1000
,
0000
0000
1000
0000
1001
0000
0000
0000
0100
0000
0010
0000
0001
0000
0000
0001
,
0000
0000
0001
0000
1001
0000
0000
0000
0010
0000
0100
0000
1000
0000
0000
1000
,
0000
0000
1000
0000
0001
0000
0000
0001
0000
0000
0001
0000
0020
0000
0000
0000
,
0030
0000
0010
0000
0100
0000
0000
0000
0000
0000
0100
0000
0010
0000
0000
0010
,
0000
0000
0010
0000
0100
0000
0000
0100
0000
0000
0100
0000
0001
0000
0000
1000
,
0000
0000
0220
0000
0000
0000
0330
0000
0000
0000
0100
1000
0010
0000
0000
0000
,
0011
0000
0000
0000
1100
0000
0010
0001
0000
0000
0100
0000
1000
0000
1000
0000
,
0100
0000
0100
0000
0010
0000
0010
0000
0001
0000
0001
0000
0110
0000
0000
1001
,
0000
0000
0010
0010
0010
0210
0000
0000
,
0300
0000
0001
0000
0001
0000
0000
1000
0000
0000
2000
0000
0000
0000
0000
0000
,
3000
0000
0100
1000
0010
0001
0110
0000
,
0000
0000
0001
0000
0010
0000
0000
1000
0000
0000
2002
0000
0000
0000
0000
0000
,
0000
0000
0000
0000
0000
0000
3003
0000
0000
0000
0001
1000
0001
0000
0000
0000
,
0001
0000
0001
0000
0000
1000
1000
0000
,
1000
0000
0000
0000
1000
0000
0001
1000
0000
0000
0100
0000
0001
0000
0000
0001
,
0000
0000
0010
0000
1000
0000
0000
1000
0000
0000
0100
0000
0001
0000
0100
0010
,
0000
0000
0100
0100
0100
0120
0000
0000
,
0030
0000
0100
0000
0001
0000
0000
0001
0000
0000
1000
0000
2002
0000
0000
0000
,
3003
0000
1000
0010
0001
0010
1000
0000
,
0000
0000
1000
0000
0010
0000
0000
0001
0000
0000
2002
0000
0000
0000
0000
0000
,
0000
0000
0000
0000
0000
0000
0000
0000
3003
0000
0100
0010
0100
0000
0000
0000
,
1010
0000
0000
0000
0101
0000
0000
0100
0000
0000
0001
0000
0011
0000
0000
0000
,
1100
0000
0100
0000
0000
1000
2000
0000
,
0100
0000
0000
0000
0010
0000
0000
0000
3001
0000
1000
0000
1000
0000
0000
1000
,
0000
0001
0000
0001
0000
2002
0000
0000
,
3003
0000
0000
0000
;

//---------------dance-single - ----------------
#NOTES:
     dance-single:
     :
     Beginner:
     1:
     0.058943,0.152707,0.026909,0.000000,0.000000,46.000000,43.000000,3.000000,0.000000,0.000000,0.000000,0.058943,0.152707,0.026909,0.000000,0.000000,46.000000,43.000000,3.000000,0.000000,0.000000,0.000000:
// measure 0
0000
0000
0000
0000
,  // measure 1
0000
0000
0000
0000
,  // measure 2
0000
0000
0000
0000
,  // measure 3
0000
0000
0000
0000
,  // measure 4
0000
0000
0000
0000
,  // measure 5
0000
0000
0000
0000
,  // measure 6
0000
0000
0000
0000
,  // measure 7
0000
0000
0000
0000
,  // measure 8
0000
0000
0000
0000
,  // measure 9
0000
0000
0000
0000
,  // measure 10
0000
0000
0000
1000
,  // measure 11
0000
0000
0000
1000
,  // measure 12
0000
0000
0000
0001
,  // measure 13
0000
0000
0000
0001
,  // measure 14
0000
0000
0000
0010
,  // measure 15
0000
0000
0000
0000
,  // measure 16
0000
0000
0000
0001
,  // measure 17
0000
0000
0000
0001
,  // measure 18
0000
0000
0000
1000
,  // measure 19
0000
0000
0000
1000
,  // measure 20
0000
0000
0000
0100
,  // measure 21
0000
0000
0000
0100
,  // measure 22
0000
0000
0000
0010
,  // measure 23
0000
0000
0000
0010
,  // measure 24
0000
0000
0000
0010
,  // measure 25
0000
0000
0000
0010
,  // measure 26
0000
0000
0000
0100
,  // measure 27
0000
0000
0000
0100
,  // measure 28
0000
0000
0000
1000
,  // measure 29
0000
0000
0000
1000
,  // measure 30
0000
0000
0000
0001
,  // measure 31
0000
0000
0000
0001
,  // measure 32
0000
0000
0000
1001
,  // measure 33
0000
0000
0000
1001
,  // measure 34
0000
0000
0000
1001
,  // measure 35
0000
0000
0000
0100
,  // measure 36
0000
0000
0000
0010
,  // measure 37
0000
0000
0000
0010
,  // measure 38
0000
0000
0000
0001
,  // measure 39
0000
0000
0000
0001
,  // measure 40
0000
0000
0000
0000
,  // measure 41
0000
0000
0000
0000
,  // measure 42
0000
1000
0000
0000
,  // measure 43
0000
1000
0000
0000
,  // measure 44
0000
1000
0000
0000
,  // measure 45
0000
0000
0000
0100
,  // measure 46
0000
0000
0000
0100
,  // measure 47
0000
0000
0000
0100
,  // measure 48
0000
0000
0000
0100
,  // measure 49
0000
0000
0000
0000
,  // measure 50
0000
0001
0000
0000
,  // measure 51
0000
0001
0000
0000
,  // measure 52
0000
0001
0000
0000
,  // measure 53
0000
0000
0000
0010
,  // measure 54
0000
0000
0000
0010
,  // measure 55
0000
0000
0000
0010
,  // measure 56
0000
0000
0000
0010
;
