#TITLE:Celsius;
#SUBTITLE:;
#ARTIST:RONDO;
#TITLETRANSLIT:;
#SUBTITLETRANSLIT:;
#ARTISTTRANSLIT:;
#GENRE:;
#CREDIT:;
#BANNER:Celsius.png;
#BACKGROUND:Celsius-BG.png;
#LYRICSPATH:;
#CDTITLE:;
#MUSIC:audio.ogg;
#OFFSET:-0.380000;
#SAMPLESTART:77.976341;
#SAMPLELENGTH:12.000000;
#SELECTABLE:YES;
#BPMS:0.000000=85.000000
,36.000000=170.000000
,92.000000=85.000000
,108.000000=170.000000
,292.000000=85.000000
;
#STOPS:
;
#BGCHANGES:0.000=sakuratree.mp4=1.000=1=0=1===CrossFade==,
36.000=alicesakura2.mp4=1.000=0=0=1=====,
92.000=alicesakura1.mp4=1.000=0=0=1=====,
108.000=road.mpeg=1.000=0=0=1=====,
172.000=VOL1-15-NTSC.mpg=1.000=0=0=1=====,
236.000=alicesakura2.mp4=1.000=0=0=1=====,
292.000=alicesakura1.mp4=1.000=0=0=1=====,
99999=-nosongbg-=1.000=0=0=0 // don't automatically add -songbackground-
;
#KEYSOUNDS:;
#ATTACKS:;

//---------------dance-single - ----------------
#NOTES:
     dance-single:
     :
     Easy:
     4:
     0.000000,0.000000,0.000000,0.000000,0.000000,0.000000,0.000000,0.000000,0.000000,0.000000,0.000000,0.000000,0.000000,0.000000,0.000000,0.000000,0.000000,0.000000,0.000000,0.000000,0.000000,0.000000:
0000
0000
0000
0000
,
1000
0000
1000
0000
,
0001
0000
0001
0000
,
1000
0000
1000
0000
,
0001
0001
0010
0010
,
0100
0000
0100
0000
,
0010
0000
0010
0000
,
1000
0000
1000
0000
,
0001
0001
0010
0010
,
0001
0001
0001
1000
,
1000
0001
0001
0001
,
0000
0000
0010
0000
,
0010
0000
0010
0000
,
0010
1000
1000
0001
,
0001
1000
1000
1000
,
0000
1000
0001
0001
,
1000
1000
0001
0001
,
0010
0000
0000
0000
,
0010
0000
0000
0000
,
0100
0000
0100
0000
,
0100
0000
0100
0000
,
2002
0000
0000
3003
,
0110
0000
0110
0000
,
2002
0000
0000
0000
,
3003
0000
0000
0000
,
0000
0000
0000
0000
,
0000
0000
0000
0000
,
0100
0000
0010
0000
,
0010
0000
0000
0000
,
0100
0000
1000
0000
,
1000
0000
0100
0000
,
0001
0000
0001
0000
,
1000
0000
1000
0000
,
0001
0000
0010
0000
,
1000
0000
0110
0000
,
0000
0000
0001
0001
,
0001
0000
0001
0000
,
0000
0000
1000
1000
,
1000
0000
1000
0000
,
1000
1000
0001
0001
,
0010
0010
0010
0010
,
0100
0100
0100
0100
,
2000
0000
3002
0000
,
1003
1000
0001
0000
,
0001
0000
0001
0000
,
1000
0000
1000
0000
,
1000
0000
0001
1000
,
0001
0001
1000
0000
,
1000
0000
1000
0000
,
0001
0000
0001
0000
,
0001
0000
0110
0000
,
1000
1000
0001
0000
,
0001
0000
0001
0000
,
1000
0000
1000
0000
,
1000
0000
0001
0000
,
0010
0000
0010
0000
,
0010
0000
0010
0000
,
0100
0100
0100
0100
,
0100
0100
0100
0100
,
1000
0000
1000
0000
,
1000
0000
1100
0000
,
0001
0001
0001
0001
,
1000
1000
1000
1000
,
0001
0000
0001
0000
,
0001
0000
0101
0000
,
1100
0000
1100
0000
,
0101
0000
0101
0000
,
0110
0000
0000
0000
,
0010
0000
0000
0000
,
0100
0000
0000
0000
,
0100
0000
0000
0000
,
0010
0000
0010
0000
,
0100
0100
0100
0100
,
2002
0000
0000
0000
,
0003
0000
0000
0000
,
3000
0000
0000
0000
;

//---------------dance-single - ----------------
#NOTES:
     dance-single:
     :
     Medium:
     9:
     0.000000,0.000000,0.000000,0.000000,0.000000,0.000000,0.000000,0.000000,0.000000,0.000000,0.000000,0.000000,0.000000,0.000000,0.000000,0.000000,0.000000,0.000000,0.000000,0.000000,0.000000,0.000000:
0000
0000
0000
0000
,
0010
0100
0100
1000
,
0001
1000
0100
0001
,
0010
0100
0100
0001
,
1000
1000
1000
0001
,
0100
0010
0010
1000
,
0001
0001
1000
0010
,
1000
1000
0100
0100
,
0010
0000
0010
0000
0001
0001
0001
0001
,
0010
0010
1010
0010
,
0011
0010
1000
0001
,
0000
1000
0001
0010
,
0001
0000
1000
1000
0000
0000
0001
0000
,
0001
0100
1100
0100
,
0101
0100
1000
0001
,
1000
1000
0001
0001
,
1000
1100
0001
0101
,
0020
0000
0000
0000
0000
0000
0100
0230
,
0000
0000
0300
0010
,
1000
0000
0001
1000
0001
0000
0100
0000
,
0000
0001
0010
0001
,
0010
0000
0010
0000
,
1100
1100
0101
0101
,
0020
0000
0000
0032
,
0203
0000
0000
0000
,
0320
0000
0000
2030
,
3200
0000
0000
0300
,
0001
0001
0010
0100
,
0001
0000
0100
0200
0000
0000
0300
0000
,
1000
1000
0100
0001
,
1000
0000
0001
1000
0000
0001
1000
0000
,
0001
0001
0100
0010
,
0010
0000
0001
1000
0000
0000
0000
0010
,
0010
0000
0000
0100
0100
0000
0010
0010
,
0000
0100
0100
0000
0110
0000
0000
0110
,
0000
0100
0100
0010
0010
0100
0100
0001
,
1000
0000
1000
0002
0000
0000
0003
0110
,
0000
1000
1000
0001
0001
1000
1000
0100
,
0001
0000
0001
1000
0000
0001
1000
0000
,
0001
0010
1000
0010
,
0100
0000
1000
1000
0000
0100
0000
0002
,
0000
0000
0000
0003
,
2020
0000
0000
3030
0022
0000
0000
0033
,
0010
0000
0010
0000
1000
0000
0000
0011
,
0000
0000
0100
0000
0100
0000
0001
0001
,
0000
0000
0010
0000
1000
0000
0100
0101
,
0000
0000
1000
0001
,
0100
0000
0100
0000
1010
0000
0010
0010
,
0000
0000
0010
0000
0010
0000
0100
1100
,
0000
0000
0001
0001
0000
0000
1000
0000
,
1000
0000
0000
0001
1001
0000
0000
0000
,
1000
0000
1000
0000
0010
0000
0000
1100
,
0000
0000
0001
0000
0001
0000
0000
0101
,
0000
0000
0010
0000
0010
0000
0000
1010
,
0000
0001
0100
1000
,
1000
1000
1000
1000
,
0100
0100
0100
0100
,
0010
0010
0010
0010
0010
0010
0010
0010
,
0001
0001
0001
0001
0001
0001
0001
0001
,
0000
0000
0010
0010
0010
0000
0100
0100
,
0100
0000
0010
0010
0010
0000
1001
0000
,
0000
1100
0101
1100
,
1000
1000
0001
0001
,
0000
0000
0001
0001
0001
0000
1000
1000
,
1000
0000
0001
0001
0001
0000
0110
0000
,
0000
0011
1010
0011
,
0001
0001
1000
1000
,
0002
0000
0000
0000
0000
0000
1000
2003
,
0000
0000
3000
0100
,
0001
0000
0001
1000
0001
1000
0001
0000
,
0000
1000
0100
0001
,
1000
0000
1000
0000
,
1010
1010
0011
0011
,
2002
0000
0000
0000
0000
0000
0000
0003
,
3020
0000
0000
0000
,
0230
0000
0000
0000
,
2300
0000
0000
0000
,
3000
0000
0000
0000
;

//---------------dance-single - ----------------
#NOTES:
     dance-single:
     :
     Hard:
     14:
     0.000000,0.000000,0.000000,0.000000,0.000000,0.000000,0.000000,0.000000,0.000000,0.000000,0.000000,0.000000,0.000000,0.000000,0.000000,0.000000,0.000000,0.000000,0.000000,0.000000,0.000000,0.000000:
0000
0000
0000
0000
,
0100
0000
1000
0000
0001
0000
0000
0001
0000
0000
0100
0000
0010
0000
0000
0010
,
0000
0000
1000
0000
0010
0000
0001
1000
0000
0000
0000
0000
0001
0000
0010
0000
,
0100
0000
0010
0000
1000
0000
0000
0010
0000
0000
0100
0000
0010
0000
0000
0100
,
0000
0000
0001
0010
0000
0000
0100
0000
0001
0000
0000
1000
0100
0000
0000
0000
,
0010
0000
0100
0000
0010
0000
0000
0010
0000
0000
0001
0000
0010
0000
0001
0100
,
0000
0000
0100
0000
0010
0000
0000
0010
0000
0000
0100
0000
1000
0000
0010
0000
,
0100
0000
0001
0001
0000
0000
1000
0000
0010
0000
0001
0000
1000
0000
0010
0000
,
0001
0000
0000
0010
1000
0000
0000
0001
0100
0000
1000
0000
0001
0000
0100
0000
,
0010
1000
0010
1000
0101
0000
1000
0001
,
1100
0000
0010
1000
0101
0000
1100
0000
,
0010
0200
2300
3200
,
0302
0000
0013
0020
0000
0000
2030
0000
,
3100
0000
1000
0100
0011
0000
0001
0100
,
1010
0000
0100
1000
0011
0000
1010
0000
,
0100
0002
0023
0032
,
0023
2030
3200
0310
,
2000
0000
0000
0000
0000
0000
3001
0002
,
0000
0000
0013
0100
,
1000
0000
0100
1000
0100
0000
0001
0000
,
0000
0010
1000
0100
,
1001
0000
1000
1000
1000
1000
1000
1000
,
1100
1100
1100
1100
0101
0101
0101
0101
,
0020
0000
0000
0230
,
0302
0000
0000
0000
,
0203
0000
0000
0320
,
2030
0000
0000
0000
,
3100
0000
0000
0100
0010
0000
0100
0000
,
0001
0000
0010
2000
0000
0000
0000
0000
,
3100
0000
0000
0100
0100
0000
1000
0000
,
0010
0000
0010
0001
0000
0010
1000
0000
,
0011
0000
0000
0100
0001
0000
0100
0000
,
0010
0000
1000
1000
0000
0000
0000
0010
,
0100
0000
0000
0001
0010
0000
0100
0010
,
0000
0010
0010
0000
0100
0100
0100
0100
,
0000
0001
1000
0001
1000
0000
0010
0010
,
0000
0100
0100
0010
0001
0010
0100
1100
,
0000
0001
1000
0001
0100
0000
1000
0000
,
0001
0000
1000
0001
0000
0001
0100
0000
,
0120
0230
2300
3200
,
0302
0000
0103
1000
0000
0100
0000
0020
,
0000
0000
0130
0000
,
1000
0100
1000
0100
0010
0100
0010
0100
0001
0100
0001
0000
,
1010
0000
0011
0000
0002
0000
0000
0013
,
0000
0000
0001
0000
1000
0000
0100
0010
,
0000
0000
0001
0000
1000
0000
0001
0100
,
0000
0000
0000
0000
2200
3300
0202
0303
,
0022
0033
2020
3030
0010
0000
0001
0100
,
0000
0000
0001
0000
1000
0000
0100
0010
,
0000
0000
0100
0001
0000
0000
0200
0300
,
0100
0000
0000
0010
0020
0000
0000
0030
,
0022
0033
2200
3300
0100
0000
0001
0010
,
0000
0000
1000
0000
0020
0000
0030
0010
,
0000
0000
0100
0000
0010
0000
0001
0100
,
0000
0000
0022
0033
2020
3030
2002
3003
,
0110
0000
1001
0000
0010
0010
0010
0010
,
0100
0100
0100
0100
1000
1000
1000
1000
,
0010
0010
0010
0010
0001
0001
0001
0001
,
0100
0100
0100
0100
1000
0001
1001
1001
,
0110
0000
1000
0100
0022
0033
0001
0010
,
2200
3300
0010
0100
0022
0033
2200
3300
,
0110
0001
1000
0010
,
1000
0000
0001
1000
0000
0000
0100
0000
,
1000
0000
0001
0100
2020
3030
1000
0010
,
0202
0303
1000
0001
2020
3030
0202
0303
,
1001
0000
0000
0000
0001
0000
0000
0010
0100
0000
0000
0100
1000
0000
0000
0001
,
0010
0000
0000
1000
0100
0000
0000
0100
0010
0000
0000
0010
0001
0000
0000
0000
,
0120
0000
0000
0000
0000
0000
0100
0130
,
0000
0000
0000
1001
0000
0000
1001
0000
,
2200
0000
3300
0000
0002
0000
0023
0000
0230
0000
1300
0000
1000
0000
0000
0100
,
0010
0000
0000
0001
1000
0000
0000
1000
0100
0000
0000
0001
0100
0000
0000
0000
,
1100
1100
1100
1100
,
0101
0101
0101
0101
1001
1001
1001
1001
,
0220
0000
0000
0000
0000
0330
2200
3300
,
0011
0000
0001
0010
0000
0010
0100
0000
0100
1000
0000
0100
0010
0000
0010
0001
,
0000
0000
0000
0000
0000
0000
2020
3030
,
0101
0000
0100
1000
0000
0010
0001
0000
0100
0001
0000
0010
1000
0000
1000
0001
;

//---------------dance-single - ----------------
#NOTES:
     dance-single:
     :
     Beginner:
     2:
     0.066930,0.135720,0.037184,0.000000,0.000000,63.000000,58.000000,5.000000,0.000000,0.000000,0.000000,0.066930,0.135720,0.037184,0.000000,0.000000,63.000000,58.000000,5.000000,0.000000,0.000000,0.000000:
// measure 0
0000
0000
0000
0000
,  // measure 1
0000
0000
0000
0000
,  // measure 2
0000
0000
0000
0000
,  // measure 3
0000
0000
0000
0000
,  // measure 4
0000
0000
0000
0000
,  // measure 5
0000
0000
0000
0000
,  // measure 6
0000
0000
0000
0000
,  // measure 7
0000
0000
0000
0000
,  // measure 8
1000
0000
1000
0000
,  // measure 9
0001
0000
0000
0000
,  // measure 10
0000
0000
0000
0000
,  // measure 11
0001
0000
0000
0000
,  // measure 12
0000
0000
0000
0000
,  // measure 13
0010
0000
0000
0000
,  // measure 14
0000
0000
0000
0000
,  // measure 15
0010
0000
0000
0000
,  // measure 16
0000
0000
0000
0000
,  // measure 17
1000
0000
0000
0000
,  // measure 18
1000
0000
0000
0000
,  // measure 19
0001
0000
0000
0000
,  // measure 20
0001
0000
0000
0000
,  // measure 21
0100
0000
0000
0000
,  // measure 22
1001
0000
0000
0000
,  // measure 23
0100
0000
0000
0000
,  // measure 24
0000
0000
0000
0000
,  // measure 25
0000
0000
0000
0000
,  // measure 26
0000
0000
0000
0000
,  // measure 27
0010
0000
0010
0000
,  // measure 28
0010
0000
0000
0000
,  // measure 29
0100
0000
0100
0000
,  // measure 30
0100
0000
0000
0000
,  // measure 31
0010
0000
0010
0000
,  // measure 32
0010
0000
0000
0000
,  // measure 33
0100
0000
0100
0000
,  // measure 34
0100
0000
0000
0000
,  // measure 35
0000
0000
1000
0000
,  // measure 36
1000
0000
0000
0000
,  // measure 37
0000
0000
0001
0000
,  // measure 38
0001
0000
0000
0000
,  // measure 39
1000
0000
1000
0000
,  // measure 40
0001
0000
0001
0000
,  // measure 41
0000
0000
0000
0000
,  // measure 42
1000
0000
0001
0000
,  // measure 43
0010
0000
0000
0000
,  // measure 44
0000
0000
0000
0000
,  // measure 45
0010
0000
0000
0000
,  // measure 46
0000
0000
0000
0000
,  // measure 47
0100
0000
0000
0000
,  // measure 48
0000
0000
0000
0000
,  // measure 49
0100
0000
0000
0000
,  // measure 50
0000
0000
0000
0000
,  // measure 51
0010
0000
0000
0000
,  // measure 52
0000
0000
0000
0000
,  // measure 53
0010
0000
0000
0000
,  // measure 54
0000
0000
0000
0000
,  // measure 55
0100
0000
0000
0000
,  // measure 56
0100
0000
0000
0000
,  // measure 57
0100
0000
0000
0000
,  // measure 58
0100
0000
0000
0000
,  // measure 59
1000
0000
0000
0000
,  // measure 60
1000
0000
0000
0000
,  // measure 61
1001
0000
0000
0000
,  // measure 62
0000
0000
0000
0000
,  // measure 63
0001
0000
0000
0000
,  // measure 64
0001
0000
0000
0000
,  // measure 65
1001
0000
0000
0000
,  // measure 66
0000
0000
0000
0000
,  // measure 67
0010
0000
0000
0000
,  // measure 68
0010
0000
0000
0000
,  // measure 69
0100
0000
0000
0000
,  // measure 70
0100
0000
0000
0000
,  // measure 71
1001
0000
0000
0000
,  // measure 72
1001
0000
0000
0000
,  // measure 73
0100
0000
0000
0000
;
