#TITLE:Be with the world;
#SUBTITLE:;
#ARTIST:Photon Maiden;
#TITLETRANSLIT:;
#SUBTITLETRANSLIT:;
#ARTISTTRANSLIT:;
#GENRE:;
#CREDIT:;
#BANNER:Be with the world.png;
#BACKGROUND:Be with the world-BG.png;
#LYRICSPATH:;
#CDTITLE:;
#MUSIC:Be with the world.ogg;
#OFFSET:0.200000;
#SAMPLESTART:37.303020;
#SAMPLELENGTH:12.000000;
#SELECTABLE:YES;
#BPMS:0.000000=128.000000
;
#STOPS:
;
#BGCHANGES:1.000=vol3-24-ntsc.mpg=1.000=0=0=1===CrossFade_Faster==,
49.000=VOL1-41-NTSC.mpg=1.000=0=0=1=====,
81.000=jb_048.mpg=1.000=0=0=1=====,
113.000=739_JumpBack.mpg=1.000=0=0=1=====,
145.000=732_JumpBack.mpg=1.000=0=0=1=====,
177.000=vol3-10-ntsc.mpg=1.000=0=0=1=====,
241.000=vol3-24-ntsc.mpg=1.000=0=0=1=====,
99999=-nosongbg-=1.000=0=0=0 // don't automatically add -songbackground-
;
#KEYSOUNDS:;
#ATTACKS:;

//---------------dance-single - ----------------
#NOTES:
     dance-single:
     :
     Beginner:
     1:
     0.056108,0.072721,0.000000,0.000000,0.000000,48.000000,48.000000,0.000000,0.000000,0.000000,0.000000,0.056108,0.072721,0.000000,0.000000,0.000000,48.000000,48.000000,0.000000,0.000000,0.000000,0.000000:
0000
0000
0000
0000
,
0000
0000
0000
0000
,
0000
0000
0000
0000
,
0000
0000
0000
0000
,
0000
0000
0000
0000
,
0000
0000
0000
0000
,
0000
0000
0000
0000
,
0000
0000
0000
0000
,
0000
0000
0000
0000
,
0000
0000
0000
0000
,
0000
0000
0000
0000
,
0000
0000
0000
0000
,
0000
0001
0000
0000
,
0000
1000
0000
0000
,
0000
0010
0000
0000
,
0000
0010
0000
0000
,
0000
0001
0000
0000
,
0000
1000
0000
0000
,
0000
0100
0000
0000
,
0000
0100
0000
0000
,
0000
1000
0000
0000
,
0000
1000
0000
0000
,
0000
0010
0000
0000
,
0000
0010
0000
0000
,
0000
0001
0000
0000
,
0000
0001
0000
0000
,
0000
0010
0000
0000
,
0000
0010
0000
0000
,
0000
0100
0000
0000
,
0000
0100
0000
0000
,
0000
1000
0000
0000
,
0000
1000
0000
0000
,
0000
0010
0000
0000
,
0000
0010
0000
0000
,
0000
0001
0000
0000
,
0000
0001
0000
0000
,
0000
1000
0000
0000
,
0000
1000
0000
0000
,
0000
0001
0000
0000
,
0000
0001
0000
0000
,
0000
1000
0000
0000
,
0000
1000
0000
0000
,
0000
0001
0000
0000
,
0000
0001
0000
0000
,
0000
0100
0000
0000
,
0000
0100
0000
0000
,
0000
0001
0000
0000
,
0000
0001
0000
0000
,
0000
0010
0000
0000
,
0000
0010
0000
0000
,
0000
1000
0000
0000
,
0000
1000
0000
0000
,
0000
0100
0000
0000
,
0000
0100
0000
0000
,
0000
1000
0000
0000
,
0000
1000
0000
0000
,
0000
0010
0000
0000
,
0000
0010
0000
0000
,
0000
0001
0000
0000
,
0000
0001
0000
0000
;

//---------------dance-single - ----------------
#NOTES:
     dance-single:
     :
     Easy:
     4:
     0.185857,0.220924,0.057277,0.106371,0.000000,159.000000,152.000000,7.000000,13.000000,0.000000,0.000000,0.185857,0.220924,0.057277,0.106371,0.000000,159.000000,152.000000,7.000000,13.000000,0.000000,0.000000:
0000
0000
0000
0000
,
0000
0000
0000
0000
,
0000
0000
0000
0000
,
0000
0000
0000
0000
,
0000
0000
0000
0010
,
0001
0010
0000
0010
,
1000
0010
0000
0010
,
0010
0100
0100
0110
,
0000
0000
0000
0100
,
0001
0100
0000
0100
,
1000
0100
0000
0100
,
0100
0010
0010
0110
,
0000
1000
0000
0001
,
0000
1000
0000
0001
,
0000
1000
0000
1000
,
0000
0001
0000
0001
,
0000
0001
0000
1000
,
0000
0001
0000
1000
,
0000
0001
0000
0001
,
0000
2000
0000
3000
,
0000
1000
0100
1000
,
0000
1000
0010
1000
,
0000
0001
0100
0001
,
0000
0001
0010
0001
,
0000
1000
1000
1000
,
0000
0001
0001
0001
,
0000
2000
3000
0002
,
0003
0010
0010
0010
,
0110
0001
0100
0001
,
0000
1000
0100
1000
,
0000
0001
0010
0001
,
0000
1000
0010
1000
,
0000
0010
1000
0010
,
0000
0010
0001
0010
,
0000
2000
3000
0002
,
0003
0010
0010
0010
,
0110
1000
1000
1000
,
0000
0100
0100
0100
,
0000
0010
0010
0010
,
0000
0001
0001
0001
,
0000
2000
0000
0000
,
3000
0200
0000
0000
,
0300
0022
0000
0000
,
0033
0010
0010
0010
,
0110
1000
0100
1000
,
0000
0100
0001
0100
,
0000
0001
0010
0001
,
0000
0010
1000
0010
,
0000
0100
0100
0100
,
0000
0010
0010
0010
,
0000
2000
3000
0002
,
0003
0010
0010
0010
,
0010
1000
1000
1000
,
0000
1000
0100
1000
,
0000
0001
0001
0001
,
0000
0001
0100
0001
,
0000
0010
0010
0010
,
0000
0100
0100
0100
,
0000
0200
0300
0020
,
0030
0001
0001
0001
,
1001
0000
0000
0000
;

//---------------dance-single - ----------------
#NOTES:
     dance-single:
     :
     Medium:
     9:
     0.275863,0.350819,0.073641,0.114553,0.065459,236.000000,227.000000,9.000000,14.000000,0.000000,0.000000,0.275863,0.350819,0.073641,0.114553,0.065459,236.000000,227.000000,9.000000,14.000000,0.000000,0.000000:
0000
0000
0000
0000
,
0000
0000
0000
0000
,
0000
0000
0000
0000
,
0000
0000
0000
0000
,
0000
0000
0000
0010
,
0001
0000
0100
0100
0100
0000
0010
0000
,
1000
0000
0100
0100
0100
0000
0010
0000
,
0100
1000
1000
0001
,
0001
0000
0000
0100
,
0001
0000
0010
0010
0010
0000
0100
0000
,
1000
0000
0010
0010
0010
0000
0100
0000
,
0010
0001
0001
1000
,
1000
0000
1000
0000
0001
0000
0010
0010
,
0010
0000
0001
0000
1000
0000
0100
0100
,
0100
1000
1000
0001
,
0001
0010
0100
0010
,
0100
0000
1000
0000
0001
0000
0100
0100
,
0100
0000
0001
0000
1000
0000
0010
0010
,
0010
0001
0001
1000
,
1000
0100
0010
0100
,
0010
0000
0000
0000
1000
0000
0000
1000
0000
0000
2000
0000
0000
0000
0000
0000
,
3000
0100
1000
0010
,
0001
0000
0000
0000
0001
0000
0000
0001
0000
0000
0002
0000
0000
0000
0000
0000
,
0003
0100
0001
0010
,
1000
0000
0000
0000
0100
0000
0000
0100
0000
0000
0200
0000
0000
0000
0000
0000
,
0300
1000
0100
0001
,
0010
0000
0000
1000
1000
1000
0000
0001
,
0001
0000
0001
0000
0010
0000
0000
0010
0000
0000
0010
0000
0000
0010
0000
0000
,
0220
0000
0000
0000
,
0330
1000
1000
0100
,
0100
0000
0000
0000
1000
0000
0000
1000
0000
0000
1000
0000
0000
0000
0000
0000
,
0000
0010
0010
0001
,
0001
0000
0000
0000
0001
0000
0000
0001
0000
0000
0001
0000
0000
0000
0000
0000
,
0000
1000
1000
0001
,
0001
0000
0000
1000
1000
1000
0000
0001
,
0001
0000
0001
0000
0010
0000
0000
0010
0000
0000
0010
0000
0000
0010
0000
0000
,
0220
0000
0000
0000
,
0330
1000
1000
1000
,
1100
0100
0100
0100
,
0110
0010
0010
0010
,
0011
2000
0000
3000
,
1100
0020
0000
0030
,
0011
0000
0000
0100
0100
0100
0000
0010
,
0010
0000
0010
0000
0001
0000
0000
0001
0000
0000
0001
0000
0000
0001
0000
0000
,
1001
0010
1000
0100
,
0000
0000
0010
0000
0001
0000
0100
1000
,
0100
0100
1000
0010
,
0000
0000
0100
0000
0001
0000
0010
1000
,
0010
0000
1000
0000
0100
0000
0001
0010
,
0001
0000
1000
0000
0010
0000
0001
0100
,
0001
0000
0001
0000
0010
0000
1000
0100
,
1000
0000
0001
0000
0100
0000
1000
0010
,
1000
0000
0000
0000
1000
0000
0000
1000
0000
0000
2000
0000
0000
0000
0000
0000
,
3000
0000
1000
0000
0100
0000
0001
0010
,
0001
0000
0000
0000
0001
0000
0000
0001
0000
0000
0002
0000
0000
0000
0000
0000
,
0003
0000
0001
0000
0010
0000
1000
0100
,
1000
0000
0000
0000
0010
0000
0000
0010
0000
0000
0020
0000
0000
0000
0000
0000
,
0030
0000
0100
0000
1000
0000
0010
0001
,
0010
0000
0000
0100
1000
0100
0000
0010
,
0001
0000
0010
0000
0010
0000
0000
0010
0000
0000
0010
0000
0000
0010
0000
0000
,
0220
0000
0000
0000
,
0000
0330
0000
0000
;

//---------------dance-single - ----------------
#NOTES:
     dance-single:
     :
     Hard:
     13:
     0.420808,0.525717,0.400936,0.351842,0.216833,360.000000,311.000000,49.000000,43.000000,0.000000,0.000000,0.420808,0.525717,0.400936,0.351842,0.216833,360.000000,311.000000,49.000000,43.000000,0.000000,0.000000:
// measure 0
0000
0000
0000
0000
,  // measure 1
0000
0000
0000
0000
,  // measure 2
0000
0000
0000
0000
,  // measure 3
0000
0000
0000
0000
,  // measure 4
0000
0000
0000
0000
0000
0000
1000
0100
,  // measure 5
0010
0000
0100
0000
0001
0000
0000
0001
0000
0000
0000
0000
0001
0000
0100
0000
,  // measure 6
0010
0000
0100
0000
1000
0000
0000
1000
0000
0000
0000
0000
0100
0000
1000
0000
,  // measure 7
0001
0000
1000
0000
0010
0000
0000
0010
0000
0000
0100
0000
0000
0100
0000
0000
,  // measure 8
1000
0002
0000
0003
0000
0000
0001
0010
,  // measure 9
0100
0000
0010
0000
1000
0000
0000
1000
0000
0000
0000
0000
1000
0000
0010
0000
,  // measure 10
0100
0000
0010
0000
0001
0000
0000
0001
0000
0000
0000
0000
0100
0000
0001
0000
,  // measure 11
1000
0000
0001
0000
0010
0000
0000
0002
0000
0000
0000
0000
0000
0000
0003
0000
,  // measure 12
0000
0000
1000
0000
0001
0000
0000
0001
0000
0000
0001
0000
1000
0000
0000
1000
,  // measure 13
0000
0000
1000
0000
0001
0000
0000
0001
0000
0000
0001
0000
0100
0000
0000
0000
,  // measure 14
0200
0000
0000
0000
0300
0000
1000
0100
1000
0000
0000
0000
0001
0100
0001
0000
,  // measure 15
0000
0000
0010
0100
0010
0000
0000
0000
1000
0010
0002
0000
0000
0000
0000
0000
,  // measure 16
0003
0000
0001
0000
1000
0000
0000
1000
0000
0000
1000
0000
0001
0000
0000
0001
,  // measure 17
0000
0000
0001
0000
1000
0000
0000
1000
0000
0000
1000
0000
0001
0000
0000
0000
,  // measure 18
0002
0000
0000
0000
0003
0000
1000
0010
1000
0000
0000
0000
0001
0010
0001
0000
,  // measure 19
0000
0000
0100
0010
0200
0000
0000
0000
0000
0000
0000
0000
0300
0000
0000
0000
,  // measure 20
0020
0000
0000
0000
1030
0000
0000
0011
0000
0000
2020
0000
0000
0000
0000
0000
,  // measure 21
3030
0000
1000
0000
1000
0000
0000
1000
0000
0000
0010
0000
1000
0000
1000
0000
,  // measure 22
2000
0000
0000
0000
3100
0000
0000
0101
0000
0000
2200
0000
0000
0000
0000
0000
,  // measure 23
3300
0000
0001
0000
0001
0000
0000
0001
0000
0000
0022
0000
0000
0000
0033
0000
,  // measure 24
0020
0000
0000
0000
1030
0000
0000
0011
0000
0000
2020
0000
0000
0000
0000
0000
,  // measure 25
3030
0000
0001
0000
0001
0000
0000
0001
0000
0000
0010
0000
0001
0000
0001
0000
,  // measure 26
0002
0000
0003
1000
0100
0001
0000
1000
,  // measure 27
0010
0000
0001
0000
1100
0000
0000
0101
0000
0000
1010
0000
0000
0011
0000
0000
,  // measure 28
2002
0000
0000
0000
,  // measure 29
0000
0000
3003
0000
1000
0000
0000
1000
0000
0000
0100
0000
0001
0000
0010
0000
,  // measure 30
1000
0000
0000
0000
1100
0000
0000
1010
0000
0000
2200
0000
0000
0000
3300
0000
,  // measure 31
0100
0000
0010
0000
0101
0000
0000
1100
0000
0000
0202
0000
0000
0000
0303
0000
,  // measure 32
0100
0000
0010
0000
0101
0000
0000
0011
0000
0000
0202
0000
0000
0000
0303
0000
,  // measure 33
0100
0000
0010
0000
0001
0000
0000
0001
0000
0000
0100
0000
1000
0000
0010
0000
,  // measure 34
0001
0000
0000
1000
0010
0001
0000
1000
,  // measure 35
0100
0000
0001
0000
1100
0000
0000
1010
0000
0000
0101
0000
0000
0011
0000
0000
,  // measure 36
2002
0000
0000
0000
,  // measure 37
0000
3003
1000
0100
1000
0100
1000
0100
,  // measure 38
1100
0000
0100
0010
0100
0010
0100
0010
,  // measure 39
0110
0000
0010
0001
0010
0001
0010
0001
,  // measure 40
0011
0000
1000
1000
1000
1000
1000
1000
,  // measure 41
1000
1000
0100
0100
0100
0100
0100
0100
,  // measure 42
0100
0100
0010
0001
0010
0001
0010
0001
,  // measure 43
0010
0000
0001
0000
1100
0000
0000
0101
0000
0000
0011
0000
0000
1010
0000
0000
,  // measure 44
1001
0000
0000
0000
1000
0000
0000
1000
0000
0000
2000
0000
0000
0000
3000
0000
,  // measure 45
0100
0000
0010
0000
0001
0000
0000
0001
0000
0000
1000
0000
0001
0000
1000
0000
,  // measure 46
0012
0000
0000
0000
1003
0000
0000
1000
0000
0000
2000
0000
0000
0000
3000
0000
,  // measure 47
0100
0000
0010
0000
0001
0000
0000
0001
0000
0000
0102
0000
0000
0000
0003
0000
,  // measure 48
0010
0000
0100
0000
1000
0000
0000
1000
0000
0000
2000
0000
0000
0000
3000
0000
,  // measure 49
0100
0000
0010
0000
0001
0000
0000
0001
0000
0000
0100
0000
0010
0000
0100
0000
,  // measure 50
1020
0000
0030
1000
0010
0001
0000
1000
,  // measure 51
0100
0000
0001
0000
0011
0000
0000
1010
0000
0000
1100
0000
0000
0101
0000
0000
,  // measure 52
1001
0000
0000
0000
0100
0000
0000
0100
0000
0000
0200
0000
0000
0000
0300
0000
,  // measure 53
1000
0000
0001
0000
0010
0000
0000
0010
0000
0000
0001
0000
1000
0000
0001
0000
,  // measure 54
2100
0000
0000
0000
3010
0000
0000
0010
0000
0000
0020
0000
0000
0000
0030
0000
,  // measure 55
1000
0000
0001
0000
0100
0000
0000
0100
0000
0000
0202
0000
0000
0000
0000
0000
,  // measure 56
0303
0000
0000
0000
0001
0000
0000
0001
0000
0000
0002
0000
0000
0000
0003
0000
,  // measure 57
0100
0000
0010
0000
1000
0000
0000
1000
0000
0000
0001
0000
1000
0000
0001
0000
,  // measure 58
2000
0000
3001
0001
0010
1000
0000
0001
,  // measure 59
0100
0000
1000
0000
0110
0000
0000
1001
0000
0000
0011
0000
0000
1010
0000
0000
,  // measure 60
0220
0000
0000
0000
,  // measure 61
0000
0330
0001
0000
0001
0000
0001
0000
,  // measure 62
0001
0100
0100
0100
,  // measure 63
0100
1000
1000
1000
,  // measure 64
1000
0010
0000
0000
;
