#VERSION:0.83;
#TITLE:BOOM-BOOM SHAKE!;
#SUBTITLE:;
#ARTIST:Merm4id;
#TITLETRANSLIT:;
#SUBTITLETRANSLIT:;
#ARTISTTRANSLIT:;
#GENRE:;
#ORIGIN:;
#TAGS:;
#CREDIT:;
#BANNER:BOOM-BOOM SHAKE!.png;
#BACKGROUND:BOOM-BOOM SHAKE!-bg.png;
#PREVIEWVID:;
#JACKET:BOOM-BOOM SHAKE!-jacket.png;
#CDIMAGE:;
#DISCIMAGE:;
#LYRICSPATH:;
#CDTITLE:;
#MUSIC:BOOM-BOOM SHAKE!.ogg;
#OFFSET:0.000000;
#SAMPLESTART:82.285233;
#SAMPLELENGTH:12.000000;
#SELECTABLE:YES;
#BPMS:0.000000=140.000000;
#STOPS:;
#DELAYS:;
#WARPS:;
#TIMESIGNATURES:0.000000=4=4;
#TICKCOUNTS:0.000000=4;
#COMBOS:0.000000=1;
#SPEEDS:0.000000=1.000000=0.000000=0;
#SCROLLS:0.000000=1.000000;
#FAKES:;
#LABELS:0.000000=Song Start;
#BGCHANGES:0.000=052_JumpBack_NTSC_DV.avi=1.000=0=0=1===CrossFade_Fastest==,
32.000=vol4-15-ntsc.mpg=1.000=0=0=1=====,
64.000=701_JumpBack.avi=1.000=0=0=1=====,
96.000=vol3-24-ntsc.mpg=1.000=0=0=1=====,
128.000=682_JumpBack.mpg=1.000=0=0=1=====,
160.000=730_JumpBack.mpg=1.000=0=0=1=====,
188.000=countdown.mp4=0.800=0=0=1=====,
192.000=714_JumpBack.mpg=1.000=0=0=1=====,
256.000=EV01455N.mpg=1.000=0=0=1=====,
99999=-nosongbg-=1.000=0=0=0 // don't automatically add -songbackground-
;
#KEYSOUNDS:;
#ATTACKS:
;

//---------------dance-single - ----------------
#NOTEDATA:;
#CHARTNAME:;
#CHARTHASH:652309625;
#STEPSTYPE:dance-single;
#BANNER:;
#DESCRIPTION:;
#CHARTSTYLE:;
#DIFFICULTY:Easy;
#METER:4;
#METERF:4.000000;
#RADARVALUES:0.250145,0.346803,0.212502,0.085001,0.000000,206.000000,181.000000,25.000000,10.000000,0.000000,0.000000,0.000000,0.000000,0.000000,0.250145,0.346803,0.212502,0.085001,0.000000,206.000000,181.000000,25.000000,10.000000,0.000000,0.000000,0.000000,0.000000,0.000000;
#CREDIT:;
#NOTES:
0000
0000
0000
0000
,
0000
0000
0000
0000
,
0000
0000
0000
0000
,
0000
0000
0000
0000
,
0100
0100
0010
0000
,
0001
1000
0001
1000
,
0010
0010
0001
0000
,
0100
1000
0100
1000
,
0100
0100
1000
1000
,
0100
0100
0001
0001
,
0100
0100
0010
0010
,
0100
0100
1000
0001
,
0010
0010
1000
1000
,
0010
0010
0001
0001
,
0010
0010
0100
0100
,
0110
0000
0000
0110
,
0001
0000
0001
0001
,
1000
0000
1001
0000
,
0010
0000
0100
0100
,
0010
0010
0110
0000
,
1000
0000
0001
0001
,
1000
1000
1001
0000
,
1100
0000
0110
0000
,
0011
0000
1001
0000
,
0020
0000
0000
0000
,
0000
0000
0000
0000
,
2030
0000
0000
0000
,
0000
0000
0000
0000
,
3200
0000
0000
0000
,
0000
0000
0000
0000
,
0302
0000
0000
0000
,
0000
0000
0000
0003
,
0010
0010
0010
0010
,
0001
0001
0110
0110
,
0100
0100
0100
0100
,
1000
1000
1001
1001
,
1000
1000
1000
1000
,
0100
0100
0100
0100
,
0011
0000
0110
0000
,
2200
0000
0000
3300
,
1000
1000
1000
1000
,
0100
0100
0100
0100
,
0010
0010
0010
0010
,
0001
0001
0001
0001
,
2000
0000
0000
3000
,
0200
0000
0000
0300
,
0020
0000
0000
0000
,
0031
0001
0001
0001
,
1000
1000
1100
0000
,
0001
0001
0101
0000
,
1000
0001
1000
0001
,
0001
0001
0001
0000
,
1000
1000
1010
0000
,
0001
0001
0011
0000
,
0100
0010
0100
0010
,
0010
0010
0010
0000
,
0100
0100
1100
0000
,
0010
0010
1010
0000
,
1000
0001
1000
0001
,
0001
0001
0001
0000
,
0100
0100
0101
0000
,
0010
0010
0011
0000
,
0100
0010
0100
0010
,
0010
0010
0010
0110
,
1000
0000
0001
0000
,
0001
0000
0100
0000
,
1000
0000
0100
0000
,
0001
0010
0200
0000
,
0300
0000
0000
0000
;

//---------------dance-single - ----------------
#NOTEDATA:;
#CHARTNAME:;
#CHARTHASH:863579805;
#STEPSTYPE:dance-single;
#BANNER:;
#DESCRIPTION:;
#CHARTSTYLE:;
#DIFFICULTY:Medium;
#METER:10;
#METERF:10.000000;
#RADARVALUES:0.399504,0.491304,0.620506,0.093501,0.000000,329.000000,256.000000,73.000000,11.000000,0.000000,0.000000,0.000000,0.000000,0.000000,0.399504,0.491304,0.620506,0.093501,0.000000,329.000000,256.000000,73.000000,11.000000,0.000000,0.000000,0.000000,0.000000,0.000000;
#CREDIT:;
#NOTES:
0000
0000
0000
0000
,
0000
0000
0000
0000
,
0000
0000
0000
0000
,
0000
0000
0000
0000
,
0100
0000
0100
0010
0010
0000
0000
0000
,
1000
0001
1000
0010
0100
0000
0000
0000
,
0010
0000
0010
0100
0100
0000
0000
0000
,
0001
1000
0001
0100
0010
0000
0000
0000
,
1000
0001
0001
0000
0010
0000
0010
0000
,
0100
0001
0001
0000
0100
0000
0100
0000
,
0010
0001
0001
0000
1000
0000
1000
0000
,
0001
0001
0001
0000
0001
0100
0001
0100
,
0001
1000
1000
0000
0100
0000
0100
0000
,
0010
1000
1000
0000
0001
0000
0001
0000
,
0100
1000
1000
0000
0010
0000
0010
0000
,
1000
1000
1000
0000
0010
0000
0110
0000
,
1000
0000
1000
0001
0110
0000
1001
0000
,
0001
0000
0001
1000
0011
0000
1100
0000
,
0100
0000
0100
0010
1001
0000
0110
0000
,
0010
0000
0010
0100
1010
0000
0101
0000
,
1000
0000
1000
0100
0011
0000
1010
0000
,
1100
0000
0101
0000
0000
1000
0100
1000
,
0000
0100
0010
0100
0000
0010
0001
0020
,
0000
0000
0000
0130
,
2000
0000
0000
0000
,
3200
0000
0000
0000
,
0320
0000
0000
0000
,
0032
0000
0000
0000
,
0203
0000
0000
0000
,
2300
0000
0000
0000
,
3020
0000
0000
0000
,
0032
0000
0000
0000
,
1003
1001
0001
1001
,
1000
0010
1000
0000
0001
0010
0001
0000
,
0001
1001
1000
1001
,
1000
0100
1000
0000
0001
0100
0001
0000
,
1000
1100
0001
0101
,
0001
0100
1000
0000
1000
0100
0001
0000
,
1000
1010
0001
0011
,
1000
0010
0001
0000
0001
0010
1000
0000
,
1000
1100
1010
1001
,
0001
0011
0101
1001
,
1000
1001
1010
1100
,
0001
1001
0101
0011
,
1000
1000
1000
1000
1000
1000
1000
1000
,
0100
0100
0100
0100
0100
0100
0100
0100
,
0020
0000
0000
0000
,
0031
0000
0000
1001
,
1100
0101
1100
0000
,
1010
0011
1010
0000
,
1000
0001
1000
1001
,
1100
1100
0101
0101
,
0011
1010
0011
0000
,
0101
1100
0101
0000
,
0010
0100
0010
0110
,
0001
0000
0001
0000
1000
1000
0001
0000
,
1010
1100
1010
0000
,
0011
0101
0011
0000
,
0001
1000
0001
1001
,
0011
0011
1010
1010
,
1100
1010
1100
0000
,
0101
0011
0101
0000
,
0100
0010
0100
0110
,
0001
0000
0001
0000
1000
1000
0001
0000
,
1000
0100
1000
0100
0000
0000
1100
0000
,
0100
0010
0100
0010
0000
0000
0110
0000
,
0010
0001
0010
0001
0000
0000
0011
0000
,
0001
0001
2000
0000
,
3000
0000
0000
0000
;

//---------------dance-single - ----------------
#NOTEDATA:;
#CHARTNAME:;
#CHARTHASH:4088825209;
#STEPSTYPE:dance-single;
#BANNER:;
#DESCRIPTION:;
#CHARTSTYLE:;
#DIFFICULTY:Hard;
#METER:12;
#METERF:12.000000;
#RADARVALUES:0.409218,0.520205,0.280503,0.450504,0.119001,337.000000,304.000000,33.000000,53.000000,0.000000,0.000000,0.000000,0.000000,0.000000,0.409218,0.520205,0.280503,0.450504,0.119001,337.000000,304.000000,33.000000,53.000000,0.000000,0.000000,0.000000,0.000000,0.000000;
#CREDIT:;
#NOTES:
0000
0000
0000
0000
,
0000
0000
0000
0000
,
0000
0000
0000
0000
,
0000
0000
0000
0000
0000
0000
0000
0010
,
0010
0000
0000
0000
0001
0000
1000
0000
0100
0000
0000
0100
0000
0000
0010
0000
,
1000
0001
1000
0010
0200
0000
0300
0000
,
0010
0000
0000
0000
0100
0000
0001
0000
1000
0000
0000
1000
0000
0000
0010
0000
,
0100
0010
0010
0001
0200
0000
0310
0000
,
1000
0000
0010
0000
0010
0000
0000
0000
0010
0000
0000
0010
0000
0000
1001
0000
,
0000
0000
0100
0000
0100
0000
0000
0000
0010
0000
0000
0001
0000
0000
0110
0000
,
0000
0000
0010
0000
0010
0000
0000
0000
0001
0000
0000
1000
0000
0000
1100
0000
,
0000
1000
1000
0000
0001
1000
0010
0001
,
0100
0000
1000
0000
1000
0000
0000
0000
1000
0000
0000
0010
0000
0000
0101
0000
,
0000
0000
0001
0000
0001
0000
0000
0000
1000
0000
0000
1000
0000
0000
1010
0000
,
0000
0000
0100
0000
0100
0000
0000
0000
0010
0000
0000
1000
0000
0000
1001
0000
,
0000
0001
0001
0000
0010
0100
1001
0000
,
0001
0000
0010
0200
0000
1300
0000
0001
,
0000
0010
0100
0000
1100
0000
0000
0000
,
0010
0000
0100
2000
0000
3001
0000
0010
,
0000
0010
0100
0000
2020
0000
3030
0000
,
1000
0000
1000
2000
0000
3001
0000
0010
,
0000
1000
2000
0000
3001
0100
0001
0010
,
0000
1000
0001
0010
0000
0001
1000
0010
,
0000
0010
0010
0010
0220
0000
0330
0000
,
0020
0000
0000
0032
0000
0000
0000
0000
,
2003
0000
0000
3000
,
2000
0000
3020
2030
0000
3020
0000
0032
,
0000
0003
0000
0000
,
0200
0000
0000
0302
0000
0000
0000
0203
,
0000
0000
0000
0000
0300
1000
0010
0000
,
0020
0000
0000
0000
0032
0000
0000
2003
,
0000
0000
0000
0000
0000
3000
0110
0010
,
0010
0000
0010
0001
0000
0010
0000
0002
,
0000
0000
0003
0000
0010
0000
0110
0001
,
0001
0000
1000
0010
0000
1000
0000
2000
,
0000
3000
0001
1001
,
0100
0000
0001
1000
0000
1000
0000
0200
,
0000
0000
0300
0000
0000
0010
0100
0002
,
0000
1003
0010
0002
0000
2003
0000
3200
,
0000
0000
0000
0300
,
1000
0100
1000
0100
1000
0100
1100
0000
,
0100
0010
0100
0010
0100
0010
0110
0000
,
0010
0001
0010
0001
0010
0001
0011
0000
,
0100
1000
0100
1000
0100
1000
1100
0000
,
1000
0001
1000
0001
1000
0001
1001
0000
,
0010
0010
0010
0010
0010
0010
0010
0010
,
0020
0000
0000
0000
,
1030
0000
0100
0000
0010
0001
1001
0000
,
1000
0000
0000
1000
0000
0000
0010
0000
0010
0000
0022
0000
0033
0000
0000
0000
,
0010
0000
0000
0010
0000
0000
0010
0000
2020
0000
0000
0000
3030
0000
0000
0000
,
0010
0000
0000
0001
0000
0000
0010
0000
0000
0000
0011
0000
0000
0000
0000
0000
,
0001
0000
0000
0001
0000
0000
0001
0000
1000
0000
1000
0000
1001
0000
0000
0000
,
0001
0000
0000
0001
0000
0000
0001
0000
0001
0000
0022
0000
0033
0000
0000
0000
,
0100
0000
0000
0100
0000
0000
0100
0000
1000
0000
2200
0000
3300
0000
0000
0000
,
0010
0000
0000
0010
0000
0000
0020
0000
0000
0000
0130
0000
0000
0000
0000
0000
,
0001
0100
0000
0000
0001
0100
0000
0000
1000
0000
1000
0000
1001
0000
0000
0000
,
0100
0000
0000
0100
0000
0000
0100
0000
1000
0000
2020
0000
3030
0000
0000
0000
,
0001
0000
0000
0001
0000
0000
0001
0000
0022
0000
0000
0000
0033
0000
0000
0000
,
0010
0000
0000
1000
0000
0000
0020
0000
0000
0000
1030
0000
0000
0000
0000
0000
,
0001
0000
0000
0001
0000
0000
0001
0000
1000
0000
1000
0000
1001
0000
0000
0000
,
0010
0000
0000
0010
0000
0000
0010
0000
0010
0000
0202
0000
0303
0000
0000
0000
,
1000
0000
0000
1000
0000
0000
1000
0000
0010
0000
2200
0000
3300
0000
0000
0000
,
0010
0000
0000
0100
0000
0000
0020
0000
0000
0000
0130
0000
0000
0000
0000
0000
,
0001
0010
0000
0000
0001
0100
0000
0000
1000
0000
1000
0000
1001
0000
0000
0000
,
0100
0100
0100
0001
0000
1000
0001
0000
,
0010
0010
0010
1000
0000
0001
1000
0000
,
0010
0010
0010
0001
0000
1000
0001
0000
,
0001
0100
0000
0000
0001
0010
0000
0000
1200
0000
1000
0000
2000
0000
0000
0000
,
3300
0000
0000
0000
;

//---------------dance-single - ----------------
#NOTEDATA:;
#CHARTNAME:;
#CHARTHASH:97180409;
#STEPSTYPE:dance-single;
#BANNER:;
#DESCRIPTION:;
#CHARTSTYLE:;
#DIFFICULTY:Beginner;
#METER:1;
#METERF:0.000000;
#RADARVALUES:0.108072,0.170852,0.076501,0.000000,0.000000,89.000000,80.000000,9.000000,0.000000,0.000000,0.000000,0.000000,0.000000,0.000000,0.108072,0.170852,0.076501,0.000000,0.000000,89.000000,80.000000,9.000000,0.000000,0.000000,0.000000,0.000000,0.000000,0.000000;
#CREDIT:;
#NOTES:
// measure 0
0000
0000
0000
0000
,  // measure 1
0000
0000
0000
0000
,  // measure 2
0000
0000
0000
0000
,  // measure 3
0000
0000
0000
0000
,  // measure 4
0000
0000
0000
0000
,  // measure 5
0000
0000
0000
0000
,  // measure 6
0000
0000
0000
0000
,  // measure 7
0000
0000
0000
0000
,  // measure 8
0100
0000
0000
0000
,  // measure 9
0100
0000
0000
0000
,  // measure 10
1000
0000
0000
0000
,  // measure 11
1000
0000
0000
0000
,  // measure 12
0010
0000
0000
0000
,  // measure 13
0010
0000
0000
0000
,  // measure 14
0001
0000
0000
0000
,  // measure 15
0001
0000
0000
1001
,  // measure 16
0000
0000
0000
0000
,  // measure 17
1000
0000
0000
0000
,  // measure 18
0100
0000
0000
0000
,  // measure 19
0100
0000
0000
0000
,  // measure 20
0010
0000
0000
0000
,  // measure 21
0010
0000
0000
0000
,  // measure 22
0001
0000
0001
0000
,  // measure 23
0001
0000
0000
1001
,  // measure 24
0000
0000
0000
0000
,  // measure 25
1000
0000
0000
0000
,  // measure 26
0000
0000
0000
0000
,  // measure 27
0001
0000
0000
0000
,  // measure 28
0000
0000
0000
0000
,  // measure 29
1000
0000
0000
0000
,  // measure 30
0000
0000
0000
0000
,  // measure 31
0001
0000
0000
0000
,  // measure 32
0010
0000
0010
0000
,  // measure 33
0100
0000
0010
0000
,  // measure 34
0010
0000
0010
0000
,  // measure 35
1000
0000
0010
0000
,  // measure 36
0100
0000
0100
0000
,  // measure 37
0100
0000
0100
0000
,  // measure 38
1000
0000
0001
0000
,  // measure 39
1001
0000
0000
0000
,  // measure 40
1000
0000
0000
0000
,  // measure 41
1000
0000
0000
0000
,  // measure 42
0100
0000
0000
0000
,  // measure 43
0100
0000
0000
0000
,  // measure 44
0010
0000
0000
0000
,  // measure 45
0010
0000
0000
0000
,  // measure 46
0001
0000
0000
0000
,  // measure 47
0001
0000
0000
1001
,  // measure 48
0000
0000
0001
0000
,  // measure 49
1000
0000
0001
0000
,  // measure 50
1000
0000
0001
0000
,  // measure 51
0001
0000
1001
0000
,  // measure 52
0100
0000
0010
0000
,  // measure 53
0100
0000
0010
0000
,  // measure 54
0100
0000
0010
0000
,  // measure 55
0010
0000
0110
0000
,  // measure 56
1000
0000
0001
0000
,  // measure 57
1000
0000
0001
0000
,  // measure 58
1000
0000
0001
0000
,  // measure 59
0001
0000
1001
0000
,  // measure 60
0100
0000
0010
0000
,  // measure 61
0100
0000
0010
0000
,  // measure 62
0100
0000
0010
0000
,  // measure 63
0010
0000
0000
0110
,  // measure 64
0000
0000
0000
0000
,  // measure 65
0001
0000
0000
0000
,  // measure 66
0010
0000
0000
0000
,  // measure 67
1100
0000
0000
0000
;
