#VERSION:0.83;
#TITLE:Around and Around;
#SUBTITLE:(SC-Special);
#ARTIST:D4DJ All Stars;
#TITLETRANSLIT:;
#SUBTITLETRANSLIT:;
#ARTISTTRANSLIT:;
#GENRE:;
#ORIGIN:;
#TAGS:;
#CREDIT:;
#BANNER:Around and Around.png;
#BACKGROUND:Around and Around-BG.png;
#PREVIEWVID:;
#JACKET:Around and Around-Jacket.png;
#CDIMAGE:;
#DISCIMAGE:;
#LYRICSPATH:;
#CDTITLE:;
#MUSIC:Around and Around.ogg;
#OFFSET:-0.420000;
#SAMPLESTART:134.963196;
#SAMPLELENGTH:12.000000;
#SELECTABLE:YES;
#BPMS:0.000000=128.000000;
#STOPS:;
#DELAYS:;
#WARPS:;
#TIMESIGNATURES:0.000000=4=4;
#TICKCOUNTS:0.000000=4;
#COMBOS:0.000000=1;
#SPEEDS:0.000000=1.000000=0.000000=0;
#SCROLLS:0.000000=1.000000;
#FAKES:;
#LABELS:0.000000=Song Start;
#BGCHANGES:0.000=920_JumpBack.mpg=1.000=0=0=1===CrossFade_Faster==,
16.000=686_JumpBack.mpg=1.000=0=0=1=====,
48.000=VOL1-10-NTSC.mpg=1.000=0=0=1=====,
80.000=VOL1-16-NTSC.mpg=1.000=0=0=1=====,
112.000=VOL1-05-NTSC.mpg=1.000=0=0=1=====,
116.000=VOL1-12-NTSC.mpg=1.000=0=0=1=====,
120.000=VOL1-19-NTSC.mpg=1.000=0=0=1=====,
124.000=VOL1-30-NTSC.mpg=1.000=0=0=1=====,
128.000=VOL1-06-NTSC.mpg=1.000=0=0=1=====,
160.000=puppet.mp4=1.000=0=0=1=====,
192.000=vol3-24-ntsc.mpg=1.000=0=0=1=====,
224.000=VOL1-08-NTSC.mpg=1.000=0=0=1=====,
240.000=VOL1-11-NTSC.mpg=1.000=0=0=1=====,
256.000=VOL1-30-NTSC.mpg=1.000=0=0=1=====,
264.000=VOL1-19-NTSC.mpg=1.000=0=0=1=====,
272.000=VOL1-12-NTSC.mpg=1.000=0=0=1=====,
280.000=VOL1-05-NTSC.mpg=1.000=0=0=1=====,
288.000=VOL1-06-NTSC.mpg=1.000=0=0=1=====,
320.000=puppet.mp4=1.000=0=0=1=====,
350.000=T.mp4=1.000=0=0=0=StretchNoLoop==CrossFade_Fastest==,
99999.000=-nosongbg-=1.000=0=0=0=StretchNoLoop====,
99999=-nosongbg-=1.000=0=0=0 // don't automatically add -songbackground-
;
#KEYSOUNDS:;
#ATTACKS:
;

//---------------dance-single - ----------------
#NOTEDATA:;
#CHARTNAME:;
#CHARTHASH:4279833356;
#STEPSTYPE:dance-single;
#BANNER:;
#DESCRIPTION:;
#CHARTSTYLE:;
#DIFFICULTY:Challenge;
#METER:12;
#METERF:12.000000;
#RADARVALUES:0.417980,0.532986,0.148289,0.188213,0.094107,513.000000,487.000000,26.000000,33.000000,0.000000,0.000000,0.000000,0.000000,0.000000,0.417980,0.532986,0.148289,0.188213,0.094107,513.000000,487.000000,26.000000,33.000000,0.000000,0.000000,0.000000,0.000000,0.000000;
#CREDIT:;
#NOTES:
// measure 0
0000
0000
0000
0000
,  // measure 1
0000
0000
0000
0000
,  // measure 2
0000
0000
0000
0000
,  // measure 3
0000
0000
0000
0000
,  // measure 4
0010
0000
0010
0000
0001
1000
0000
0010
0000
0000
1000
0001
1000
0000
0000
0000
,  // measure 5
1000
0100
1000
0000
0001
0100
0001
0000
1000
0001
1000
0000
0001
1000
0001
0000
,  // measure 6
0100
0000
0100
0000
1000
0001
0000
0100
0000
0000
0001
1000
0001
0000
0000
0000
,  // measure 7
0001
0010
0001
0000
1000
0010
1000
0000
0001
1000
0001
0000
1000
0001
1000
0000
,  // measure 8
0010
0000
0010
0000
0001
1000
0000
0100
0000
0000
1000
0001
1000
0000
0000
0000
,  // measure 9
1000
0100
1000
0000
0001
0010
0001
0000
1000
0001
1000
0000
0001
1000
0001
0000
,  // measure 10
0100
0000
0100
0000
1000
0001
0000
0010
0000
0000
0001
1000
0001
0000
0000
0000
,  // measure 11
1000
1000
1000
1000
,  // measure 12
0001
0000
0001
0000
1000
0000
1000
1000
,  // measure 13
0001
0000
0001
0000
1000
0000
0100
0100
,  // measure 14
0001
0000
0001
0000
1000
0000
0010
0010
,  // measure 15
0001
0000
0001
0000
1000
0000
0010
0100
,  // measure 16
0110
0001
0100
0001
0100
0001
0100
0001
,  // measure 17
0100
1000
0100
1000
0100
1000
0100
1000
,  // measure 18
0001
0100
1000
0100
0011
0000
0110
0000
,  // measure 19
1100
0000
2000
0200
0000
0000
0000
0000
0000
0000
0000
0000
3300
0000
0000
0000
,  // measure 20
0001
0010
1000
0000
1000
0000
1000
0100
,  // measure 21
0001
0100
1000
0000
1000
0000
1000
0010
,  // measure 22
0001
1000
0100
0000
1000
0001
0100
0000
,  // measure 23
0010
0001
0100
0000
0100
1000
0010
0000
,  // measure 24
1000
0010
0001
0000
0001
0000
0001
0010
,  // measure 25
1000
0100
0001
0000
0001
0000
0001
0100
,  // measure 26
1000
0001
0100
0000
0001
1000
0100
0000
,  // measure 27
0010
1000
0100
0000
0100
0001
0010
0000
,  // measure 28
0020
1000
0100
0031
,  // measure 29
0200
0001
0010
1300
,  // measure 30
2000
3010
0020
0031
,  // measure 31
2002
0000
3003
0000
,  // measure 32
0001
0010
0100
0001
1000
0100
0010
1000
,  // measure 33
1000
0100
1000
0000
0001
0100
0001
0000
1010
0000
0202
0000
0000
0000
0303
0000
,  // measure 34
0010
1000
0100
0000
0010
0001
0100
0000
,  // measure 35
1000
0010
0001
0000
0001
0010
1000
0000
,  // measure 36
1000
0010
0100
1000
0001
0100
0010
0001
,  // measure 37
1000
0010
1000
0000
0001
0010
0001
0000
0011
0000
2200
0000
0000
0000
3300
0000
,  // measure 38
0001
0010
1000
0000
0001
0100
1000
0000
,  // measure 39
0010
1000
0100
0000
0100
1000
0010
0000
,  // measure 40
0001
0010
0100
0001
1000
0100
0010
1000
,  // measure 41
0001
0100
1000
0000
1000
0100
0001
0000
,  // measure 42
1000
0010
0100
1000
0001
0100
0010
0001
,  // measure 43
1000
0010
0001
0000
0001
0010
1000
0000
,  // measure 44
0001
0010
0100
0001
1000
0100
0010
1000
,  // measure 45
0010
1000
0100
0000
0100
0001
0010
0000
,  // measure 46
1000
0010
0100
1000
0001
0100
0010
0001
,  // measure 47
0010
0001
0100
0000
0100
1000
0010
0000
,  // measure 48
0220
0000
0000
0300
,  // measure 49
2000
0000
0000
0030
,  // measure 50
0200
0000
0000
3000
,  // measure 51
0020
0000
0000
0300
,  // measure 52
2000
0000
0000
0030
,  // measure 53
0002
0000
0000
3000
,  // measure 54
0200
0000
0000
0003
,  // measure 55
0020
0000
0000
0330
,  // measure 56
0010
0000
0000
0010
1100
0000
0000
0000
,  // measure 57
0100
0000
0000
0100
1010
0000
0000
0000
,  // measure 58
0010
0000
0000
0010
0101
0000
0000
0000
,  // measure 59
0100
0000
0000
0100
0011
0000
0000
0000
,  // measure 60
0001
0000
0000
0001
1100
0000
0000
0000
,  // measure 61
1000
0000
0000
1000
0101
0000
0000
0000
,  // measure 62
0001
0000
0000
0001
1010
0000
0000
0000
,  // measure 63
1000
1000
1000
0011
,  // measure 64
0020
0000
1000
0000
0100
0000
0031
0100
,  // measure 65
0200
0000
0001
0000
0010
0000
1300
0010
,  // measure 66
0020
0000
1000
0000
0001
0000
0130
0100
,  // measure 67
0200
0000
0001
0000
1000
0000
0310
0010
,  // measure 68
0200
2000
3300
1100
,  // measure 69
2000
0020
3030
1010
,  // measure 70
0001
0010
0001
0010
0001
0010
0001
0010
,  // measure 71
0001
0100
0001
0100
0101
0000
0000
0000
,  // measure 72
0001
0010
0100
0001
1000
0100
0010
1000
,  // measure 73
0001
0010
0001
0000
0001
0100
0001
0000
1100
0000
2020
0000
0000
0000
3030
0000
,  // measure 74
1000
0010
0001
0000
0100
1000
0010
0000
,  // measure 75
0001
0010
1000
0000
0010
0001
0100
0000
,  // measure 76
1000
0010
0100
1000
0001
0100
0010
0001
,  // measure 77
1000
0100
1000
0000
1000
0010
1000
0000
0101
0000
0022
0000
0000
0000
0033
0000
,  // measure 78
0001
0100
1000
0000
0100
1000
0010
0000
,  // measure 79
1000
0100
0001
0000
0100
0001
0010
0000
,  // measure 80
0001
0010
0100
0001
1000
0100
0010
1000
,  // measure 81
0001
0010
0100
0000
1000
0100
0010
0000
,  // measure 82
1000
0010
0100
1000
0001
0100
0010
0001
,  // measure 83
0010
0100
1000
0000
0100
0010
0001
0000
,  // measure 84
0001
0010
0100
0001
1000
0100
0010
1000
,  // measure 85
1000
0010
0100
1000
0001
0100
0010
0001
,  // measure 86
0001
0010
0100
0001
1000
0100
0010
1000
,  // measure 87
1000
0010
0100
1000
0001
0100
0010
0001
,  // measure 88
0110
0001
1000
0001
0010
0100
1000
0010
,  // measure 89
0100
0000
0000
0000
;
