#VERSION:0.83;
#TITLE:ARCANA;
#SUBTITLE:;
#ARTIST:燐舞曲;
#TITLETRANSLIT:;
#SUBTITLETRANSLIT:;
#ARTISTTRANSLIT:;
#GENRE:;
#ORIGIN:;
#TAGS:;
#CREDIT:;
#BANNER:ARCANA.png;
#BACKGROUND:ARCANA-BG.png;
#PREVIEWVID:;
#JACKET:ARCANA-Jacket.png;
#CDIMAGE:;
#DISCIMAGE:;
#LYRICSPATH:;
#CDTITLE:;
#MUSIC:ARCANA.ogg;
#OFFSET:0.080000;
#SAMPLESTART:107.916710;
#SAMPLELENGTH:30.659939;
#SELECTABLE:YES;
#BPMS:0.000000=280.000000,
121.000000=140.000000,
179.000000=280.000000,
239.000000=140.000000,
269.000000=280.000000,
309.000000=140.000000,
393.000000=279.999786,
433.000000=139.999649;
#STOPS:;
#DELAYS:;
#WARPS:;
#TIMESIGNATURES:0.000000=4=4;
#TICKCOUNTS:0.000000=4;
#COMBOS:0.000000=1;
#SPEEDS:0.000000=1.000000=0.000000=0;
#SCROLLS:0.000000=1.000000;
#FAKES:;
#LABELS:0.000000=Song Start;
#BGCHANGES:0.750=ARCANA.mp4=1.000=0=0=0=StretchNoLoop==CrossFade_Faster==,
99999=-nosongbg-=1.000=0=0=0 // don't automatically add -songbackground-
;
#KEYSOUNDS:;
#ATTACKS:
;

//---------------dance-single - ----------------
#NOTEDATA:;
#CHARTNAME:;
#CHARTHASH:2147483647;
#STEPSTYPE:dance-single;
#BANNER:;
#DESCRIPTION:;
#CHARTSTYLE:;
#DIFFICULTY:Beginner;
#METER:3;
#METERF:3.000000;
#RADARVALUES:0.146921,0.363282,0.086303,0.000000,0.000000,143.000000,131.000000,12.000000,0.000000,0.000000,0.000000,0.000000,0.000000,0.000000,0.146921,0.363282,0.086303,0.000000,0.000000,143.000000,131.000000,12.000000,0.000000,0.000000,0.000000,0.000000,0.000000,0.000000;
#CREDIT:;
#NOTES:
// measure 0
0000
0000
0000
0000
,  // measure 1
0000
0000
0000
0000
,  // measure 2
0000
0000
0000
0000
,  // measure 3
0000
0000
0000
0000
,  // measure 4
0000
0000
0000
0000
,  // measure 5
0000
0000
0000
0000
,  // measure 6
0000
0000
0000
0000
,  // measure 7
0000
0000
0000
0000
,  // measure 8
0000
0000
0000
0000
,  // measure 9
0000
0000
0000
0000
,  // measure 10
0000
0000
0000
0000
,  // measure 11
0000
0000
0000
0000
,  // measure 12
0000
0000
0000
0000
,  // measure 13
0000
0000
0000
0000
,  // measure 14
0000
0010
0000
0000
,  // measure 15
0000
0010
0000
0000
,  // measure 16
0000
0010
0000
0000
,  // measure 17
0000
0010
0000
0000
,  // measure 18
0000
0100
0000
0000
,  // measure 19
0000
0100
0000
0000
,  // measure 20
0000
0100
0000
0000
,  // measure 21
0000
0100
0000
0000
,  // measure 22
0000
0001
0000
1000
,  // measure 23
0000
0001
0000
1000
,  // measure 24
0000
0001
0000
0001
,  // measure 25
0000
1000
0000
1000
,  // measure 26
0000
0001
0000
0001
,  // measure 27
0000
0001
0000
0001
,  // measure 28
0000
1000
0000
1000
,  // measure 29
0000
1000
0000
1000
,  // measure 30
0000
1001
0000
0000
,  // measure 31
0000
0000
0000
0000
,  // measure 32
0000
0010
0000
0000
,  // measure 33
0000
0010
0000
0000
,  // measure 34
0000
0100
0000
0000
,  // measure 35
0000
0100
0000
0000
,  // measure 36
0000
1001
0000
0000
,  // measure 37
0000
1001
0000
0000
,  // measure 38
0000
0010
0000
0010
,  // measure 39
0000
0100
0000
0100
,  // measure 40
0000
0001
0000
0000
,  // measure 41
0000
0000
0000
0000
,  // measure 42
0000
1000
0000
0000
,  // measure 43
0000
0000
0000
0000
,  // measure 44
0000
0000
0000
0001
,  // measure 45
0000
0001
0000
0001
,  // measure 46
0000
0001
0000
0001
,  // measure 47
0000
0001
0000
0001
,  // measure 48
0000
0001
0000
1000
,  // measure 49
0000
1000
0000
1000
,  // measure 50
0000
1000
0000
1000
,  // measure 51
0000
1000
0000
1000
,  // measure 52
0000
0000
0000
0010
,  // measure 53
0000
0000
0000
0010
,  // measure 54
0000
0000
0000
0010
,  // measure 55
0000
0000
0000
0010
,  // measure 56
0000
0000
0000
0100
,  // measure 57
0000
0000
0000
0100
,  // measure 58
0000
0000
0000
0110
,  // measure 59
0000
0000
0000
0000
,  // measure 60
0000
0001
1000
0001
,  // measure 61
0000
1000
0001
1000
,  // measure 62
0000
0010
0010
0100
,  // measure 63
0100
0110
0000
1000
,  // measure 64
0001
0010
0000
0010
,  // measure 65
0000
0100
0000
0100
,  // measure 66
0000
1000
0000
0001
,  // measure 67
0000
0000
0000
0000
,  // measure 68
0000
0000
0000
0000
,  // measure 69
0000
0010
0000
0010
,  // measure 70
0000
0010
0000
0010
,  // measure 71
0000
0001
0000
0001
,  // measure 72
0000
0001
0000
0001
,  // measure 73
0000
0100
0000
0100
,  // measure 74
0000
0100
0000
0100
,  // measure 75
0000
1000
0000
1000
,  // measure 76
0000
1000
0000
1000
,  // measure 77
0000
1001
0000
0000
,  // measure 78
0000
1000
0000
1000
,  // measure 79
0000
0100
0000
0100
,  // measure 80
0000
0110
0000
0000
,  // measure 81
0000
1001
0000
0000
,  // measure 82
0000
0000
0000
0000
,  // measure 83
0000
0000
0000
0000
,  // measure 84
0000
0000
0000
0000
,  // measure 85
0000
0000
0000
0000
,  // measure 86
0000
0000
0000
0000
,  // measure 87
0000
0000
0000
0000
,  // measure 88
0000
0000
0000
0000
,  // measure 89
0000
0000
0000
0000
,  // measure 90
0000
0000
0000
0000
,  // measure 91
0000
0010
0000
0000
,  // measure 92
0000
0010
0000
0000
,  // measure 93
0000
0010
0000
0000
,  // measure 94
0000
0010
0000
0000
,  // measure 95
0000
0001
0000
0000
,  // measure 96
0000
0001
0000
0000
,  // measure 97
0000
1001
0000
0000
,  // measure 98
0000
0000
0000
0000
,  // measure 99
0000
0000
0000
0000
,  // measure 100
0000
0100
0000
0100
,  // measure 101
0000
0100
0000
0100
,  // measure 102
0000
1000
0000
1000
,  // measure 103
0000
1000
0000
1000
,  // measure 104
0000
0010
0000
0010
,  // measure 105
0000
0010
0000
0010
,  // measure 106
0000
0001
0000
0001
,  // measure 107
0000
0001
0000
0001
,  // measure 108
0000
0110
0000
0000
,  // measure 109
0000
0010
0000
0010
,  // measure 110
0000
0001
0000
0001
,  // measure 111
0000
0110
0000
0000
,  // measure 112
0000
1001
0000
0000
;

//---------------dance-single - ----------------
#NOTEDATA:;
#CHARTNAME:;
#CHARTHASH:2147483647;
#STEPSTYPE:dance-single;
#BANNER:;
#DESCRIPTION:;
#CHARTSTYLE:;
#DIFFICULTY:Easy;
#METER:7;
#METERF:7.000000;
#RADARVALUES:0.000000,0.000000,0.000000,0.000000,0.000000,0.000000,0.000000,0.000000,0.000000,0.000000,0.000000,0.000000,0.000000,0.000000,0.000000,0.000000,0.000000,0.000000,0.000000,0.000000,0.000000,0.000000,0.000000,0.000000,0.000000,0.000000,0.000000,0.000000;
#CREDIT:;
#NOTES:
0000
0000
0000
0000
,
0000
0000
0000
0000
,
0000
0000
0000
0000
,
0000
0000
0000
0000
,
0000
0000
0000
0000
,
0000
0000
0000
0000
,
0000
0000
0000
0000
,
0000
0000
0000
0000
,
0000
0000
0000
0000
,
0000
0000
0000
0000
,
0000
0000
0000
0000
,
0000
0000
0000
0000
,
0000
0000
0000
0000
,
0000
0000
0000
0000
,
0000
0001
0001
0001
,
0001
1000
1000
1000
,
1000
0001
0001
0001
,
0001
0010
0010
0100
,
0100
0001
0001
0001
,
0001
1000
1000
1000
,
1000
0001
0001
0001
,
0001
0010
0010
0100
,
0100
0010
0000
0010
,
0000
0010
0000
0010
,
0100
0010
0000
0010
,
0000
0010
0000
0010
,
0100
0010
0001
1000
,
0100
0010
0100
1000
,
0001
1000
0010
0100
,
0010
0001
0001
1000
,
1000
0011
1100
0002
,
0203
1300
0010
0100
,
1000
0010
0000
0010
,
0000
0010
0000
0010
,
0000
0001
0000
0001
,
0000
0001
0000
0001
,
0000
1001
0000
0110
,
0000
1100
0000
0101
,
0000
0010
0001
0010
,
0100
1000
0000
0001
,
0001
2000
0000
0000
,
0000
3010
0010
0001
,
0001
0020
0000
0000
,
0000
0032
0000
0000
,
0003
0000
0000
1000
,
0100
1000
0100
0001
,
0100
0001
0100
1000
,
0010
1000
0010
0001
,
0010
0001
0010
1000
,
0001
1000
0001
0010
,
0100
0010
0100
0001
,
1000
0001
1000
1001
,
0000
0010
0010
0010
,
0000
0000
0010
0010
,
0000
0000
0100
0000
,
0100
0100
0100
0100
,
0100
0100
0100
0002
,
0000
0000
0000
2003
,
0000
0000
0000
3001
,
0010
0000
0100
0000
1000
0000
0100
1000
,
0100
1000
0011
0000
0000
0000
0010
0001
,
0010
0001
1100
0000
0000
0000
0001
1000
,
0001
1000
0110
0000
0010
0000
0110
0000
,
0100
1001
0000
1000
,
0010
0001
0000
0001
,
0000
1000
0000
1001
,
0000
0020
0000
0230
,
0000
0300
0000
0000
,
0000
0000
0000
0000
,
0000
0001
0001
0001
,
0001
1000
1000
1000
,
1000
0001
0001
0001
,
0001
0100
0100
0100
,
0100
0010
0010
0010
,
0010
1000
1000
1000
,
1000
0100
0100
0100
,
0100
0001
0001
0001
,
0001
0010
0000
1001
,
0000
0100
0000
1001
,
0000
0110
0000
0010
,
0010
0100
0100
0001
,
1000
1001
0000
0000
,
0000
0000
0000
0000
,
0000
0001
0000
0000
,
0000
1000
0000
0000
,
0000
0001
0000
0000
,
0000
1000
0000
0000
,
0000
0010
0000
0000
,
0000
0010
0000
0000
,
0000
0200
0000
0000
,
0000
0300
0000
0000
,
0000
0001
1000
0001
,
0000
0010
0100
0010
,
0100
0001
1000
0001
,
0000
0100
0010
0100
,
0010
1000
1000
0001
,
0001
0010
0100
0010
,
0100
2002
0000
0000
,
0000
3003
0000
0000
,
0000
0000
0000
0000
,
0000
1000
1000
1000
,
1000
0001
0001
0001
,
0001
1000
1000
1000
,
1000
0001
0001
0001
,
0001
0100
0100
0100
,
0100
0010
0010
0010
,
0010
0001
0001
0001
,
0001
1000
1000
1000
,
1000
0010
0000
1001
,
0000
0100
0000
1001
,
0000
0000
0010
0010
0010
0010
0100
0100
,
0100
0100
0001
1000
0001
1000
0001
1000
,
0001
1000
0110
0000
0000
0000
0000
0000
;

//---------------dance-single - ----------------
#NOTEDATA:;
#CHARTNAME:;
#CHARTHASH:2147483647;
#STEPSTYPE:dance-single;
#BANNER:;
#DESCRIPTION:;
#CHARTSTYLE:;
#DIFFICULTY:Medium;
#METER:15;
#METERF:15.000000;
#RADARVALUES:0.000000,0.000000,0.000000,0.000000,0.000000,0.000000,0.000000,0.000000,0.000000,0.000000,0.000000,0.000000,0.000000,0.000000,0.000000,0.000000,0.000000,0.000000,0.000000,0.000000,0.000000,0.000000,0.000000,0.000000,0.000000,0.000000,0.000000,0.000000;
#CREDIT:;
#NOTES:
0000
0000
0000
0000
,
0000
0000
0000
0000
,
0000
0000
0000
0000
,
0000
0000
0000
0000
,
0000
0000
0000
0000
,
0000
0000
0000
0000
,
0000
0000
0000
0000
,
0000
0000
0000
0000
,
0000
0000
0000
0000
,
0000
0000
0000
0000
,
0000
0000
0000
0000
,
0000
0000
0000
0000
,
0000
0000
0000
0000
,
0000
0000
0000
0000
,
0000
0000
0010
0000
0010
0000
0100
0010
,
0100
0000
0100
0000
0100
0000
0010
0100
,
0010
0000
0010
0000
0010
0000
0010
0001
,
0010
0000
0100
0000
0100
0000
1000
0100
,
1000
0000
0001
0000
0001
0000
1000
0001
,
1000
0000
1000
0000
1000
0000
0001
1000
,
0001
0000
0001
0000
0001
0000
0001
0100
,
0001
0000
1000
0000
1000
0000
1000
0010
,
1000
0000
1000
0100
1000
0000
0001
0100
,
0001
0000
0100
1000
0100
0000
0100
0001
,
0100
0000
0001
0010
0001
0000
1000
0010
,
1000
0000
0010
0001
0010
0000
0010
1000
,
0010
0000
1000
0100
1000
0100
1000
0100
,
1000
0100
0001
0100
0001
0100
0001
0100
,
0001
0100
1000
0010
1000
0010
1000
0010
,
1000
0010
0001
0010
0001
0010
0001
0010
,
0001
0000
0010
0000
1100
0000
0000
0000
0101
0000
0000
0000
1000
0001
1000
0001
,
1000
0001
1000
0001
1000
0000
0000
0000
0020
0000
0000
0000
0032
0000
0000
0000
,
0203
0301
0001
1000
,
1000
0000
0001
0000
0001
0000
1000
0100
,
0001
0100
0010
0000
0010
0000
0100
0000
,
0100
0001
1000
0001
,
1000
1000
0011
0001
,
1100
1000
0101
0001
,
1000
2000
3002
2003
,
3020
0000
0000
0000
0130
0000
0000
0000
0000
0000
1000
0000
1000
0000
0000
1000
,
0000
0000
1000
0000
0001
0000
0000
0000
0100
0010
0100
0010
0100
0000
0000
0000
,
0010
0100
0010
0100
0001
1000
0001
1000
0001
0010
0100
1000
0001
0000
0000
0001
,
0000
0001
2000
0000
0000
0000
0000
0000
,
0000
3020
0000
0000
,
0030
0000
0000
0000
0000
0000
0001
0010
,
0001
0010
0100
0010
0100
0010
0001
0100
,
0001
0100
0010
0100
0010
0100
1000
0100
,
1000
0100
0010
0100
0010
0100
1000
0010
,
1000
0010
0100
0010
0100
0010
1000
0001
,
1000
0001
1000
0100
0010
0001
0100
0010
,
0100
0010
0001
0010
0100
1000
0001
0010
,
0100
1000
0001
0010
1000
0100
1000
0001
,
0000
0010
0010
0020
,
0000
0000
1030
1000
,
0000
0000
0001
0000
,
0001
1000
0001
1000
,
0001
0010
0100
0001
,
0000
0000
0000
0000
1000
0001
2000
0000
,
0000
0000
0000
0000
0000
0000
3001
1000
,
0001
1000
0001
1000
0001
1000
0011
0000
,
1100
0000
0000
0000
0001
0000
0000
1001
0000
0000
0000
0000
1000
0000
0001
0000
,
1000
0000
0001
0000
1000
0000
0000
1001
0000
0000
0000
0000
0001
0000
1000
0000
,
0010
0100
0001
0000
0011
0000
1000
0000
,
1010
0000
0000
0000
0110
0000
0000
0000
0000
0000
0000
0000
0100
0000
0000
0100
,
0000
0000
0010
0000
0010
0000
0000
0000
0000
0000
1000
0000
0100
0000
1000
0010
,
0000
0001
0001
0000
1000
1000
0000
0010
,
0000
0001
0010
0000
0000
0001
2001
0000
,
0000
3000
0000
0000
,
0000
0000
0000
0000
,
0000
1000
0001
1000
,
0001
1000
0001
1000
,
0001
0010
0100
0010
,
0100
0010
0100
0010
,
0100
0001
0000
0001
,
0000
1000
0000
1000
,
0000
0010
0000
0010
,
0000
0100
0100
0100
,
0100
0000
0100
0000
0000
0000
0110
0001
,
1000
0100
0100
0000
0010
0010
0000
0100
,
0100
0000
0000
0000
0010
0000
0000
0010
0000
0000
0010
0000
0110
0000
0001
0000
,
0001
1000
1000
0000
0000
0100
0010
0100
,
0010
1000
0002
0000
0000
0000
0203
0000
,
0000
0000
0300
0000
0100
0000
0001
1000
,
0001
0000
1000
0000
0010
0000
0000
0010
0000
0000
0000
0000
1000
0000
0001
0000
,
1000
0000
0001
0000
0010
0000
0000
0010
0000
0000
0000
0000
0001
0000
1000
0000
,
0001
1000
0001
0000
0010
0000
1000
0000
,
0100
0010
0000
1000
,
0010
0002
0000
0203
,
0000
0302
0000
0023
,
0000
2030
0000
0000
,
0000
3000
0000
0200
,
0320
0000
0032
0000
0000
1003
1000
0000
,
0000
0010
0010
0100
0001
1000
0010
1000
,
0001
0100
0200
0000
0000
0301
0001
0000
,
1000
0000
0000
0000
1000
0000
0000
0000
0000
0000
0000
0000
1000
0000
0000
0010
,
0000
0001
0001
0000
0000
1000
0001
0100
,
0001
0010
0010
0000
0100
0100
0000
0001
,
0000
1000
2001
0000
0000
3001
0220
0000
,
0000
0330
0000
0000
,
0000
0000
1000
0010
1000
0010
0001
0010
,
0001
0010
1000
0000
1000
0000
0001
0000
,
0001
0000
0001
0100
0001
0100
1000
0100
,
1000
0100
0010
0000
0010
0000
0100
0000
,
0100
1000
0001
1000
,
0001
0100
0100
0010
,
0010
0100
0100
0001
,
0001
1000
1000
0010
,
0010
0001
1000
0001
,
1000
0001
0001
1001
,
0010
0010
0010
0110
,
0100
0000
1000
0100
1000
0010
0001
0100
,
0001
0000
0010
0000
0001
0010
0100
1000
0001
0010
0100
1000
0010
0100
0010
0100
,
0010
0100
0010
0100
0002
0000
0000
0000
0000
0000
0000
0000
2003
0000
0000
0000
,
0000
3000
0000
0000
;

//---------------dance-single - ----------------
#NOTEDATA:;
#CHARTNAME:;
#CHARTHASH:2147483647;
#STEPSTYPE:dance-single;
#BANNER:;
#DESCRIPTION:;
#CHARTSTYLE:;
#DIFFICULTY:Hard;
#METER:17;
#METERF:17.000000;
#RADARVALUES:0.000000,0.000000,0.000000,0.000000,0.000000,0.000000,0.000000,0.000000,0.000000,0.000000,0.000000,0.000000,0.000000,0.000000,0.000000,0.000000,0.000000,0.000000,0.000000,0.000000,0.000000,0.000000,0.000000,0.000000,0.000000,0.000000,0.000000,0.000000;
#CREDIT:;
#NOTES:
0000
0000
0000
0000
,
0000
0000
0000
0000
,
0000
0000
0000
0000
,
0000
0000
0000
0000
,
0000
0000
0000
0000
,
0000
0000
0000
0000
,
0000
0000
0000
0000
,
0000
0000
0000
0000
,
0000
0000
0000
0000
,
0000
0000
0000
0000
,
0000
0000
0000
0000
,
0000
0000
0000
0000
,
0000
0000
0000
0000
,
0000
0000
0000
0000
,
0000
0000
1100
0000
1000
0100
0000
0001
,
0100
0000
0101
0000
0001
0100
0000
1000
,
0100
0000
0110
0000
1000
0100
0000
1000
,
0010
0000
1001
0000
0001
0100
0000
0001
,
0010
0000
1000
0100
1000
0000
0001
0100
,
0001
0000
1000
0001
1000
0000
0010
0100
,
0010
1100
1100
0101
,
0101
1001
1001
0110
,
0110
0000
0011
0000
0001
0001
0000
0001
,
0001
0000
0001
1000
0001
0000
1000
0001
,
1000
0000
1010
0000
1000
1000
0000
1000
,
1000
0000
1000
0001
0100
0000
0100
0000
,
0100
0000
1000
0100
1000
0100
1000
0100
,
0001
0100
0001
0100
0001
0100
0001
0100
,
0001
1000
0001
1000
0001
1000
0001
1000
,
0001
0010
0001
0010
0001
0010
0001
0010
,
0100
0000
0010
0000
0100
0000
0000
0000
1100
0000
0000
0000
0001
0010
0001
0100
,
0010
0100
0010
1000
0100
0000
0000
0000
0020
0000
0000
0000
2030
0000
0000
0000
,
3100
0000
0000
0000
0010
0000
0000
0010
0000
0000
1000
0000
0010
0000
0000
0010
,
0000
0000
0001
0000
0100
0000
0000
0100
0000
0000
0010
0000
1000
0000
0001
0000
,
0010
0000
1000
0000
0001
0000
0000
0001
0000
0000
1000
0000
0000
0000
0010
0000
,
0000
1000
0000
0001
2000
0000
0001
0000
,
3001
0000
0000
0000
0100
0000
0000
0011
0000
0000
0000
0000
0100
0000
0000
0000
,
1010
0000
0000
0000
0002
0000
0000
0013
0000
0000
0001
0000
0100
0000
1000
0000
,
0100
0010
1000
0000
0011
0000
0101
0000
,
0011
0000
0000
0000
1100
0000
0000
0000
0000
0000
0010
0000
0010
0000
0000
0010
,
0000
0000
0001
0000
0110
0000
0000
0000
1000
0100
1000
0100
2000
0000
0000
0000
,
3001
0100
0001
0100
0001
0010
0100
1000
0010
0100
0001
0010
1000
0000
0000
0001
,
0000
0001
0220
0000
0000
0000
0000
0000
,
0000
0000
0330
0000
0001
1000
0001
1000
0001
0100
0001
0100
1000
0010
1000
0010
,
0100
0010
0100
0020
0000
0000
0000
0000
0000
0000
0030
0000
1000
0000
0100
0000
,
1000
0100
1000
0001
1000
0001
1000
0010
,
1000
0010
1000
0100
1000
0100
0001
1000
,
0001
1000
0001
0010
0001
0010
0001
0100
,
0001
0100
0001
1000
0001
1000
0010
1000
,
0010
1000
0010
0001
0010
0001
1000
0001
,
1000
0001
0010
0100
0010
0100
0001
0010
,
0001
0010
1000
0010
1000
0010
1000
0100
,
0010
0010
0010
1001
,
1001
0010
0010
0000
,
1000
0001
1000
0000
0001
0000
0000
0000
,
0001
1000
0001
0000
1000
0010
1000
0000
,
0001
0100
0001
1000
0100
0001
1000
0000
,
1100
1100
1010
1010
,
1001
0000
1001
0000
1001
0000
1000
0100
,
0010
0001
0100
1000
0010
0001
0010
1000
,
0100
0000
1000
0000
0020
0000
0000
0031
0000
0000
0000
0000
0110
0000
1000
0000
,
0010
0000
0001
0000
0020
0000
0000
0031
0000
0000
0000
0000
1001
0000
1000
0000
,
0001
0010
1100
0000
0101
0000
0011
0000
,
1001
0000
0000
0000
1010
0000
0000
0000
0000
0000
0000
0000
2100
0000
0000
3001
,
0000
0000
0010
0000
0110
0000
0000
0000
0000
0000
1000
0000
0011
0000
0010
1000
,
0000
0001
0101
0000
0100
1100
0000
1001
,
0000
0000
0020
0000
0032
0000
0000
0000
0000
0000
0103
0000
0001
0010
0100
1000
,
0001
0010
1000
0100
0000
0000
0000
0000
0000
0000
0000
0000
0000
0000
0000
0000
,
0000
0000
0000
0000
,
0000
0010
1010
0010
,
0011
0010
1100
0010
,
0101
0001
1100
0001
,
1010
1000
0101
1000
,
0011
2200
3300
0022
,
0033
2020
3030
0202
,
0303
0000
0010
0001
0010
0001
1000
0010
,
1000
0010
0001
0000
0001
0000
1000
0000
,
1000
0000
0000
0000
0110
0000
0000
0010
0000
0000
0010
0000
1001
0000
1000
0000
,
1000
0000
0100
0000
0001
0000
0000
0000
0100
0000
1000
0000
0110
0000
0100
0010
,
0100
0010
0100
1000
0010
0000
0000
0010
0000
0000
0010
0000
0110
0000
0001
0000
,
0001
0000
1000
0000
1000
0000
1000
0000
0001
0010
0100
1000
0001
0010
1000
0100
,
1000
0100
0010
0001
0020
0000
0000
0000
0000
0000
0130
0010
0200
0000
0000
0000
,
0000
0000
0300
0000
0100
0000
0010
0001
,
0010
0000
0001
0000
1000
0000
0000
1100
0000
0000
0000
0000
0100
0000
1000
0000
,
0100
0000
1000
0000
0010
0000
0000
0011
0000
0000
0000
0000
0001
0000
1000
0000
,
0001
1000
0020
0000
0230
0000
0320
0000
,
0032
0203
0300
1000
,
0001
0020
0000
2030
,
0000
3002
0000
2003
,
0000
3200
0000
0000
,
0000
0310
0000
0020
,
0032
0000
0023
0000
0030
0010
0101
0000
,
0000
0010
1000
0100
0001
0100
1001
0010
,
0000
0010
1200
0000
0300
0100
0101
0000
,
1001
0000
0000
0000
1001
0000
0000
0000
0000
0000
0000
0000
1100
0000
0000
1000
,
0000
0000
0001
0000
0010
0000
0000
0000
0000
0000
0010
0000
0101
0000
0001
1000
,
0100
0010
0100
0010
0110
0000
0000
0000
0001
0000
0101
0000
0000
0000
0001
0000
,
0000
0010
1002
0000
0000
1003
0220
0000
,
0000
0300
1030
0000
0000
1000
0000
0000
,
1000
0000
0001
0010
0001
0010
0100
1000
,
0100
1000
0100
0000
1100
0000
1000
0000
,
1010
0010
0011
0001
,
0101
1000
1100
0001
,
0101
0100
1010
0010
,
0011
2200
3300
0202
,
0303
2020
3030
0012
,
0013
0220
0330
2002
,
3003
0010
0011
0001
,
0110
0000
2200
0000
3300
0000
1001
0010
,
1000
0100
0001
0000
0001
1000
0110
0001
,
1000
0000
1000
1100
0100
0110
0010
0011
,
0110
0000
1100
0000
0001
0010
0100
1000
0010
1000
0100
0000
0011
0000
1100
0000
,
1010
0000
0101
0000
0220
0000
0000
0000
0330
0000
0001
1000
0002
0000
0000
0000
,
0000
0003
0000
0000
;
