#VERSION:0.83;
#TITLE:ARCANA;
#SUBTITLE:-FULL SONG-;
#ARTIST:燐舞曲;
#TITLETRANSLIT:;
#SUBTITLETRANSLIT:;
#ARTISTTRANSLIT:;
#GENRE:;
#ORIGIN:;
#TAGS:;
#CREDIT:;
#BANNER:ARCANA -FULL SONG-.png;
#BACKGROUND:ARCANA -FULL SONG--BG.png;
#PREVIEWVID:;
#JACKET:ARCANA -FULL SONG--Jacket.png;
#CDIMAGE:;
#DISCIMAGE:;
#LYRICSPATH:;
#CDTITLE:;
#MUSIC:ARCANA -FULL SONG-.ogg;
#OFFSET:-0.120000;
#SAMPLESTART:63.976585;
#SAMPLELENGTH:29.580021;
#SELECTABLE:YES;
#DISPLAYBPM:100.000000:280.000000;
#BPMS:0.000000=280.000000,
122.000000=140.000000,
178.000000=280.000000,
210.000000=140.000000,
256.000000=280.000000,
296.000000=140.000000,
316.000000=280.000000,
380.000000=70.000000,
388.000000=140.000000,
392.000000=70.000000,
394.000000=140.000000,
398.000000=70.000000,
400.000000=140.000000,
432.000000=70.000000,
434.000000=280.000000,
438.000000=140.000000,
464.000000=100.000000,
480.000000=50.000000,
480.500000=100.000000,
488.500000=50.000000,
489.000000=100.000000,
530.000000=400.000000,
578.000000=70.000000,
582.000000=140.000000,
642.000000=280.000000,
682.000000=140.000000,
690.000000=280.000000,
706.000000=140.000000,
710.000000=280.000000,
726.000000=560.000000;
#STOPS:758.000000=1.800000;
#DELAYS:;
#WARPS:;
#TIMESIGNATURES:0.000000=4=4;
#TICKCOUNTS:0.000000=4;
#COMBOS:0.000000=1;
#SPEEDS:0.000000=1.000000=0.000000=0;
#SCROLLS:0.000000=1.000000;
#FAKES:;
#LABELS:0.000000=Song Start;
#BGCHANGES:1.000=Generic1.mp4=1.000=1=0=1===CrossFade==,
99999.000=-nosongbg-=1.000=0=0=0=StretchNoLoop====,
99999=-nosongbg-=1.000=0=0=0 // don't automatically add -songbackground-
;
#KEYSOUNDS:;
#ATTACKS:
;

//---------------dance-single - ----------------
#NOTEDATA:;
#CHARTNAME:;
#CHARTHASH:92416288;
#STEPSTYPE:dance-single;
#BANNER:;
#DESCRIPTION:;
#CHARTSTYLE:;
#DIFFICULTY:Challenge;
#METER:20;
#METERF:20.000000;
#RADARVALUES:0.877533,2.503478,0.835853,0.252333,0.873309,1558.000000,1346.000000,212.000000,64.000000,0.000000,0.000000,0.000000,0.000000,0.000000,0.877533,2.503478,0.835853,0.252333,0.873309,1558.000000,1346.000000,212.000000,64.000000,0.000000,0.000000,0.000000,0.000000,0.000000;
#CREDIT:;
#DISPLAYBPM:100.000000:280.000000;
#NOTES:
// measure 0
0000
0000
0000
0000
,  // measure 1
0000
0000
0000
0000
,  // measure 2
0000
0000
0000
0000
,  // measure 3
0000
0000
0000
0000
,  // measure 4
0000
0000
0000
0000
,  // measure 5
0000
0000
0000
0000
,  // measure 6
0000
0000
0000
0000
,  // measure 7
0000
0000
0000
0000
,  // measure 8
0000
0000
0000
0000
,  // measure 9
0000
0000
0000
0000
,  // measure 10
0000
0000
0000
0000
,  // measure 11
0000
0000
0000
0000
,  // measure 12
0000
0000
0000
0000
,  // measure 13
0000
0000
0000
0000
,  // measure 14
0000
0000
1100
1010
,  // measure 15
1001
0101
0011
0101
,  // measure 16
1001
1010
1100
0011
,  // measure 17
0101
0000
0000
1010
0000
0000
0001
0010
0001
0010
0001
0010
,  // measure 18
0100
1000
0100
1000
0100
1000
0011
0000
0000
0101
0000
0000
,  // measure 19
1001
1010
1100
1010
,  // measure 20
1001
0101
0011
1100
,  // measure 21
1010
0101
1100
0011
,  // measure 22
0101
0000
1010
0000
1000
0000
1000
1000
,  // measure 23
0000
1000
1000
0000
1000
1000
1000
0000
,  // measure 24
1000
1000
1000
1000
1000
0000
1000
1000
,  // measure 25
0000
1000
1000
0000
1000
1001
0000
0110
,  // measure 26
0000
1100
0000
0011
1000
0010
1000
0010
,  // measure 27
0100
0001
0100
0001
0010
0001
0010
0001
,  // measure 28
1000
0000
0000
0100
0000
0000
1000
0000
0000
0100
0000
0000
1000
0000
0010
0000
1000
0000
0010
0000
1000
0000
0010
0000
,  // measure 29
0100
0001
0100
0001
0100
0001
0010
0001
0010
0001
0010
0001
,  // measure 30
1000
0100
1000
0100
1000
0100
1000
0000
0000
1010
0000
0000
,  // measure 31
0001
0010
0001
0010
0001
0010
0100
1000
0100
1000
0100
1000
0200
0000
0000
0000
0000
0300
0020
0000
0000
0000
0000
0000
,  // measure 32
0032
0000
0000
0000
2003
0000
0000
0000
3010
0000
0000
0010
0000
0000
0010
0000
,  // measure 33
0001
0000
0000
0001
0000
0000
0001
0000
2000
0000
0000
3001
0000
0000
0010
0000
,  // measure 34
0100
0000
0001
0000
0100
0000
0100
0000
0001
0000
0000
0001
0000
0000
1000
0000
,  // measure 35
0000
0000
0010
0000
0000
0000
0001
0000
0000
0000
1000
0001
2000
0000
0000
0000
,  // measure 36
0000
0000
3100
0011
,  // measure 37
0101
0000
0000
0000
1010
0000
0000
0000
0001
0000
0000
1001
0000
0000
0001
0000
,  // measure 38
0010
0001
1000
0100
1100
0000
0010
0000
,  // measure 39
0011
0000
0001
0000
1001
0000
0000
0010
,  // measure 40
0010
0000
0000
0000
0000
0000
0000
0000
0000
0010
0000
0000
0000
0000
0000
0000
0000
0000
0001
0000
0000
0000
0000
0000
0110
0000
0000
0000
0000
0000
0000
0000
0000
0000
0000
0000
1000
0000
0010
0000
1000
0000
0010
0000
1000
0000
0010
0000
,  // measure 41
2000
0000
0000
0000
0000
0000
0000
0000
0000
0000
0000
0000
3001
0000
0010
0000
0001
0000
0010
0000
0001
0000
0010
0000
0001
0000
0000
0010
0000
0000
0001
0000
0000
0010
0000
0000
0100
0000
0000
1000
0000
0000
0100
0000
0000
1000
0000
0000
,  // measure 42
0010
0000
0000
0010
0000
0000
0010
0000
0002
0000
0000
0000
0000
0000
0000
0000
,  // measure 43
0000
0000
2003
0000
,  // measure 44
0000
0000
3000
0000
,  // measure 45
0000
0000
0000
0000
1000
0100
1000
0010
,  // measure 46
1000
0001
1000
0010
1000
0100
1000
0010
,  // measure 47
1000
0001
1000
0010
1000
0100
1000
0010
,  // measure 48
1000
0001
1000
0010
1000
0100
1000
0010
,  // measure 49
1000
1000
0001
0010
0001
0100
0001
1000
,  // measure 50
0001
0100
0001
0010
0001
0100
0001
1000
,  // measure 51
0001
0100
0001
0010
0001
0100
0001
1000
,  // measure 52
0001
0100
0001
0010
0001
0000
1001
1001
,  // measure 53
0110
0000
0000
0110
0000
0000
0010
0000
0010
0000
0001
1000
0001
0000
0000
0000
,  // measure 54
0010
0000
0000
0000
0001
1000
0001
1000
0001
0000
0000
0000
0001
1000
0001
1000
0001
0000
0010
0000
0100
0000
1000
0000
0001
0000
0010
0000
0100
0000
1000
0000
,  // measure 55
0011
0011
0101
0101
1001
1001
0110
0110
,  // measure 56
1000
0000
0010
0000
1000
0000
0010
0000
1000
0000
0010
0000
0100
0000
0001
0000
0100
0000
0001
0000
0100
0000
0001
0000
0200
0000
0000
0000
0000
0000
0000
0000
0000
0300
0000
0000
0000
0000
0000
0000
0000
0000
0000
0000
0000
0000
0000
0000
,  // measure 57
0020
0000
0000
0031
0000
0000
0000
0000
0110
0000
1000
0000
0010
0000
0001
0000
,  // measure 58
0020
0000
0000
0031
0000
0000
0000
0000
1001
0000
1000
0000
0001
0000
0010
0000
,  // measure 59
1100
0101
0011
1001
,  // measure 60
1010
0000
0000
0000
0000
0000
0000
0000
2100
0000
0000
3001
0000
0000
0010
0000
,  // measure 61
0110
0000
0000
0000
0000
0000
1000
0000
0011
0000
0010
1000
0000
0000
0001
0000
,  // measure 62
0101
0000
0100
1100
0000
1001
0000
0020
,  // measure 63
0032
0000
0000
0000
0000
0000
1000
0000
1003
0100
0010
0001
1000
0100
0010
0001
,  // measure 64
0000
0000
0000
0000
,  // measure 65
0000
0000
0000
0000
,  // measure 66
0010
1010
0010
0011
,  // measure 67
0010
1100
0010
0101
,  // measure 68
0100
1100
0100
0101
,  // measure 69
0100
1010
0100
0011
,  // measure 70
2200
3300
0022
0033
,  // measure 71
2020
3030
0202
0303
,  // measure 72
1000
0010
1000
0010
0100
0001
0100
0001
,  // measure 73
1000
0100
0010
0001
1000
0100
0010
0001
,  // measure 74
0110
0000
0000
0100
0000
0000
0100
0000
1001
0000
0000
1000
0000
0000
1000
0000
,  // measure 75
0110
0000
0000
0010
0000
0000
0010
0000
1001
0010
0100
1000
0001
0010
0001
0010
,  // measure 76
0100
0000
0000
0100
0000
0000
0100
0000
1100
0000
0000
0010
0000
0000
0010
0000
,  // measure 77
0011
0000
0101
0000
1001
0000
0010
0100
0010
0100
0010
0100
0010
0100
0010
0100
,  // measure 78
0020
0000
0000
0000
0000
0000
0031
1000
0200
0000
0000
0000
0310
0000
0000
0000
,  // measure 79
1000
0100
1000
0100
0001
0010
0001
0010
,  // measure 80
0100
1000
0100
1000
0010
0001
0010
0001
,  // measure 81
0100
0001
0100
0001
0010
1000
0010
1000
,  // measure 82
0001
0100
0001
0100
1000
0010
1000
0010
,  // measure 83
0001
0100
0001
0010
1000
0010
1000
0100
,  // measure 84
0010
0001
0100
0001
0100
1000
0010
1000
,  // measure 85
0010
0001
0010
0001
0100
1000
0100
1000
,  // measure 86
0110
1010
0110
0101
,  // measure 87
1001
1001
0110
0110
,  // measure 88
1010
1010
0110
0110
,  // measure 89
0101
0101
0110
0110
,  // measure 90
1100
1100
0011
0011
,  // measure 91
0001
0010
0001
0010
0001
0010
0001
0010
,  // measure 92
0100
1000
0100
1000
0100
1000
0100
1000
,  // measure 93
0001
0010
0001
0010
0001
0010
0001
0010
0001
0010
0001
0010
,  // measure 94
0100
1000
0100
1000
0100
1000
0100
1000
0100
1000
0100
1000
,  // measure 95
0200
0000
0000
0000
,  // measure 96
0300
0000
0000
0000
,  // measure 97
0010
1100
0010
0110
0010
0011
0010
1001
,  // measure 98
0000
0000
0000
0000
0100
1100
0100
0110
,  // measure 99
0100
0011
0100
1001
0000
0000
0000
0000
,  // measure 100
0001
0010
0001
0010
0001
0000
0010
0100
0010
0100
0010
0000
0100
1000
0100
1000
,  // measure 101
0010
0001
0010
0001
0010
0000
0100
0010
0100
0010
0100
0000
1000
0100
1000
0100
,  // measure 102
1000
0100
1000
0100
1000
0000
0100
0010
0100
0010
0100
0000
0010
0001
0010
0001
,  // measure 103
0100
1000
0100
1000
0100
0000
0010
0100
0010
0100
0010
0000
0001
0010
0001
0010
,  // measure 104
0100
0100
0100
0100
0100
0100
0100
0100
,  // measure 105
0010
0010
0010
0010
0010
0010
0010
0010
,  // measure 106
0001
0001
0001
0001
0001
0001
0001
0001
,  // measure 107
0001
0000
0000
1000
0000
0000
0001
0000
0000
1000
0000
0000
0001
0000
0000
0100
0000
0000
0001
0000
0000
0100
0000
0000
0001
0000
0010
0000
0001
0000
0010
0000
0001
0000
0010
0000
0001
0000
0010
0000
0100
0000
1000
0000
0001
0000
0010
0000
,  // measure 108
0100
0000
0000
0000
0000
0000
0000
0000
0011
0000
0000
0000
0011
0000
0000
1000
,  // measure 109
0100
0000
0000
0100
1000
0000
0000
1000
0001
0000
0000
0000
0000
0000
0000
0000
,  // measure 110
0200
0000
0000
1300
0000
0000
0000
0000
1001
0000
0001
0000
0010
0000
1000
0000
,  // measure 111
0200
0000
0000
1300
0000
0000
0000
0000
0110
0000
0001
0000
1000
0000
0010
0000
,  // measure 112
0101
1100
1010
0110
,  // measure 113
0011
0000
0000
0000
0000
0000
0000
0000
0021
0000
0000
1030
0000
0000
0100
0000
,  // measure 114
0110
0000
0000
0000
0010
0000
0010
0001
0010
0000
0000
0000
0100
0000
0100
1000
,  // measure 115
0202
0303
2200
3300
2020
3030
0022
0033
,  // measure 116
0110
0000
0000
0000
,  // measure 117
0000
0000
0000
0000
0000
0000
0000
0000
0000
0000
0000
0000
0000
0000
0000
0000
0000
0000
0000
0000
0000
0000
0000
0000
1000
0001
1000
0001
1000
0001
1000
0001
,  // measure 118
1000
0000
0000
0000
1000
0000
1000
0000
1000
0000
0000
0000
1000
0000
1000
0000
1000
0100
1000
0100
1000
0010
1000
0010
0001
0010
0001
0010
0100
1000
0100
1000
,  // measure 119
0001
0000
0001
0000
0001
0000
0000
0000
0001
0000
0001
0000
0001
0000
0000
0000
0001
0010
0001
0010
0100
1000
0100
1000
0001
0010
0100
1000
0001
0010
0100
1000
,  // measure 120
0000
0000
0000
0000
0001
1000
0001
1000
0001
1000
0001
1000
0001
1000
0001
1000
0010
0100
0010
0100
0010
0100
0010
0100
0010
0100
0010
0100
0010
0100
0010
0100
,  // measure 121
0001
0010
0001
0010
0001
0010
0001
0010
0001
0010
0001
0010
0001
0010
0001
0010
0100
1000
0100
1000
0100
1000
0100
1000
0100
1000
0100
1000
0100
1000
0100
1000
,  // measure 122
0001
0010
0100
1000
0100
0000
0000
0000
1000
0100
1000
0100
1000
0100
1000
0100
0001
0100
0001
0100
0001
0100
0001
0100
0001
0100
0001
0100
0001
0100
0001
0100
,  // measure 123
0001
0010
0001
0010
0001
0010
0001
0010
0001
0010
0001
0010
0001
0010
0001
0010
1000
0010
1000
0010
1000
0010
1000
0010
1000
0010
1000
0010
1000
0010
1000
0010
,  // measure 124
0001
1000
0001
1000
0001
1000
0001
1000
0101
0010
0100
0010
0100
0010
0100
0010
0101
1000
0001
1000
0001
1000
0001
1000
0001
0000
0000
0000
0001
1000
0001
1000
,  // measure 125
0001
1000
0001
1000
0001
0000
0000
0000
0001
1000
0001
1000
0001
0000
0000
0000
1000
0001
1000
0001
1000
0001
1000
0001
1000
0000
0000
0000
1000
0001
1000
0001
,  // measure 126
1000
0001
1000
0001
1000
0000
0000
0000
1000
0001
1000
0001
1000
0000
0000
0000
0010
0100
0010
0100
0010
0100
0010
0100
0010
0000
0000
0000
0010
0100
0010
0100
,  // measure 127
0010
0100
0010
0100
0010
0000
0000
0000
0010
0100
0010
0100
0010
0000
0000
0000
1100
0000
1100
0000
1100
0000
1100
0000
0110
0000
0110
0000
0110
0000
0110
0000
,  // measure 128
0011
0000
0011
0000
0011
0000
0011
0000
1001
0000
1001
0000
1001
0000
1001
0000
1000
0100
1000
0100
1000
0100
1000
0100
0010
0001
0010
0001
0010
0001
0010
0001
,  // measure 129
0100
0010
0100
0010
0100
0010
0100
0010
1000
0100
1000
0100
0010
0001
0010
0001
0100
1000
0100
1000
0001
0010
0001
0010
0001
1000
0001
1000
0001
1000
0001
1000
,  // measure 130
0001
0000
0000
0000
0000
0000
0010
0000
0000
0000
0000
0000
0100
0000
0000
0000
0000
0000
1000
0000
0000
0000
0000
0000
0001
0000
0000
0000
0000
0000
0010
0000
0000
0000
0000
0000
0100
0000
0000
0000
0000
0000
1000
0000
0000
0000
0000
0000
0001
0000
0000
0000
0000
0000
0010
0000
0000
0000
0000
0000
0001
0000
0000
0000
0000
0000
0010
0000
0000
0000
0000
0000
0100
0000
0000
0000
0000
0000
1000
0000
0000
0000
0000
0000
0100
0000
0000
0000
0000
0000
1000
0000
0000
0000
0000
0000
0011
0000
0000
0000
0000
0000
0000
0000
0000
0000
0000
0000
0000
0000
0000
0000
0011
0000
0000
0000
0000
0000
0000
0000
0000
0000
0000
0000
0000
0000
0000
0000
0011
0000
0000
0000
0000
0000
0000
0000
0000
0000
0000
0000
0000
0000
0000
0000
0110
0000
0000
0000
0000
0000
0000
0000
0000
0000
0000
0000
0000
0000
0000
0000
0110
0000
0000
0000
0000
0000
0000
0000
0000
0000
0000
0000
0000
0000
0000
0000
0110
0000
0000
0000
0000
0000
0000
0000
0000
0000
0000
0000
0000
0000
0000
0000
,  // measure 131
1100
1100
1100
1001
1001
1001
0110
0110
0110
1001
1001
1001
,  // measure 132
1000
0100
1000
0100
1000
0100
1000
0100
0010
0001
0010
0001
0010
0001
0010
0001
1100
0000
0000
0000
0000
0000
0000
0000
1100
0000
0000
0000
0000
0000
0000
0000
,  // measure 133
1000
0100
0110
0000
0110
0000
0100
0010
,  // measure 134
0011
0000
0011
0000
0011
0000
0001
1000
,  // measure 135
1001
0000
1001
0000
1001
0000
1000
0100
,  // measure 136
0010
0001
1000
0100
0010
0001
0010
0001
,  // measure 137
0010
0001
0010
1000
0010
1000
0010
1000
,  // measure 138
0010
0100
0010
0100
0010
0100
1000
0100
,  // measure 139
1000
0100
1000
0100
0010
0001
0010
0001
,  // measure 140
0010
0001
1000
0001
0010
1000
0010
1000
,  // measure 141
0010
1000
0010
1000
0100
0001
0100
0001
,  // measure 142
0100
0001
0100
0001
0100
1000
0100
1000
,  // measure 143
0100
1000
0100
1000
0010
0001
0010
0001
,  // measure 144
0010
0001
0010
0001
0200
0000
0000
0000
,  // measure 145
0000
0000
0300
0000
,  // measure 146
0000
0000
0000
0000
,  // measure 147
0000
0000
0000
0000
,  // measure 148
0000
0000
0000
0000
,  // measure 149
0000
0000
0000
0000
,  // measure 150
0000
0000
0000
0000
,  // measure 151
0000
0000
0000
0000
,  // measure 152
0000
0000
0000
0000
,  // measure 153
0020
0000
0032
0000
0023
0000
0030
0010
,  // measure 154
0101
0000
0000
0010
1000
0100
0001
0100
,  // measure 155
1001
0010
0000
0010
1200
0000
0300
0100
,  // measure 156
0101
1001
1001
0000
,  // measure 157
1100
0000
0000
1000
0000
0000
0001
0000
0010
0000
0000
0000
0000
0000
0010
0000
,  // measure 158
0101
0000
0001
1000
0010
0001
0010
0001
0200
0000
0300
0000
1001
0000
2200
0000
,  // measure 159
0000
3300
0011
0000
0000
0000
0010
0000
2002
0000
0000
0000
3000
0000
1003
0000
,  // measure 160
0220
0000
0000
0300
1030
0000
0000
1000
,  // measure 161
0000
0000
1000
0000
0001
0010
0001
0010
,  // measure 162
0100
1000
0100
1000
0100
0000
1100
0000
,  // measure 163
0100
1010
0010
0011
,  // measure 164
0010
0101
1000
1100
,  // measure 165
1000
1010
0001
0011
,  // measure 166
0001
0101
2200
3300
,  // measure 167
0202
0303
0022
0033
,  // measure 168
2010
3010
0220
0330
,  // measure 169
2002
3003
0001
0001
,  // measure 170
1000
1000
0022
0033
,  // measure 171
0110
0000
0010
0000
1000
0000
1000
0000
0001
0000
0000
0001
0000
0000
1000
0000
,  // measure 172
0000
1000
0000
0000
1000
0000
0000
0000
0010
0000
1000
0000
0010
0000
1000
0000
,  // measure 173
0010
0001
0010
0001
0100
1000
0100
1000
,  // measure 174
0100
0000
0000
0001
0000
0000
0100
0000
0000
0001
0000
0000
0010
0000
1000
0000
0010
0000
1000
0000
0010
0000
1000
0000
,  // measure 175
0010
1000
0010
1000
0010
1000
0100
0001
0100
0001
0100
0001
,  // measure 176
0100
0000
0000
0000
0001
0000
0000
0000
0100
0000
0000
0000
0001
0000
0000
0000
0100
0000
0000
0000
0001
0000
0000
0000
0020
0000
0000
0000
0000
0000
0000
0000
0000
0000
0000
0000
0000
0000
0000
0000
0000
0000
1030
0000
0000
0100
0000
0000
,  // measure 177
0001
0000
0000
0000
1001
0000
0001
0001
,  // measure 178
0000
0001
0001
0000
0001
0001
0001
0000
,  // measure 179
0001
0001
0001
0001
1000
0000
1000
1000
,  // measure 180
0000
1000
1000
0000
1000
1000
1000
0000
,  // measure 181
1100
1100
1001
1001
,  // measure 182
1010
1100
0010
0001
,  // measure 183
0010
0001
0100
1000
,  // measure 184
0100
1000
0010
0100
,  // measure 185
0010
0000
0100
0000
0001
0010
0001
0010
,  // measure 186
0001
0010
0001
0010
0100
1000
0100
1000
,  // measure 187
0100
1000
0100
1000
0010
1000
0010
1000
,  // measure 188
0010
1000
0010
1000
0100
0001
0100
0001
,  // measure 189
0100
0000
0000
0001
0000
0000
0100
0000
0000
0001
0000
0000
0200
0300
0000
0000
0000
0000
0000
0000
0000
0000
0000
0000
;
