#TITLE:[Re]termination;
#SUBTITLE:;
#ARTIST:燐舞曲;
#TITLETRANSLIT:;
#SUBTITLETRANSLIT:;
#ARTISTTRANSLIT:;
#GENRE:;
#CREDIT:;
#BANNER:[Re]termination.png;
#BACKGROUND:[Re]termination-BG.png;
#LYRICSPATH:;
#CDTITLE:;
#MUSIC:[Re]termination.ogg;
#OFFSET:0.200000;
#SAMPLESTART:49.237255;
#SAMPLELENGTH:12.000000;
#SELECTABLE:YES;
#BPMS:0.000000=195.000000
,131.000000=97.500000
,138.000000=195.000000
,292.000000=97.500000
,306.000000=195.000000
;
#STOPS:
;
#BGCHANGES:0.000=[Re]termination.mp4=1.000=0=0=0=StretchNoLoop==CrossFade_Fastest==,
99999=-nosongbg-=1.000=0=0=0 // don't automatically add -songbackground-
;
#KEYSOUNDS:;
#ATTACKS:;

//---------------dance-single - ----------------
#NOTES:
     dance-single:
     :
     Easy:
     8:
     0.000000,0.000000,0.000000,0.000000,0.000000,0.000000,0.000000,0.000000,0.000000,0.000000,0.000000,0.000000,0.000000,0.000000,0.000000,0.000000,0.000000,0.000000,0.000000,0.000000,0.000000,0.000000:
0000
0000
0000
0000
,
0000
0000
0000
0000
,
0000
0000
0000
0000
,
0000
0000
0000
0000
,
0000
0000
0000
0000
,
0000
0000
0000
0000
,
0000
0000
0000
0000
,
0000
0000
0000
0000
,
0000
0000
0000
1000
,
0001
1000
0001
1000
,
0001
1000
0001
0001
,
1000
0001
1000
0001
,
1000
0001
1000
0001
,
0010
0001
0010
1000
,
0010
1000
0010
1000
,
0100
1000
0100
0001
,
0100
0001
0100
2002
,
0000
0000
0000
3003
,
0000
0000
0000
0000
,
0000
0000
0000
0000
,
0000
0000
0000
0000
,
0000
0000
0000
0000
,
0000
0000
0000
0000
,
0000
0000
0000
0000
,
0000
0000
0000
1000
,
1000
0001
0001
1000
,
1000
0001
0001
0001
,
1000
0001
1000
0001
,
0001
1000
1000
0100
,
0010
0100
0010
0100
,
0001
0100
0001
1000
,
0010
1000
0001
1000
,
0100
0010
0001
0020
,
0000
0030
0020
0000
0000
0030
0020
0000
,
0000
0030
0010
0000
0110
0000
0000
0000
,
1000
1000
0100
0100
,
0010
0010
0001
0001
,
0001
0010
1000
0100
,
1001
0000
0000
0000
,
1000
0001
1000
0001
,
0001
1000
0001
1000
,
1000
0010
1000
0010
,
0001
0100
0001
0100
,
1000
0100
1000
0100
,
0001
0010
0001
0010
,
0001
0001
0010
0010
,
0100
0100
1000
1000
,
0001
1000
0001
1000
,
1000
0001
1000
0001
,
0001
0010
0001
0010
,
1000
0100
1000
0100
,
0001
0100
0001
0100
,
1000
0010
1000
0010
,
0001
0001
0010
0010
,
1000
1000
0100
0100
,
1001
0000
0000
0000
,
0011
0000
0000
0000
,
0110
0000
0000
0000
,
1100
0000
0000
0000
,
0001
0010
0001
0010
,
1000
0010
1000
0010
,
0001
0010
0001
0010
,
1000
1000
0001
0001
,
1000
1000
1000
1100
,
0100
0100
0100
0110
,
0010
0010
0010
0011
,
0001
0001
0001
1001
,
0001
0010
1000
0100
,
0001
0010
0100
1000
,
0100
1000
0010
0001
,
1000
0100
0010
0001
,
2002
0000
0000
3003
,
0011
0001
1000
1100
,
0000
0000
0000
0000
,
0000
0000
0000
0000
,
0000
0000
0010
0010
,
0010
0010
0220
0000
,
0000
0000
0000
0330
,
0110
0000
1001
0000
,
0000
0000
0101
0000
,
0000
0000
1001
0000
,
0000
0000
1010
0000
,
0110
0000
0001
0010
,
0001
0010
0001
0010
,
0001
0010
1000
0100
,
1000
0100
1000
0100
,
1000
0100
1000
0001
,
1000
0001
1000
0001
,
1000
1001
0001
1000
,
0001
1000
0001
1000
,
0001
1001
1000
0010
,
1000
0010
1000
0010
,
1000
1010
0001
0100
,
0001
0100
0001
0100
,
0001
0000
0101
0000
0001
0010
0001
0010
,
0001
0010
0001
0010
0001
0010
0001
0010
,
0001
0010
0001
0010
0001
0010
0001
0010
,
0001
0010
0001
0010
0001
0010
0001
0010
,
0001
0010
0001
0010
1000
0000
0100
0000
,
1000
1100
0001
0010
,
0001
0000
0011
0000
1000
0100
1000
0100
,
1000
0100
1000
0100
1000
0100
1000
0100
,
1000
0100
1000
0100
1000
0000
0000
0000
;

//---------------dance-single - ----------------
#NOTES:
     dance-single:
     :
     Medium:
     16:
     0.000000,0.000000,0.000000,0.000000,0.000000,0.000000,0.000000,0.000000,0.000000,0.000000,0.000000,0.000000,0.000000,0.000000,0.000000,0.000000,0.000000,0.000000,0.000000,0.000000,0.000000,0.000000:
0000
0000
0000
0000
,
0000
0000
0000
0000
,
0000
0000
0000
0000
,
0000
0000
0000
0000
,
0000
0000
0000
0000
,
0000
0000
0000
0000
,
0000
0000
0000
0000
,
0000
0000
0000
0000
,
0000
0000
0000
0010
,
1000
0001
0000
1000
0001
0000
1000
0010
,
0000
1000
0100
0000
0010
0100
1000
0000
,
0100
0010
0000
0100
0010
0000
0100
1000
,
0000
0100
0001
0000
1000
0001
1000
0001
,
1000
0010
1000
0010
0001
1000
0001
1000
,
0001
0100
0001
0100
1000
0100
0010
0010
,
0010
0001
0001
0001
1000
1000
1000
0100
,
0100
0100
0001
0010
0100
1000
0200
0000
,
0000
0000
0000
0000
,
0000
0000
0000
0300
,
0000
0010
0010
0010
,
0001
1000
0000
0010
1000
0000
0020
0000
,
0000
0000
0000
0000
,
0000
0000
0000
0130
,
0100
1000
0001
0110
,
0001
0000
1000
0100
1000
0000
0001
0001
,
0001
0001
0100
1000
,
1000
0000
1000
1000
1000
0000
0001
0010
,
0100
0000
1000
0100
0010
0000
0100
0010
,
0001
0000
0010
0100
1000
0000
0001
0001
,
1000
0000
0010
0010
1000
0000
0100
0100
,
1000
0000
0001
0001
1000
1000
1000
1000
,
0001
0000
0100
0100
0001
0000
0010
0010
,
0001
0000
1000
1000
0001
0001
0020
0000
,
1000
0030
0020
0000
0001
0030
0200
0000
,
0001
0300
0200
0000
1000
0000
0300
0000
,
2002
3003
0220
0330
,
2200
3300
0022
0033
,
1000
1000
0001
0001
,
0110
0000
0010
0010
,
1000
0100
1000
0100
1000
0100
1000
0100
,
1000
0010
1000
0010
1000
0010
1000
0010
,
0100
0010
0100
0010
0100
0010
0100
0010
,
0001
0100
0001
0100
0001
0100
0001
0100
,
0010
0110
0010
0110
,
0100
0110
0100
0110
,
0001
0110
1000
0110
,
0001
0110
1000
0110
,
0002
0023
0032
0023
,
2030
3002
2003
3002
,
0203
2300
3200
2300
,
3020
0230
0320
0230
,
0310
0010
0100
0100
0001
0001
1001
0000
,
0100
0100
0010
0010
1000
1000
0110
0000
,
1100
0100
0110
0010
,
0011
0001
1001
0100
,
0120
0000
0230
0300
,
2001
0000
3002
0003
,
0001
0001
0010
0010
0001
0001
0100
0100
,
1000
0010
1000
0010
1000
0100
1000
0100
,
0001
1000
0001
1000
0001
1000
0001
1000
,
0001
1000
0001
1000
0001
1000
0001
1000
,
0001
1000
0001
1000
0001
1000
0001
1000
,
0010
0010
0010
0010
0220
0000
0330
0000
,
1000
0000
0100
0000
1000
0000
0100
0000
1000
0100
1000
0100
1000
0100
1000
0100
,
0001
0000
0100
0000
0001
0000
0100
0000
0001
0100
0001
0100
0001
0100
0001
0100
,
1000
0010
1000
0010
1000
0010
1000
0010
0001
0100
0001
0100
0001
0100
0001
0100
,
1000
0001
1000
0001
1000
0001
1000
0001
1000
0001
1000
0001
1000
0001
1000
0001
,
0010
0010
0010
0010
0110
0000
0110
0000
,
0001
0001
0001
0001
1001
0000
1001
0000
,
1000
0100
1000
0100
0001
1000
0001
1000
,
0001
0001
0001
0001
0110
0000
0110
0000
,
2002
0000
0000
3000
0100
0000
0003
0000
,
1100
0000
1100
0000
1100
0000
0011
0000
0011
0000
0011
0000
,
0100
0000
0000
0000
,
0000
0000
0000
0000
,
0000
0000
0000
0000
0020
1000
0100
0031
,
0020
0130
2200
0000
,
0000
0000
0000
3300
0000
0000
0001
0000
0010
0000
0001
0000
0010
0000
0001
0000
0010
0000
0100
0000
1000
0000
0100
0000
,
2000
0000
0000
3000
0220
0000
0330
0000
,
0110
0000
2002
3003
,
1001
0000
0001
0001
,
1000
0000
1000
0000
0010
0001
0010
0001
,
0100
1000
0100
1000
0010
0010
0010
0001
,
0001
0001
1000
1000
1000
0100
0100
0100
,
0011
0000
0011
0000
1000
0100
1000
0100
,
1000
0010
1000
0010
1000
0001
1000
0001
,
1001
0000
1001
0000
0010
0100
0010
1000
,
0010
0001
0010
0100
0001
1000
0001
0010
,
0001
0100
0001
1000
0100
0010
0100
0001
,
0100
1000
0100
0010
1000
0001
1000
0100
,
1000
0010
1000
0001
1000
0100
1000
0010
,
1000
0001
1000
0010
0001
1000
0001
0100
,
0001
0010
0001
0100
0001
0001
1001
0000
,
1000
1000
1001
0000
0001
0001
0110
0000
,
1000
0000
1000
0000
0110
0000
0000
0000
0001
0010
0001
0010
0001
0010
0001
0010
,
0001
0010
0001
0010
0001
0010
0001
0010
0001
0010
0001
0010
0001
0010
0001
0010
,
0001
0010
0001
0010
0001
0010
0001
0010
0001
0010
0001
0010
0001
0010
0001
0010
,
0001
0010
0001
0010
0001
0010
0001
0010
0001
0010
0001
0010
0001
0010
0001
0010
,
0001
0010
0001
0010
1000
0100
1000
0100
,
1000
0100
1000
0100
1000
0010
1000
0010
,
1000
0000
0010
0000
1000
0000
0010
0000
1000
0001
1000
0001
1000
0001
1000
0001
,
1000
0001
1000
0001
1000
0001
1000
0001
1000
0001
1000
0001
1000
0001
1000
0001
,
1000
0001
1000
0001
1000
0001
1000
0001
1000
0000
0000
0000
0000
0000
0000
0000
;

//---------------dance-single - ----------------
#NOTES:
     dance-single:
     :
     Hard:
     18:
     0.000000,0.000000,0.000000,0.000000,0.000000,0.000000,0.000000,0.000000,0.000000,0.000000,0.000000,0.000000,0.000000,0.000000,0.000000,0.000000,0.000000,0.000000,0.000000,0.000000,0.000000,0.000000:
0000
0000
0000
0000
,
0000
0000
0000
0000
,
0000
0000
0000
0000
,
0000
0000
0000
0000
,
0000
0000
0000
0000
,
0000
0000
0000
0000
,
0000
0000
0000
0000
,
0000
0000
0000
0000
,
0000
0000
0001
0100
1000
0001
1000
0000
,
0001
1000
0000
0010
1000
0000
0100
1000
,
0000
0100
0010
0010
0001
0001
1000
1000
,
0010
0000
0010
0000
1000
0000
1000
0000
0100
0000
0100
0000
0001
1000
0000
0000
,
0100
0001
0000
0000
1000
0100
1000
0100
0001
0100
0001
0100
1000
0000
0000
0100
,
0010
0000
0000
0001
1000
0000
0000
0100
0010
0000
0000
0001
1000
0000
0000
0010
,
0001
0010
0001
0010
0100
1000
0100
1000
0100
0010
0100
0010
0001
0000
0000
0000
,
0000
1010
0000
0000
1001
0000
0000
1100
,
0001
0010
0001
0010
1000
0100
1000
0100
0002
0000
0000
0000
1003
0000
0000
0000
,
1000
1000
0000
1000
1000
0000
1000
1000
,
0000
1000
1000
0000
1000
1000
0001
0000
,
0001
0001
0000
0001
0001
0000
0001
0001
,
0000
0001
0001
0000
0001
0001
1000
0000
,
1000
1000
0000
1000
1000
0000
1000
1000
,
0000
1000
1000
0000
1000
1000
0001
0000
,
0001
0001
0000
0001
0001
0000
0001
0001
,
0000
0001
0001
0000
0001
0001
1001
0000
,
0010
0000
0010
0100
1010
0000
0100
0010
,
0101
0000
0001
0010
1100
0000
1000
0010
,
0101
0000
0001
0100
1010
0000
1000
0100
,
0011
0000
0001
0010
1000
0010
1000
1000
,
0110
0000
0001
0001
0110
0000
1000
1000
,
0011
0000
0001
0001
1100
0000
0001
0010
,
0101
0000
1000
0010
1100
0000
0001
0100
,
0011
0000
1000
0010
1100
0000
0002
2003
,
3020
0032
2003
3200
0302
2003
3020
0032
,
0203
0320
2030
3002
0023
0000
0000
0000
,
0130
0000
0110
0000
,
1100
1100
0101
0101
,
1000
1000
1000
1000
0001
0001
0001
0002
,
0000
0003
2000
3002
,
1003
0000
0100
0010
0000
0100
0001
0000
,
0000
0011
0110
1100
,
0000
0000
1010
0000
1000
0100
0001
0000
,
1001
1001
0110
0110
,
1000
1100
0100
1100
,
1000
0000
0110
0010
0000
0010
0110
0010
,
0100
0000
0011
0000
0011
0000
0011
0100
,
0000
0000
0000
0000
0001
1000
0001
1000
0001
1000
0001
1000
0001
1000
0001
1000
,
0001
0000
0010
0010
1100
0010
0010
0000
,
0000
0100
1100
0010
,
0000
0100
0110
1000
,
0000
0000
0011
0000
0000
0000
0000
0000
0011
0000
0000
0000
0010
0100
0010
0100
,
0010
0000
1010
1000
0000
0000
0110
0000
,
0000
0000
0011
0011
0100
0000
0100
0000
,
1001
1001
1100
1100
,
0101
0101
0101
0101
1010
1010
0011
0011
,
2200
3300
0220
0330
,
2200
3300
0202
0303
,
0011
0011
0011
0011
1001
1001
1001
1001
,
0011
0011
0011
0011
1010
1010
0101
0101
,
1000
0010
1000
0010
1000
0100
1000
0100
0001
0010
0001
0010
0001
0100
0001
0100
,
0010
1000
0010
1000
0010
0001
0010
0001
0100
1000
0100
1000
0100
0001
0100
0001
,
1000
1000
1100
1100
0001
0001
0101
0101
,
0010
0010
1010
1010
0100
0100
0101
0101
,
1100
0000
0000
0000
0010
0100
0010
0100
0020
0000
0030
0000
0100
0010
0100
0010
,
0200
0000
0300
0000
0001
0010
0001
0010
0002
0000
0003
0000
0100
1000
0100
1000
,
0200
0000
0300
0000
0001
0010
0001
0010
0100
1000
0100
1000
0100
0010
0100
0010
,
1000
0001
1000
0001
0010
0100
0010
0100
1000
0100
1000
0100
0010
1000
0010
1000
,
0100
0001
0001
0001
0110
1000
1000
1000
,
0110
0001
0001
0001
0110
1000
1000
1000
,
0200
0300
0200
0300
0200
0300
0200
0300
,
0010
0010
0010
0010
0010
0010
0010
0010
,
2002
0000
0000
0000
0000
0000
0000
0000
0000
0000
0000
0000
3000
0000
1003
0001
,
1000
0000
1100
0000
1100
0000
0001
0000
0101
0000
0101
0000
,
0000
0000
0000
0000
,
0000
0000
0000
0000
,
0000
0000
0000
0000
0100
0100
1000
0100
,
1000
0100
1000
0100
2002
0000
0000
0000
,
3003
0000
0000
0110
0000
0001
0010
0100
1000
0001
0010
0100
,
2000
3000
0011
0000
,
0010
0000
1010
0000
,
0110
0000
0000
0000
1001
0001
0001
0001
,
0011
0010
0010
0010
0110
0100
0100
0100
,
1100
1000
1000
1000
1001
0000
0100
1001
,
0000
0010
1001
0000
0100
1001
0000
0010
,
1001
0000
0000
0000
1000
0000
1000
0000
0001
0010
0001
0010
0001
0010
0001
0010
,
1001
0010
1000
0010
1000
0010
1000
0010
1000
0001
1000
0001
1000
0001
1000
0001
,
1000
0001
1000
0001
1000
0001
1000
0001
1000
0000
0000
0000
1001
0000
0000
0000
,
1001
0000
1001
0010
1001
0100
1001
0010
,
1001
0100
1001
0000
1100
0000
1100
0000
,
0110
0000
0110
0000
0011
0100
0011
0100
,
1001
0010
1001
0000
0010
0000
0110
0000
,
0010
0110
0100
1001
,
0100
0000
1001
0000
0011
0011
0011
0011
,
1100
1100
1100
1100
0001
0001
0001
0011
,
1000
0000
1000
0000
1000
0000
1000
0000
0001
1000
0001
1000
0001
1000
0001
1000
,
0001
1000
0001
1000
0001
1000
0001
1000
0010
1000
0010
1000
0010
1000
0010
1000
,
0010
1000
0010
1000
0010
1000
0010
1000
0100
0010
0100
0010
0100
0010
0100
0010
,
0100
0010
0100
0010
0100
0010
0100
0010
0100
0001
0100
0001
0100
0001
0100
0001
,
0100
0001
0100
0001
0100
0001
0100
0001
0100
0000
0000
0000
1100
0000
0000
0000
,
0100
0110
0100
0101
,
0100
0000
0000
0000
1001
0000
0000
0000
1001
0000
0000
0000
0100
0010
0100
0010
,
0100
0010
0100
0010
0100
0010
0100
0000
0110
0000
0000
0000
1000
0001
1000
0001
,
1000
0001
1000
0001
1000
0001
1000
0001
2000
0000
0000
0000
0000
0000
0000
0000
,
0000
0000
3000
0000
;

//---------------dance-single - ----------------
#NOTES:
     dance-single:
     :
     Beginner:
     5:
     0.193500,0.341401,0.118426,0.000000,0.000000,183.000000,167.000000,16.000000,0.000000,0.000000,0.000000,0.193500,0.341401,0.118426,0.000000,0.000000,183.000000,167.000000,16.000000,0.000000,0.000000,0.000000:
// measure 0
0000
0000
0000
0000
,  // measure 1
0000
0000
0000
0000
,  // measure 2
0000
0000
0000
0000
,  // measure 3
0000
0000
0000
0000
,  // measure 4
0000
0000
0000
0000
,  // measure 5
0000
0000
0000
0000
,  // measure 6
0000
0000
0000
0000
,  // measure 7
0000
0000
0000
0000
,  // measure 8
0000
0000
0000
1000
,  // measure 9
0000
1000
0000
1000
,  // measure 10
0000
1000
0000
0001
,  // measure 11
0000
0001
0000
0001
,  // measure 12
0000
0001
0000
1000
,  // measure 13
0000
1000
0000
1000
,  // measure 14
0000
1000
0000
0010
,  // measure 15
0000
0010
0000
0100
,  // measure 16
0000
0100
0000
0100
,  // measure 17
0000
0000
0000
0000
,  // measure 18
0000
0000
0000
0000
,  // measure 19
0000
0000
0000
0000
,  // measure 20
0000
0000
0000
0000
,  // measure 21
0000
0000
0000
0000
,  // measure 22
0000
0000
0000
0000
,  // measure 23
0000
0000
0000
0000
,  // measure 24
0000
0000
0000
1000
,  // measure 25
0000
1000
0000
0001
,  // measure 26
0000
0001
0000
0001
,  // measure 27
0000
0001
0000
0100
,  // measure 28
0000
0100
0000
1000
,  // measure 29
0000
1000
0000
0010
,  // measure 30
0000
0010
0000
0100
,  // measure 31
0000
0100
0000
0010
,  // measure 32
0000
0010
0000
0001
,  // measure 33
0000
0001
0000
1000
,  // measure 34
0000
1000
0000
0000
,  // measure 35
1001
0000
0000
0000
,  // measure 36
1001
0000
0000
0000
,  // measure 37
0110
0000
0000
0000
,  // measure 38
0110
0000
0000
0000
,  // measure 39
1000
0000
0001
0000
,  // measure 40
1000
0000
0001
0000
,  // measure 41
0100
0000
0010
0000
,  // measure 42
0100
0000
0010
0000
,  // measure 43
1000
0000
0010
0000
,  // measure 44
1000
0000
0010
0000
,  // measure 45
0100
0000
0001
0000
,  // measure 46
0100
0000
0001
0000
,  // measure 47
1000
0000
0100
0000
,  // measure 48
1000
0000
0100
0000
,  // measure 49
0010
0000
0001
0000
,  // measure 50
0010
0000
0001
0000
,  // measure 51
1000
0000
0001
0000
,  // measure 52
1000
0000
0001
0000
,  // measure 53
0010
0000
0010
0000
,  // measure 54
0100
0000
0100
0000
,  // measure 55
0011
0000
0000
0000
,  // measure 56
0011
0000
0000
0000
,  // measure 57
1100
0000
0000
0000
,  // measure 58
1100
0000
0000
0000
,  // measure 59
0001
0000
0100
0000
,  // measure 60
0001
0000
0100
0000
,  // measure 61
1000
0000
0010
0000
,  // measure 62
1000
0000
0010
0000
,  // measure 63
1000
0000
0100
0000
,  // measure 64
1000
0000
0100
0000
,  // measure 65
0010
0000
0001
0000
,  // measure 66
0010
0000
0001
0000
,  // measure 67
0100
0000
1000
0000
,  // measure 68
0100
0000
1000
0000
,  // measure 69
0001
0000
0010
0000
,  // measure 70
0001
0000
0010
0000
,  // measure 71
1100
0000
0000
0000
,  // measure 72
0011
0000
0000
0000
,  // measure 73
1001
0000
0000
0000
,  // measure 74
0000
0000
0000
0000
,  // measure 75
0000
0000
0010
0010
,  // measure 76
0010
0010
0010
0000
,  // measure 77
0000
0000
1001
0000
,  // measure 78
0000
0000
0110
0000
,  // measure 79
0000
0000
0110
0000
,  // measure 80
0000
0000
1100
0000
,  // measure 81
0000
0000
0011
0000
,  // measure 82
0000
0000
1000
0000
,  // measure 83
0100
0000
0010
0000
,  // measure 84
0001
0000
0100
0000
,  // measure 85
1000
0000
0010
0000
,  // measure 86
0001
0000
0001
0000
,  // measure 87
1000
0000
0001
0000
,  // measure 88
1000
0000
0010
0000
,  // measure 89
0100
0000
0010
0000
,  // measure 90
0100
0000
1000
0000
,  // measure 91
0001
0000
1000
0000
,  // measure 92
0001
0000
0100
0000
,  // measure 93
0010
0000
0100
0000
,  // measure 94
0010
0000
0001
0001
,  // measure 95
0001
0001
0001
0001
,  // measure 96
0001
0001
0010
0010
,  // measure 97
0010
0010
0010
0010
,  // measure 98
0010
0010
0100
0000
,  // measure 99
0100
0000
0100
0000
,  // measure 100
0100
0000
1000
1000
,  // measure 101
1000
1000
1000
1000
,  // measure 102
1000
1000
1000
0000
;
