#TITLE:ilomilo;
#SUBTITLE:;
#ARTIST:Billie Eilish;
#TITLETRANSLIT:;
#SUBTITLETRANSLIT:;
#ARTISTTRANSLIT:;
#GENRE:When We All Fall Asleep, Where Do We Go?;
#CREDIT:;
#BANNER:ilomilo-bn.png;
#BACKGROUND:ilomilo-bg.png;
#LYRICSPATH:;
#CDTITLE:;
#MUSIC:ilomilo.mp3;
#OFFSET:-0.024004;
#SAMPLESTART:50.024387;
#SAMPLELENGTH:14.749996;
#LASTBEATHINT:227.016586;
#SELECTABLE:YES;
#DISPLAYBPM:120.000000;
#BPMS:0.000000=120.000000
,84.000000=480.000000
,90.000000=120.000000
,91.000000=480.000000
,98.000000=120.000000
,164.000000=480.000000
,170.000000=120.000000
,171.000000=480.000000
,178.000000=120.000000
;
#STOPS:84.000000=0.094000,
84.250000=0.094000,
84.500000=0.094000,
84.750000=0.093000,
85.000000=0.094000,
85.250000=0.094000,
85.500000=0.094000,
85.750000=0.093000,
86.000000=0.094000,
86.250000=0.094000,
86.500000=0.094000,
86.750000=0.093000,
87.000000=0.094000,
87.250000=0.094000,
87.500000=0.094000,
87.750000=0.093000,
88.000000=0.094000,
88.250000=0.094000,
88.500000=0.094000,
88.750000=0.093000,
89.000000=0.094000,
89.250000=0.094000,
89.500000=0.094000,
89.750000=0.093000,
91.000000=0.094000,
91.250000=0.094000,
91.500000=0.094000,
91.750000=0.093000,
92.000000=0.094000,
92.250000=0.094000,
92.500000=0.094000,
92.750000=0.093000,
93.000000=0.094000,
93.250000=0.094000,
93.500000=0.094000,
93.750000=0.093000,
94.000000=0.094000,
94.250000=0.094000,
94.500000=0.094000,
94.750000=0.093000,
95.000000=0.094000,
95.250000=0.094000,
95.500000=0.094000,
95.750000=0.093000,
96.000000=0.094000,
96.250000=0.094000,
96.500000=0.094000,
96.750000=0.093000,
97.000000=0.094000,
97.250000=0.094000,
97.500000=0.094000,
97.750000=0.093000,
164.000000=0.094000,
164.250000=0.094000,
164.500000=0.094000,
164.750000=0.093000,
165.000000=0.094000,
165.250000=0.094000,
165.500000=0.094000,
165.750000=0.093000,
166.000000=0.094000,
166.250000=0.094000,
166.500000=0.094000,
166.750000=0.093000,
167.000000=0.094000,
167.250000=0.094000,
167.500000=0.094000,
167.750000=0.093000,
168.000000=0.094000,
168.250000=0.094000,
168.500000=0.094000,
168.750000=0.093000,
169.000000=0.094000,
169.250000=0.094000,
169.500000=0.094000,
169.750000=0.093000,
171.000000=0.094000,
171.250000=0.094000,
171.500000=0.094000,
171.750000=0.093000,
172.000000=0.094000,
172.250000=0.094000,
172.500000=0.094000,
172.750000=0.093000,
173.000000=0.094000,
173.250000=0.094000,
173.500000=0.094000,
173.750000=0.093000,
174.000000=0.094000,
174.250000=0.094000,
174.500000=0.094000,
174.750000=0.093000,
175.000000=0.094000,
175.250000=0.094000,
175.500000=0.094000,
175.750000=0.093000,
176.000000=0.094000,
176.250000=0.094000,
176.500000=0.094000,
176.750000=0.093000,
177.000000=0.094000,
177.250000=0.094000,
177.500000=0.094000,
177.750000=0.093000
;
#BGCHANGES:-0.500=ilomilo-video.avi=1.000=1=0=1===CrossFade==,
99999=-nosongbg-=1.000=0=0=0 // don't automatically add -songbackground-
;
#KEYSOUNDS:;
#ATTACKS:;

//---------------dance-single - ----------------
#NOTES:
     dance-single:
     :
     Hard:
     7:
     0.458639,0.443084,0.561394,0.140348,0.000000,366.000000,302.000000,64.000000,16.000000,0.000000,0.000000,0.458639,0.443084,0.561394,0.140348,0.000000,366.000000,302.000000,64.000000,16.000000,0.000000,0.000000:
0000
0000
0000
0000
,
0000
1010
0000
1010
0000
0011
0000
0011
,
0000
1010
0000
1010
0000
0011
0000
0011
,
0000
1100
0000
1100
0000
0101
0000
0101
,
0000
1100
0000
1100
0000
0101
0000
0101
,
0000
0002
0000
0010
0000
0103
0000
1001
,
0000
2000
0000
0100
0000
3010
0000
1001
,
0000
0020
0000
0001
0000
1030
0000
0110
,
0000
0200
0000
1000
0000
0301
0000
1001
,
0000
0001
0000
0010
0001
0100
0000
1000
,
0010
0001
0000
0010
1000
0100
1000
0010
,
1000
0100
0000
0010
0001
1000
0000
0010
,
1000
0001
0100
0010
0000
1000
0000
1001
,
0001
0100
0010
1000
0000
1000
0010
0001
,
0000
0001
0010
1000
0000
1000
0100
0010
,
0100
0001
0100
1000
0000
0001
0100
1000
,
0000
1000
0100
0001
0000
1000
0100
0000
,
0010
0001
0100
0001
0010
0001
0100
0001
,
0010
0100
0010
0100
,
0010
1000
0100
1000
0010
1000
0100
1000
,
0010
0100
0010
0100
,
0001
0100
1000
0100
0001
0100
1000
0100
,
0001
0100
0001
0000
1000
0000
1010
0000
,
0001
0010
1000
0010
0001
0010
1000
0010
,
0001
1000
0001
0000
0100
0000
1001
0000
,
1000
0100
0010
0002
0000
1003
0010
2000
,
0000
3001
0100
0020
0000
0130
0001
1000
,
0001
0100
0010
2000
0000
3100
0010
0002
,
0000
1003
0010
0200
0000
0310
1001
0000
,
1000
1100
0001
0101
,
0010
0000
0100
1000
0010
0100
0001
0100
,
0001
1100
1000
0101
,
0001
0000
1100
0100
0010
0100
1000
0100
,
0010
0011
1000
1010
,
0100
0000
0011
0000
0001
0100
0010
1000
,
0001
1100
0010
0101
,
0100
1010
0001
0110
,
1000
0100
0001
0000
0001
0100
1000
0000
,
1000
0100
0001
0100
1000
0100
1000
0100
,
0010
0100
1000
0000
0001
0010
0001
0000
,
1000
0010
1000
0000
0001
0100
0010
0000
,
1000
0100
0001
0100
1000
0100
0001
0100
,
1000
0001
1000
0100
1000
0000
1100
0000
,
0001
0100
1000
0100
0001
1000
0001
0100
,
1000
0100
0001
1000
0001
0000
0101
0000
,
0000
1010
0000
1010
0000
0011
0000
0011
,
0000
1010
0000
1010
0000
0011
0000
0011
,
0000
1100
0000
1100
0000
0101
0000
0101
,
0000
1100
0000
1100
0000
0101
0000
0101
,
0001
0100
0010
2000
0000
3001
0010
2000
,
0000
3001
0100
2000
0000
3010
1000
0100
,
1000
0010
0100
0002
0000
1003
0100
0002
,
0000
1003
0010
0002
0000
0000
0103
0000
,
0001
0101
0000
1100
0000
0011
0000
1010
,
0000
1001
0000
0000
0000
0000
0000
0000
,
1000
1100
0000
0101
0000
1010
0000
0011
,
0000
1001
0000
0000
0000
0000
0000
0000
;

//---------------dance-single - ----------------
#NOTES:
     dance-single:
     :
     Medium:
     6:
     0.348365,0.374171,0.175436,0.035087,0.000000,278.000000,258.000000,20.000000,4.000000,0.000000,0.000000,0.348365,0.374171,0.175436,0.035087,0.000000,278.000000,258.000000,20.000000,4.000000,0.000000,0.000000:
0000
0000
0000
0000
,
0000
0001
0000
0100
0000
1000
0000
0100
,
0000
0001
0000
0100
0000
1000
0000
0100
,
0000
0001
0000
0010
0000
0100
0000
0011
,
0000
1000
0000
0010
0000
0100
0000
1010
,
0000
0001
0000
0010
0000
1000
0000
0010
,
0000
0001
0000
0010
0000
1000
0000
0010
,
0000
0100
0000
0010
0000
1000
0000
1100
,
0000
0010
0000
0100
0000
0001
0000
0011
,
0000
1000
0000
0001
0000
0100
0000
0010
,
0000
2000
0000
0000
0000
0000
0000
3000
,
0000
0001
0000
1000
0000
0100
0000
0010
,
0000
0002
0000
0000
0000
0000
0003
0000
,
1000
0100
1000
0100
0000
0010
0100
0010
,
0000
0001
0010
0001
0000
1000
0001
1000
,
0000
0010
1000
0010
0000
0100
0001
0100
,
0000
0010
1000
0010
0000
0000
0100
0000
,
0001
0010
0100
1000
,
0001
0010
0001
0010
,
0001
0100
1000
0100
,
0001
0100
0001
0100
,
0001
0010
0001
0000
0010
0001
0010
0000
,
0100
1000
0100
0000
1000
0100
1000
0000
,
0010
1000
0010
0000
1000
0010
1000
0000
,
0010
1000
0010
0000
0100
0000
1001
0000
,
0010
0001
0010
0001
0000
1000
0001
1000
,
0000
0001
0100
0001
0000
1000
0001
1000
,
0000
0010
1000
0010
0000
1000
0001
1000
,
0000
0100
1000
0100
0000
0000
0010
0000
,
0001
0100
0001
0000
0010
0001
0010
0000
,
0100
1000
0100
0000
0010
0000
0001
0000
,
0100
0001
0100
0000
0010
1000
0010
0000
,
1000
0100
1000
0000
0001
0000
0010
0000
,
0100
1100
0001
0101
,
1000
0000
1100
0000
0001
0010
0001
0010
,
0001
0011
1000
1010
,
0100
0101
0010
0110
,
1000
1001
0100
0101
,
1000
1001
0100
1100
,
0001
1001
0010
0011
,
1000
1001
0010
1010
,
0001
1000
0001
0000
1000
0001
1000
0000
,
0001
0100
0001
0000
0100
0001
0100
0000
,
0001
1000
0001
0000
1000
0001
1000
0000
,
0001
1000
0001
0000
1000
0001
1000
0000
,
0100
0010
0100
0010
,
0001
0100
1000
0100
,
0001
0100
0001
0000
1000
0010
1000
0000
,
0001
0010
0001
0000
0010
0000
0100
0000
,
0000
1000
0100
1000
0000
0001
1000
0001
,
0000
0100
0001
0100
0000
0001
1000
0001
,
0000
0010
0001
0010
0000
0100
1000
0100
,
0000
0010
0100
0010
0000
0000
0001
0000
,
0000
1000
0000
0010
0000
0100
0000
0001
,
0000
2000
0000
0000
0000
0000
0000
3000
,
0000
0001
0000
0010
0000
0100
0000
1000
,
0000
0020
0000
0000
0000
0000
0000
0030
;

//---------------dance-single - ----------------
#NOTES:
     dance-single:
     :
     Easy:
     4:
     0.255635,0.270774,0.017544,0.096490,0.000000,204.000000,202.000000,2.000000,11.000000,0.000000,0.000000,0.255635,0.270774,0.017544,0.096490,0.000000,204.000000,202.000000,2.000000,11.000000,0.000000,0.000000:
0000
0000
0000
0000
,
0000
1000
0000
1000
0000
0100
0000
0100
,
0000
0001
0000
0001
0000
0100
0000
0100
,
0000
1000
0000
1000
0000
0001
0000
0001
,
0000
0010
0000
0010
0000
0100
0000
0100
,
0000
1000
0000
1000
0000
0001
0000
0001
,
0000
1000
0000
1000
0000
0100
0000
0100
,
0000
0001
0000
0001
0000
0100
0000
0100
,
0000
1000
0000
1000
0000
0010
0000
0010
,
0000
0100
0000
0100
0000
0010
0000
0010
,
0000
1000
0000
1000
0000
0001
0000
0001
,
0000
0010
0000
0010
0000
0100
0000
0100
,
0000
1000
0000
1000
0000
0001
0000
0001
,
0000
0010
0000
0001
0000
0010
0000
0001
,
0000
1000
0000
0001
0000
1000
0000
0001
,
0000
1000
0000
0100
0000
1000
0000
0100
,
0000
0010
0000
0100
0000
0010
0000
0100
,
0000
1000
0000
0001
0000
1000
0000
0001
,
0000
0100
0000
0001
0000
0100
0000
0001
,
0000
1000
0000
0010
0000
1000
0000
0010
,
0000
1000
0000
0010
0000
0000
0000
0000
,
0100
0100
0100
0100
,
0100
0100
0100
0010
,
1000
1000
1000
1000
,
0100
0100
0100
0010
,
0001
1000
0001
1000
,
0010
1000
0001
1000
,
0100
1000
0001
1000
,
0001
0100
0001
1000
,
0001
0010
0001
0010
,
0100
0010
0100
0010
,
0100
1000
0001
1000
,
0100
1000
0001
0100
,
0020
0130
0020
0130
,
0020
0130
0001
1000
,
0200
0310
0200
0310
,
0002
1003
0020
0130
,
0002
0103
2000
3100
,
0001
0100
1000
0100
,
0002
1003
2000
3001
,
0010
0100
0010
0100
,
1000
0010
1000
0010
,
0100
0001
0100
1001
,
0001
0100
0001
0100
,
0010
1000
0010
1001
,
0000
1000
0100
0100
,
0000
0001
0000
0010
,
0000
0001
0100
0100
,
0000
1000
0000
0010
,
0000
0100
0000
0010
,
0000
1000
0000
0100
,
0000
0010
0000
0001
,
0000
1000
0000
0010
,
0000
0100
0000
0100
0000
0100
0000
0100
,
0000
0010
0000
0000
0000
0000
0000
0000
,
0000
1000
0000
1000
0000
1000
0000
1000
,
0000
0001
0000
0000
0000
0000
0000
0000
;

//---------------dance-single - ----------------
#NOTES:
     dance-single:
     :
     Beginner:
     1:
     0.127817,0.161949,0.000000,0.035087,0.000000,102.000000,102.000000,0.000000,4.000000,0.000000,0.000000,0.127817,0.161949,0.000000,0.035087,0.000000,102.000000,102.000000,0.000000,4.000000,0.000000,0.000000:
0000
0000
0000
0000
,
0000
1000
0000
0000
0000
1000
0000
0000
,
0000
1000
0000
0000
0000
1000
0000
0000
,
0000
0100
0000
0000
0000
0100
0000
0000
,
0000
0010
0000
0000
0000
0010
0000
0000
,
0000
0001
0000
0000
0000
0001
0000
0000
,
0000
0100
0000
0000
0000
0100
0000
0000
,
0000
0010
0000
0000
0000
0010
0000
0000
,
0000
1000
0000
0000
0000
1000
0000
0000
,
0000
0001
0000
0001
0000
0001
0000
0001
,
0000
0001
0000
0000
0000
0000
0000
0000
,
0000
1000
0000
1000
0000
1000
0000
1000
,
0000
1000
0000
0000
0000
0000
0000
0000
,
0010
0000
0100
0000
,
0001
0000
1000
0000
,
0100
0000
0010
0000
,
0001
0000
1000
0000
,
0010
0000
0100
0000
,
0010
0000
0100
0000
,
0001
0000
1000
0000
,
0001
0000
1000
0000
,
0200
0000
0000
0000
,
0000
0300
0000
0010
,
0020
0000
0000
0000
,
0000
0030
0000
0001
,
0001
0001
0000
1000
,
0000
0010
0000
0100
,
0000
0010
0000
0001
,
0000
0100
0000
1000
,
0000
0001
0000
1000
,
0000
0001
0000
1000
,
0000
0010
0000
1000
,
0000
0100
0000
0001
,
0001
0001
0000
1000
,
0000
0001
0000
0010
,
0010
0010
0000
0100
,
0000
1000
0000
0010
,
0010
0010
0000
0100
,
0000
0100
0000
0001
,
0001
0001
0000
1000
,
0000
0100
0000
0000
,
0020
0000
0000
0000
,
0000
0030
0000
0001
,
0002
0000
0000
0000
,
0003
0000
0000
1000
,
0000
0100
0000
0001
,
0000
0100
0000
1000
,
0000
0001
0000
0010
,
0000
1000
0000
0010
,
0000
0100
0000
0100
,
0000
0010
0000
0010
,
0000
0100
0000
0100
,
0000
0010
0000
0010
;

//---------------dance-single - ----------------
#NOTES:
     dance-single:
     :
     Challenge:
     9:
     0.647858,0.763090,0.429817,0.061402,0.403502,517.000000,468.000000,49.000000,7.000000,0.000000,0.000000,0.647858,0.763090,0.429817,0.061402,0.403502,517.000000,468.000000,49.000000,7.000000,0.000000,0.000000:
// measure 0
0000
0000
0000
0000
0010
1000
0001
1000
,  // measure 1
0100
0000
0010
0000
0001
0000
1000
0000
0000
0001
1000
0000
0001
0000
0100
0000
,  // measure 2
0001
0000
1000
0000
0001
0000
0100
0000
0000
0010
1000
0000
0100
0000
0010
0000
,  // measure 3
0001
0000
0100
0000
0001
0000
0010
0000
0000
0100
1000
0000
0010
0000
1000
0000
,  // measure 4
0100
0000
0010
0000
0100
0000
1000
0000
0000
0001
0100
0000
0001
0000
1000
0000
,  // measure 5
0010
0000
0100
0000
0001
0000
0010
0000
0000
0001
0010
0000
1000
0000
0010
0000
,  // measure 6
0100
0000
1000
0000
0100
0000
0010
0000
0000
0001
0100
0000
0010
0000
1000
0000
,  // measure 7
0010
0000
0100
0000
0001
0000
0100
0000
0000
0001
1000
0000
0001
0000
0010
0000
,  // measure 8
0100
0000
1000
0000
0100
0000
0010
0000
0000
0001
0100
0000
0010
0000
0000
0000
,  // measure 9
1000
1100
0100
1100
0010
1100
0001
1100
,  // measure 10
0010
1100
0000
0010
0001
0100
0010
0100
,  // measure 11
0001
0011
0010
0011
0100
0011
1000
0011
,  // measure 12
0100
0011
0000
0100
0000
0010
0000
1000
,  // measure 13
0100
0001
0100
1000
0000
0001
0100
1000
,  // measure 14
0000
0001
0100
1000
0000
0001
0100
0010
,  // measure 15
0100
1000
0010
0001
0000
1000
0010
0001
,  // measure 16
0000
1000
0100
0010
0000
0001
0100
0000
,  // measure 17
0010
1000
0010
1000
0010
1000
0010
1000
0010
1000
0010
1000
0010
1000
0010
1000
,  // measure 18
0010
0100
0000
0010
0000
1000
0000
0100
,  // measure 19
0001
0100
0001
0100
0001
0100
0001
0100
0001
0100
0001
0100
0001
0100
0001
0100
,  // measure 20
0001
0010
0000
0100
0000
1000
0000
0010
,  // measure 21
0100
0001
0100
0001
1000
0001
0100
0001
0100
0001
0100
0001
1000
0001
0100
0001
,  // measure 22
0100
0001
0100
0001
1000
0001
0100
0001
0100
0000
0000
0000
0010
1000
0001
1000
,  // measure 23
0001
1000
0001
1000
0010
1000
0001
1000
0001
1000
0001
1000
0010
1000
0001
1000
,  // measure 24
0001
1000
0001
1000
0010
1000
0001
1000
0001
0000
0000
0000
0101
0000
0000
0000
,  // measure 25
1000
0001
0100
1000
0000
0001
0010
1000
,  // measure 26
0000
0001
0100
1000
0000
0001
0010
1000
,  // measure 27
0100
0010
0100
1000
0000
1000
0010
0001
,  // measure 28
0000
0001
0100
1000
0000
1000
0100
0000
,  // measure 29
0001
0010
0001
0010
0001
0010
0001
0010
0001
0010
0001
0010
0001
0010
0001
0010
,  // measure 30
0001
0100
0010
0100
1000
0100
0010
0100
,  // measure 31
0010
1000
0010
1000
0010
1000
0010
1000
0010
1000
0010
1000
0010
1000
0010
1000
,  // measure 32
0010
0100
0001
1000
0100
0010
0100
1000
,  // measure 33
0001
0010
1001
0010
0001
0010
1001
0010
,  // measure 34
0100
1000
1001
1000
0100
1000
1001
1000
,  // measure 35
0010
1000
1001
1000
0010
1000
1001
1000
,  // measure 36
0010
0100
1001
0100
0010
0100
1001
0100
,  // measure 37
0001
0101
0010
0101
0100
0101
1000
0101
,  // measure 38
0010
0101
0000
0010
0000
0100
0000
0010
,  // measure 39
1000
1010
0100
1010
0010
1010
0001
1010
,  // measure 40
0100
1010
0000
0001
0000
1000
0010
0100
,  // measure 41
0001
0010
0001
0010
0100
0010
0001
0010
0001
0010
0001
0010
0100
0010
0001
0010
,  // measure 42
0001
0010
0001
0010
0100
0010
0001
0010
0001
0000
0000
0000
1000
0100
0010
0100
,  // measure 43
0010
0100
0010
0100
1000
0100
0010
0100
0010
0100
0010
0100
1000
0100
0010
0100
,  // measure 44
0010
0100
0010
0100
1000
0100
0010
0100
0010
0000
0001
0000
1000
0000
0100
0000
,  // measure 45
1000
1001
0100
1001
0010
1001
0001
1001
,  // measure 46
0010
1001
0000
0100
0000
0010
0000
0100
,  // measure 47
0001
0110
0010
0110
0100
0110
1000
0110
,  // measure 48
0001
0110
0000
1000
0000
0001
0000
0100
,  // measure 49
0001
0010
0100
2000
0000
3010
0100
0002
,  // measure 50
0000
0103
0010
2000
0000
3010
0100
0001
,  // measure 51
1000
0001
0100
0020
0000
1030
0100
0020
,  // measure 52
0000
0031
1000
0200
0000
0000
0320
0000
,  // measure 53
0031
0101
0000
1001
0000
1010
0000
0110
,  // measure 54
0000
1001
0000
0000
0000
0000
0000
0000
,  // measure 55
0010
1100
0000
0011
0000
0101
0000
1010
,  // measure 56
0000
0110
0000
0000
0000
0000
0000
0000
;
