#VERSION:0.83;
#TITLE:edamame;
#SUBTITLE:;
#ARTIST:bbno$ feat. Rich Brian;
#TITLETRANSLIT:;
#SUBTITLETRANSLIT:;
#ARTISTTRANSLIT:;
#GENRE:eat ya veggies;
#ORIGIN:;
#CREDIT:;
#BANNER:edamame-bn.png;
#BACKGROUND:Black.png;
#PREVIEWVID:edamame-preview.avi;
#JACKET:edamame-jacket.png;
#CDIMAGE:;
#DISCIMAGE:edamame-bg.png;
#LYRICSPATH:;
#CDTITLE:;
#MUSIC:edamame.mp3;
#OFFSET:-0.022006;
#SAMPLESTART:4.542246;
#SAMPLELENGTH:18.113209;
#SELECTABLE:YES;
#BPMS:0.000=106.000;
#STOPS:;
#DELAYS:;
#WARPS:;
#TIMESIGNATURES:0.000=4=4;
#TICKCOUNTS:0.000=2;
#COMBOS:0.000=1;
#SPEEDS:0.000=1.000=0.000=0;
#SCROLLS:0.000=1.000;
#FAKES:;
#LABELS:0.000=Song Start;
#LASTSECONDHINT:133.072815;
#BGCHANGES:0.000=edamame-video.avi=1.000=0=0=0=StretchNoLoop====,
99999=-nosongbg-=1.000=0=0=0 // don't automatically add -songbackground-
;
#KEYSOUNDS:;
#ATTACKS:
;

//---------------dance-single - ----------------
#NOTEDATA:;
#CHARTNAME:;
#STEPSTYPE:dance-single;
#DESCRIPTION:;
#CHARTSTYLE:;
#DIFFICULTY:Challenge;
#METER:10;
#RADARVALUES:0.775987,0.722995,0.528837,0.249309,0.959461,719.000000,649.000000,70.000000,33.000000,0.000000,0.000000,0.000000,0.000000,0.000000,0.775987,0.722995,0.528837,0.249309,0.959461,719.000000,649.000000,70.000000,33.000000,0.000000,0.000000,0.000000,0.000000,0.000000;
#CREDIT:;
#NOTES:
0000
0000
0000
0000
,
0000
0000
0000
0000
,
0101
0000
0100
0010
0100
0000
0001
1000
0010
0100
0001
0000
1000
0010
1000
0000
,
0100
0000
1100
0000
0101
0000
0110
0000
1001
0000
0001
0010
0100
1000
0010
0000
,
1010
1000
0100
0010
0001
0100
0010
1000
0100
0000
2000
0000
0010
0000
3001
0000
,
1001
0000
0101
0000
1001
0000
0001
1000
0010
0100
0001
0010
0100
1000
0010
0000
,
2020
0000
3030
0000
0100
0010
0202
0000
0303
0000
1000
0000
0100
1000
0001
0010
,
0022
0000
0033
0000
0100
0010
2200
0000
3300
0000
0010
0000
1000
0001
0100
0010
,
0220
0000
0330
0000
1000
0001
0100
0000
0001
0000
0001
0010
0100
1000
0010
0100
,
0001
0000
0000
0000
1000
0010
0100
0001
1000
0000
0001
0010
0100
1000
0100
0010
,
0001
0000
0001
0010
0000
0010
0100
1000
0100
0010
0000
0010
0001
0100
0001
0010
,
0000
0010
0100
1000
0010
0100
0010
1000
0000
1000
0001
0100
0010
0100
0001
1000
,
0000
1000
0001
0000
0001
0100
0010
0100
0001
0000
1000
0010
0100
0010
1000
0000
,
1000
0100
1000
0000
1000
0010
0100
0001
0010
0100
1000
0001
0000
0001
0010
0000
,
0100
1000
0010
0000
0010
0100
0001
1000
0100
0010
0100
0000
0100
1000
0001
1000
,
0010
0100
0001
0010
0100
1000
0100
0010
0001
1000
0001
0000
0100
0000
0010
1000
,
0100
0010
0001
1000
0100
1000
0001
0100
0010
0100
0001
0000
1000
0000
0010
1000
,
0010
0000
0100
0001
0010
0100
1000
0010
0100
0010
1000
0000
0001
0000
0000
0000
,
1010
0000
1000
0100
0000
0100
1000
0000
0001
0100
0000
0100
0010
0000
1000
0001
,
0000
0001
0010
0000
0100
1000
0000
1000
0010
0000
0100
0001
0000
0001
1000
0000
,
0110
0000
0100
0001
0000
1000
0100
0000
0001
1000
0000
0010
0001
0000
1000
0001
,
0000
0010
1000
0000
0100
0001
0000
1000
0100
0000
0010
0001
1000
0000
0010
0000
,
1010
0000
1000
0100
1000
0100
1000
0100
0001
0100
1000
0000
0010
0000
0100
0001
,
0010
0100
0010
0001
0100
0000
0010
0000
1010
1000
0010
0000
1001
0000
0000
0000
,
0110
0000
0100
0000
0001
0000
1000
0010
0100
0001
0010
0100
1000
0000
0010
0000
,
1000
0001
1000
0100
1000
0000
0001
0010
0100
1000
0100
0000
0100
0000
0000
0000
,
1010
0000
1000
0001
1000
0000
0001
0010
0100
0010
0001
0000
1000
0100
0010
0000
,
0001
0000
0011
0000
1010
0000
0101
0000
1001
0000
0001
0010
0100
1000
0010
0000
,
1100
1000
0010
0100
0001
0010
0100
1000
0010
0000
0200
0000
1000
0000
0310
0000
,
1010
0000
0011
0000
1001
0000
0001
1000
0010
0100
0001
0010
0100
1000
0010
0000
,
0202
0000
0303
0000
0100
0010
2200
0000
3300
0000
1000
0000
0010
0100
0001
1000
,
2002
0000
3003
0000
0100
0010
0022
0000
0033
0000
0010
0000
0100
1000
0001
0100
,
0202
0000
0303
0000
0001
1000
0100
0000
0010
0000
0010
0001
1000
0010
0100
0001
,
0010
0000
0000
0000
0100
1000
0100
0010
0001
0000
1000
0100
0010
0001
0100
0010
,
1000
0001
0100
0001
1000
0010
1000
0001
1000
0000
0100
1000
0001
1000
0100
0000
,
0010
0001
0100
0010
0100
0001
1000
0010
1000
0000
1000
0100
0010
0001
0100
0000
,
0101
0100
0001
1000
0100
0010
1000
0010
0100
0000
0100
1000
0000
1000
0001
1000
,
0010
0100
0001
0100
0010
0000
1000
0010
0100
0000
0001
0010
0000
0100
1000
0100
,
0100
0010
0000
0001
0000
1000
1000
0010
0000
0100
0000
0001
0001
0010
0000
1000
,
0000
1000
0010
0100
0001
0010
0100
1000
1000
0010
0000
0100
0000
0010
1000
0100
,
0010
0001
0100
0010
0001
0010
0100
0001
1000
0010
0000
1000
0000
0100
1000
0001
,
0000
1000
0000
0010
0100
0001
1000
0100
0010
0100
0000
1000
0000
0000
0001
0000
,
0100
0010
0100
0001
0100
0010
0100
0001
0101
0000
0110
0000
1100
0000
1001
0000
,
1000
0010
1000
0001
1000
0100
1000
0001
1001
0000
0101
0000
1001
0000
1100
0000
,
0100
1000
0100
0010
0001
0000
0010
0100
1100
0000
1100
0000
1100
0000
1100
0000
,
1000
0010
0100
0001
0010
0100
1000
0010
0110
0000
1010
0000
0110
0000
0101
0000
,
1001
0000
0001
0010
0001
0100
0001
0100
1000
0100
0001
0000
0010
0000
0100
1000
,
0010
0100
0010
1000
0100
0000
0010
0000
0011
0001
1000
0000
1001
0000
0000
0000
,
1010
0000
0010
0000
0100
0000
0001
0010
0100
0010
0001
1000
0001
0000
0100
0000
,
0010
1000
0001
0010
0100
0000
1000
0100
0010
0001
0100
0000
0100
0000
0000
0000
,
0101
0000
0001
0010
0100
0000
1000
0010
0100
0010
1000
0000
0001
0010
0100
0000
,
1000
0000
1100
0000
0011
0000
1100
0000
0011
0000
1000
0010
0001
0010
1000
0000
,
1010
1000
0001
0010
0001
1000
0100
0010
0100
0000
2000
0000
0001
0000
3100
0000
,
0101
0000
1010
0000
1001
0000
1000
0001
0100
0010
1000
0100
0010
0001
0100
0000
,
2002
0000
3003
0000
1000
0100
0022
0000
0033
0000
0001
0000
0100
0010
0100
0010
,
2002
0000
3003
0000
0010
0100
2020
0000
3030
0000
1000
0000
0001
0100
0010
1000
,
0202
0000
0303
0000
1000
0001
0010
0000
0110
0000
0100
1000
0010
0100
0001
0010
,
0100
0000
0000
0000
1000
0001
0100
0010
1000
0000
1000
0010
0001
0010
1000
0010
,
0001
0000
0000
0000
;

//---------------dance-single - ----------------
#NOTEDATA:;
#CHARTNAME:;
#STEPSTYPE:dance-single;
#DESCRIPTION:;
#CHARTSTYLE:;
#DIFFICULTY:Hard;
#METER:9;
#RADARVALUES:0.550422,0.569633,0.596830,0.000000,0.271973,510.000000,431.000000,79.000000,0.000000,0.000000,0.000000,0.000000,0.000000,0.000000,0.550422,0.569633,0.596830,0.000000,0.271973,510.000000,431.000000,79.000000,0.000000,0.000000,0.000000,0.000000,0.000000,0.000000;
#CREDIT:;
#NOTES:
0000
0000
0000
0000
,
0000
0000
0000
0000
,
1001
0000
0001
0100
0001
0000
1000
0000
0001
0100
0001
0000
1000
0001
0100
0000
,
0001
0000
0100
0000
0010
0000
1000
0000
0001
0000
1000
0001
1000
0000
0110
0000
,
0001
0100
0001
0000
1000
0000
0010
1000
0010
0000
0100
0000
0001
0000
0010
0000
,
0011
0000
0011
0000
1010
0000
1000
0000
1000
0001
1000
0000
0010
0100
0010
0000
,
1001
0000
0010
1000
0100
0100
0010
0100
,
1100
0000
0010
0100
0001
0001
0010
0001
,
1001
0000
0001
0100
0010
1000
0100
0010
,
0100
0000
0000
0000
1001
0000
0000
0000
1000
0001
0000
1000
0001
0000
1000
0001
,
0100
0000
0000
0010
0000
0000
1000
0000
0000
0100
0000
0000
0010
0000
0000
0001
,
0000
1000
0001
0010
0100
1000
1000
0010
,
0100
0000
0010
0000
0000
1000
0000
0000
0100
0000
0000
0010
0000
0000
0001
0000
,
0000
1000
0000
0000
0001
0000
0100
0000
0010
0000
1000
0000
0100
0000
0010
0000
,
0001
1000
0001
0000
0010
0000
0100
0000
1000
0000
1000
0000
0010
0000
1000
0000
,
0001
0100
0001
0000
0100
0000
0010
0000
1000
0000
0100
0000
0010
0000
0100
0000
,
1000
0100
1000
0000
0010
0000
0100
0000
0100
0000
0010
0000
1000
0000
0001
0000
,
0010
0000
0000
0000
0110
0000
0000
0000
1000
0100
0000
1000
0100
0000
0010
0100
,
0000
0000
1100
0000
0000
0101
0000
0000
0011
0000
0000
0101
0000
0000
1100
0000
,
0000
1010
0000
0000
0110
0000
0000
0101
0000
0000
0011
0000
1100
0000
0000
0000
,
0000
0000
0110
0000
0000
0101
0000
0000
1001
0000
0000
1100
0000
0000
1010
0000
,
0000
1001
0000
0000
1100
0000
0000
0101
0000
0000
0011
0000
1001
0000
0000
0000
,
0010
1000
0001
0001
,
0010
0000
0000
0000
0010
0000
0000
0000
0100
1000
0100
0000
1000
0000
0000
0000
,
0001
0010
0100
1000
0001
0100
0010
0000
,
1000
0000
0000
0000
1001
0000
0000
0000
1000
0001
0000
1000
0001
0000
1000
0001
,
1000
0000
0001
0100
0001
0000
1000
0000
0001
0100
0001
0000
1000
0001
0100
0000
,
0001
0000
0101
0000
0101
0000
1010
0000
1010
0000
1000
0001
0100
0000
0010
0000
,
1000
0010
0100
0000
0001
0000
0010
0100
1000
0000
0001
0000
0010
0000
0001
0000
,
0011
0000
0011
0000
1010
0000
1000
0000
1000
0001
1000
0000
0010
0100
0010
0000
,
1001
0000
1000
0001
0100
0010
0100
0100
,
0101
0000
0001
1100
0001
0001
0010
0100
,
1001
0000
0001
1000
0010
0001
1000
0100
,
0001
0000
0000
0000
1001
0000
0000
0000
1000
0001
0000
1000
0001
0000
1000
0001
,
1000
0100
1000
0100
0010
0100
1000
0100
,
0001
0100
1000
0100
0010
0100
1000
0010
,
1000
0001
0010
0001
0100
0010
0100
0001
,
1000
0010
0001
0010
1000
0100
0010
0100
,
1000
0000
0000
1100
0000
0000
0001
0000
0000
0101
0000
0000
1000
0000
0000
1010
,
0000
0000
0001
0000
0000
0011
0000
0000
0100
0000
0000
0110
0000
0000
0001
0000
,
0010
1000
0010
0001
0100
0010
0100
0001
,
1000
0000
0000
0000
1001
0000
0000
0000
0001
1000
0000
0001
0000
0000
0000
0000
,
0010
0001
1000
0001
0011
1001
0011
1001
,
0100
0001
0100
0001
1001
0101
1001
0101
,
0001
1000
0100
1000
1001
1100
1001
1100
,
1000
0001
1000
0010
1010
1010
0110
0110
,
0101
0100
0100
0100
,
0010
0000
0000
0000
1000
0000
0000
0000
0001
1000
0001
0000
0100
0000
0000
0000
,
0010
1000
0100
0010
0001
0100
0001
0000
,
1000
0000
0000
0000
1001
0000
0000
0000
0001
1000
0000
0001
1000
0000
0001
1000
,
0001
0000
1000
0100
1000
0000
0001
0000
1000
0100
1000
0000
0001
1000
0100
0000
,
1000
0000
1100
0000
1100
0000
0011
0000
0011
0000
0001
0100
0001
0000
1000
0000
,
0100
1000
0001
0000
0010
0000
0001
1000
0010
0000
0100
0000
0001
0000
1000
0000
,
1010
0000
1100
0000
1001
0000
0001
0000
1000
0010
0100
0000
0001
0100
0001
0000
,
1001
0000
0000
0000
0001
0000
1000
0000
0010
0000
1000
0000
0100
0010
0100
0000
,
0101
0000
0000
0000
0010
0000
1100
0000
0100
0000
1000
0000
0010
0100
0010
0000
,
1001
0000
0000
0000
1000
0000
0001
0000
0100
0000
0010
0000
1000
0001
0100
0010
,
1000
0000
0000
0000
1001
0000
0000
0000
0001
1000
0000
0001
1000
0000
0001
1000
,
0001
0000
0000
0000
;

//---------------dance-single - ----------------
#NOTEDATA:;
#CHARTNAME:;
#STEPSTYPE:dance-single;
#DESCRIPTION:;
#CHARTSTYLE:;
#DIFFICULTY:Medium;
#METER:7;
#RADARVALUES:0.395009,0.372452,0.287083,0.181315,0.000000,366.000000,328.000000,38.000000,24.000000,0.000000,0.000000,0.000000,0.000000,0.000000,0.395009,0.372452,0.287083,0.181315,0.000000,366.000000,328.000000,38.000000,24.000000,0.000000,0.000000,0.000000,0.000000,0.000000;
#CREDIT:;
#NOTES:
0000
0000
0000
0000
,
0000
0000
0000
0000
,
0001
0010
0001
0100
0001
0001
0100
0100
,
0010
1000
0100
1000
0010
0100
0010
0000
,
1000
0100
1000
0010
0100
0010
1000
0100
,
1000
1000
0001
0001
0010
0100
0010
0000
,
2002
0000
3003
0220
0000
0330
1000
0001
,
2002
0000
3003
0220
0000
0330
0010
0100
,
0110
0000
1000
0010
0100
0100
0010
0100
,
0001
0101
1001
1100
,
1000
0000
0001
0010
0001
0000
1000
0010
,
0100
0000
0010
1000
0100
1000
0010
0000
,
0100
0001
0010
0000
0100
1000
0001
0000
,
1000
0010
0100
0001
0010
0100
1000
0000
,
0001
0010
0001
0000
1000
1000
0100
0000
,
0001
1000
0001
1000
0010
0010
0100
0000
,
0001
0100
0001
0000
1000
0010
1000
0000
,
0100
1001
0110
1001
,
0000
0001
0000
0001
0000
1000
0000
1000
,
0000
0010
0000
0101
0000
0100
0010
0100
,
0000
0010
0000
1001
0000
0010
0000
1100
,
0000
0010
0000
0100
0000
0001
1000
0100
,
0010
0001
0100
0100
,
0001
0000
1000
0000
0001
1000
0100
0000
,
1000
0001
0100
0010
,
0100
1001
0110
1010
,
1000
0010
1000
0100
0010
0100
0010
0001
,
1000
0001
1000
0010
0100
0010
1000
0000
,
0001
0100
0010
1000
0100
0010
0001
0100
,
0010
0010
0100
0100
0001
1000
0001
0000
,
2002
0000
3003
0202
0000
0303
0010
1000
,
2020
0000
3030
2002
0000
3003
1000
0010
,
0110
0000
1000
0100
0010
0001
0100
0010
,
0100
1001
0011
1010
,
0100
0010
0100
0010
1000
0000
0001
0000
,
0010
0100
0010
0100
1000
0000
0001
0000
,
0100
0001
0100
0001
1000
0000
0100
0000
,
0010
0100
0010
0100
1000
0000
0001
0000
,
1000
0010
1000
0010
0001
0010
0001
0010
,
1000
0010
1000
0010
0001
0010
0001
0010
,
1000
1000
0001
0001
,
1000
1001
0101
0000
,
1000
0100
0010
0001
0100
0100
0100
0100
,
0001
0010
0100
1000
0010
0010
0010
0010
,
1000
0100
0010
0001
0100
0100
0100
0100
,
0001
0010
0100
1000
0010
0010
0010
0010
,
0100
0100
0100
0100
,
0100
0000
0100
0000
0001
0100
1000
0000
,
0010
0010
0010
0010
,
0010
1001
0101
1100
,
1000
0001
1000
0001
0100
0010
1000
0010
,
0100
0001
0001
1000
1000
0010
0100
0000
,
0010
1000
0100
1000
0010
0100
0001
0010
,
0100
0100
1000
1000
0001
1000
0100
0000
,
2200
0000
3300
2002
0000
3003
1000
0001
,
2002
0000
3003
0202
0000
0303
0001
0010
,
0110
0000
1000
0010
0100
0001
0010
0100
,
1000
0000
0110
0000
1001
0000
1000
0001
,
1001
0000
0000
0000
;

//---------------dance-single - ----------------
#NOTEDATA:;
#CHARTNAME:;
#STEPSTYPE:dance-single;
#DESCRIPTION:;
#CHARTSTYLE:;
#DIFFICULTY:Easy;
#METER:4;
#RADARVALUES:0.254705,0.284816,0.105767,0.000000,0.000000,236.000000,222.000000,14.000000,0.000000,0.000000,0.000000,0.000000,0.000000,0.000000,0.254705,0.284816,0.105767,0.000000,0.000000,236.000000,222.000000,14.000000,0.000000,0.000000,0.000000,0.000000,0.000000,0.000000;
#CREDIT:;
#NOTES:
// measure 0
0000
0000
0000
0000
,  // measure 1
0000
0000
0000
0000
,  // measure 2
1100
0100
0100
0010
,  // measure 3
0001
1000
0010
0010
,  // measure 4
1010
0100
0010
0100
,  // measure 5
0001
1000
0010
0100
,  // measure 6
0001
0000
0000
0001
0000
0000
1001
0000
,  // measure 7
1000
0000
0000
1000
0000
0000
1001
0000
,  // measure 8
0010
0000
0000
0010
0000
0000
0110
0000
,  // measure 9
0100
0001
0010
0100
,  // measure 10
1000
0001
1000
0001
,  // measure 11
0100
1000
0100
0001
,  // measure 12
1000
0001
1000
0001
,  // measure 13
0010
1000
0010
0001
,  // measure 14
0100
0010
1000
0001
,  // measure 15
0010
0001
1000
0100
,  // measure 16
1000
0010
0100
0001
,  // measure 17
1000
0001
0100
0010
,  // measure 18
1000
1000
0010
0010
,  // measure 19
0100
0100
0001
0001
,  // measure 20
0100
0100
0010
0010
,  // measure 21
0100
0100
0001
0001
,  // measure 22
1000
0000
0010
0000
,  // measure 23
0100
0000
0001
0000
0010
0010
0010
0000
,  // measure 24
0100
0000
1000
0000
,  // measure 25
0001
0000
1000
0000
0100
0100
0100
0000
,  // measure 26
0010
0001
1000
0001
,  // measure 27
0100
0010
1000
0001
,  // measure 28
0101
0100
0010
1000
,  // measure 29
0100
0010
0100
1000
,  // measure 30
1100
0000
0000
0100
0000
0000
0010
0000
,  // measure 31
0011
0000
0000
0010
0000
0000
0100
0000
,  // measure 32
0110
0000
0000
1001
0000
0000
0010
0000
,  // measure 33
1000
0001
0010
0010
,  // measure 34
0100
1000
0001
1000
,  // measure 35
0010
0100
0001
1000
,  // measure 36
0100
0010
0100
1000
,  // measure 37
0001
0010
0100
1000
,  // measure 38
0001
0000
1000
0000
,  // measure 39
0010
0001
0010
1000
,  // measure 40
0100
0001
0100
0010
,  // measure 41
0100
0001
1000
0000
,  // measure 42
0001
0000
0010
0000
0100
0100
0100
0100
,  // measure 43
1000
0000
0010
0000
0100
0100
0100
0100
,  // measure 44
0001
0000
0010
0000
0100
0100
0100
0100
,  // measure 45
1000
0000
0010
0000
0100
0100
0100
0100
,  // measure 46
0001
1000
0001
1000
,  // measure 47
0001
0000
1000
0000
0001
1000
0001
0000
,  // measure 48
0010
0001
1000
0001
,  // measure 49
1000
0000
0001
0000
0100
0100
0100
0000
,  // measure 50
0001
0010
0100
1000
,  // measure 51
0010
0100
0010
1000
,  // measure 52
1010
0100
0010
0100
,  // measure 53
1000
0001
0100
0010
,  // measure 54
1000
0000
0000
1000
0000
0000
1010
0000
,  // measure 55
0001
0000
0000
0001
0000
0000
1001
0000
,  // measure 56
0100
0000
0000
0100
0000
0000
0101
0000
,  // measure 57
0100
0000
0010
0000
1000
0000
0001
1000
,  // measure 58
0001
0000
0000
0000
;

//---------------dance-single - ----------------
#NOTEDATA:;
#CHARTNAME:;
#STEPSTYPE:dance-single;
#DESCRIPTION:;
#CHARTSTYLE:;
#DIFFICULTY:Beginner;
#METER:1;
#RADARVALUES:0.137066,0.175272,0.000000,0.000000,0.000000,127.000000,127.000000,0.000000,0.000000,0.000000,0.000000,0.000000,0.000000,0.000000,0.137066,0.175272,0.000000,0.000000,0.000000,127.000000,127.000000,0.000000,0.000000,0.000000,0.000000,0.000000,0.000000,0.000000;
#CREDIT:;
#NOTES:
// measure 0
0000
0000
0000
0000
,  // measure 1
0000
0000
0000
0000
,  // measure 2
1000
0000
1000
0000
,  // measure 3
0100
0000
0010
0000
,  // measure 4
0001
0000
0001
0000
,  // measure 5
1000
0000
1000
0000
,  // measure 6
0010
0000
0010
0000
,  // measure 7
0100
0000
0100
0000
,  // measure 8
0001
0000
0001
0000
,  // measure 9
1000
0000
0000
0000
,  // measure 10
0010
0000
0001
0000
,  // measure 11
0010
0000
1000
1000
,  // measure 12
1000
0000
0100
0000
,  // measure 13
0010
0000
0001
0001
,  // measure 14
0001
0000
0100
0000
,  // measure 15
0010
0000
1000
0000
,  // measure 16
0100
0000
0010
0000
,  // measure 17
0100
0100
0100
0000
,  // measure 18
0000
1000
0000
1000
,  // measure 19
0000
0001
0000
0001
,  // measure 20
0000
0010
0000
0100
,  // measure 21
0000
1000
0000
0001
,  // measure 22
0001
0001
0001
0000
,  // measure 23
1000
1000
1000
0000
,  // measure 24
0100
0100
0100
0000
,  // measure 25
0010
0000
0001
0000
,  // measure 26
0100
0100
0100
0000
,  // measure 27
1000
1000
1000
0000
,  // measure 28
0001
0001
0001
0000
,  // measure 29
0010
0010
0010
0010
,  // measure 30
0010
0000
0100
0000
,  // measure 31
1000
0000
0100
0000
,  // measure 32
0001
0000
0010
0000
,  // measure 33
0100
0100
0100
0000
,  // measure 34
1000
0000
0010
0000
,  // measure 35
1000
0000
0100
0000
,  // measure 36
0010
0000
0001
0000
,  // measure 37
1000
0000
0001
0000
,  // measure 38
0010
0000
0010
0000
,  // measure 39
0100
0000
0100
0000
,  // measure 40
0100
0000
1000
0000
,  // measure 41
0001
0001
0000
0000
,  // measure 42
0010
0010
0010
0000
,  // measure 43
0100
0100
0100
0000
,  // measure 44
1000
1000
1000
0000
,  // measure 45
0001
0001
0001
0000
,  // measure 46
0010
0000
0100
0000
,  // measure 47
0001
0000
1000
0000
,  // measure 48
0000
0000
0100
0000
,  // measure 49
1000
0000
0001
0000
,  // measure 50
0001
0001
0001
0000
,  // measure 51
0100
0000
0010
0000
,  // measure 52
1000
1000
1000
0000
,  // measure 53
0001
0000
1000
0000
,  // measure 54
0001
0000
0000
0000
,  // measure 55
1000
0000
0000
0000
,  // measure 56
0010
0000
0100
0000
,  // measure 57
0001
0000
1000
0000
,  // measure 58
0010
0000
0000
0000
;
