#VERSION:0.83;
#TITLE:ZVVL;
#SUBTITLE:;
#ARTIST:CHVRCHES;
#TITLETRANSLIT:;
#SUBTITLETRANSLIT:;
#ARTISTTRANSLIT:CHVRCHES;
#GENRE:The Bones of What You Believe;
#ORIGIN:;
#CREDIT:;
#BANNER:ZVVL-bn.png;
#BACKGROUND:ZVVL-bg.png;
#PREVIEWVID:;
#JACKET:ZVVL-jacket.png;
#CDIMAGE:;
#DISCIMAGE:;
#LYRICSPATH:;
#CDTITLE:;
#MUSIC:ZVVL.mp3;
#OFFSET:-0.463257;
#SAMPLESTART:59.540558;
#SAMPLELENGTH:14.769226;
#SELECTABLE:YES;
#DISPLAYBPM:130.000000:260.000000;
#BPMS:0.000=130.000,
96.000=260.000,
224.000=208.000,
225.000=74.300,
225.500=208.000,
226.500=103.880,
228.000=208.000,
229.000=74.300,
229.500=208.000,
230.500=174.000,
231.500=173.000,
233.000=208.000,
234.000=74.300,
234.500=208.500,
235.500=104.000,
237.000=208.000,
238.000=74.300,
238.500=208.000,
239.500=173.000,
240.500=208.000,
241.500=130.000,
242.000=208.000,
243.000=74.300,
243.500=208.000,
244.500=103.880,
246.000=208.000,
247.000=74.300,
247.500=208.000,
248.500=174.000,
249.500=173.000,
251.000=208.000,
252.000=74.300,
252.500=208.500,
253.500=104.000,
255.000=208.000,
256.000=74.300,
256.500=208.000,
257.500=173.000,
258.500=208.000,
259.500=130.000;
#STOPS:;
#DELAYS:;
#WARPS:;
#TIMESIGNATURES:0.000=4=4;
#TICKCOUNTS:0.000=4;
#COMBOS:0.000=1;
#SPEEDS:0.000=1.000=0.000=0;
#SCROLLS:0.000=1.000;
#FAKES:;
#LABELS:0.000=Song Start;
#LASTSECONDHINT:90.965836;
#BGCHANGES:;
#KEYSOUNDS:;
#ATTACKS:
;

//---------------dance-single - ----------------
#NOTEDATA:;
#CHARTNAME:;
#STEPSTYPE:dance-single;
#DESCRIPTION:;
#CHARTSTYLE:;
#DIFFICULTY:Hard;
#METER:8;
#RADARVALUES:0.454061,0.622754,0.405303,0.213317,0.000000,298.000000,260.000000,38.000000,20.000000,0.000000,0.000000,0.000000,0.000000,0.000000,0.454061,0.622754,0.405303,0.213317,0.000000,298.000000,260.000000,38.000000,20.000000,0.000000,0.000000,0.000000,0.000000,0.000000;
#CREDIT:;
#DISPLAYBPM:130.000000:260.000000;
#NOTES:
// measure 0
0000
0000
0000
0000
,  // measure 1
0000
0000
0000
0000
,  // measure 2
0000
0000
0000
0000
,  // measure 3
0000
0000
0000
0000
,  // measure 4
0000
0000
0000
0000
,  // measure 5
0000
0000
0000
0000
,  // measure 6
0000
0000
0000
0000
,  // measure 7
0000
0000
0000
0000
,  // measure 8
0001
0020
0000
0130
0000
0000
0000
0000
,  // measure 9
0000
2000
0000
3001
0100
0000
0000
0000
,  // measure 10
0010
2000
0000
3100
0000
0000
0000
0000
,  // measure 11
0000
0002
0000
1003
0100
0000
0000
0000
,  // measure 12
0001
0100
0001
0100
0010
0100
0001
0100
,  // measure 13
1000
0100
0001
0100
0001
1000
0001
0001
,  // measure 14
0010
0001
0010
0100
1000
0100
0010
0001
,  // measure 15
1000
0100
1000
0100
0001
1000
0100
0000
,  // measure 16
0001
0010
0100
1000
1000
0100
0010
0001
,  // measure 17
0001
0100
0001
1000
0010
1000
0001
0000
,  // measure 18
1000
0010
1000
0001
0001
0100
0010
0100
,  // measure 19
0100
0001
1000
0100
0010
0100
0010
0000
,  // measure 20
0001
1000
0010
0100
0001
0100
0001
0100
,  // measure 21
0010
1000
0001
1000
0100
1000
0100
1000
,  // measure 22
0001
0010
0100
1000
0100
0010
0100
0000
,  // measure 23
1000
0001
0100
0000
1000
0001
0100
0000
,  // measure 24
0101
1000
0100
0010
,  // measure 25
0010
0100
0100
0010
,  // measure 26
0010
0001
0001
1000
,  // measure 27
0100
0010
0100
1000
,  // measure 28
1000
0001
0001
1000
,  // measure 29
1000
0010
0010
0100
,  // measure 30
0100
0001
0001
1000
,  // measure 31
0010
1000
0001
0010
,  // measure 32
0010
0100
0100
0010
,  // measure 33
0010
0001
0001
1000
,  // measure 34
1000
0010
0010
0100
,  // measure 35
0001
1000
0010
0100
,  // measure 36
0100
0001
0001
0100
,  // measure 37
0100
0010
0010
1000
,  // measure 38
0001
0010
0100
0100
,  // measure 39
1000
0010
0100
0100
,  // measure 40
0101
0100
0100
0010
,  // measure 41
1000
0100
0001
2002
,  // measure 42
3003
0202
0303
0010
,  // measure 43
1000
0100
0001
0100
,  // measure 44
1000
0100
0100
0010
,  // measure 45
0001
0100
1000
2002
,  // measure 46
3003
2200
3300
0010
,  // measure 47
0001
0100
1000
0100
,  // measure 48
0001
1000
0100
0010
,  // measure 49
0001
0100
1000
0202
,  // measure 50
0303
2200
3300
0010
,  // measure 51
0001
0100
1000
0100
,  // measure 52
0001
0010
0100
1000
,  // measure 53
0010
0001
0010
2020
,  // measure 54
3030
0022
0033
1000
,  // measure 55
0010
0001
0010
1000
,  // measure 56
1001
0000
0101
1001
0000
1100
0000
0000
,  // measure 57
0010
0000
0101
0010
0000
1100
0000
1001
,  // measure 58
0000
0000
0010
0000
0101
0010
0000
1100
,  // measure 59
0000
0000
1000
0000
0101
0001
0000
1010
,  // measure 60
0000
0101
0000
1001
0010
0000
1100
0100
,  // measure 61
0000
0011
0000
0000
0001
0000
1010
0100
,  // measure 62
0000
0011
0000
1010
0000
0000
1001
0000
,  // measure 63
0101
1001
0000
1100
0000
0000
1010
0000
,  // measure 64
0101
0011
0000
1100
0000
0110
0000
0101
;

//---------------dance-single - ----------------
#NOTEDATA:;
#CHARTNAME:;
#STEPSTYPE:dance-single;
#DESCRIPTION:;
#CHARTSTYLE:;
#DIFFICULTY:Medium;
#METER:6;
#RADARVALUES:0.272742,0.345974,0.095993,0.319976,0.000000,179.000000,170.000000,9.000000,30.000000,0.000000,0.000000,0.000000,0.000000,0.000000,0.272742,0.345974,0.095993,0.319976,0.000000,179.000000,170.000000,9.000000,30.000000,0.000000,0.000000,0.000000,0.000000,0.000000;
#CREDIT:;
#DISPLAYBPM:130.000000:260.000000;
#NOTES:
// measure 0
0000
0000
0000
0000
,  // measure 1
0000
0000
0000
0000
,  // measure 2
0000
0000
0000
0000
,  // measure 3
0000
0000
0000
0000
,  // measure 4
0000
0000
0000
0000
,  // measure 5
0000
0000
0000
0000
,  // measure 6
0000
0000
0000
0000
,  // measure 7
0000
0000
0000
0000
,  // measure 8
1000
0002
0103
0000
,  // measure 9
0001
0020
0130
0000
,  // measure 10
1000
0002
0103
0000
,  // measure 11
0010
2000
3100
0000
,  // measure 12
0010
0001
0010
0010
,  // measure 13
0100
0100
1000
1000
,  // measure 14
0001
1000
0001
1000
,  // measure 15
0010
1000
0010
0010
,  // measure 16
0100
0001
0010
0100
,  // measure 17
1000
0100
0001
0100
,  // measure 18
1000
0001
1000
0010
,  // measure 19
1000
0100
0010
0001
,  // measure 20
1000
0001
1000
0001
,  // measure 21
0100
0001
1000
0100
,  // measure 22
1000
0001
0100
0001
,  // measure 23
1000
0000
0001
0000
,  // measure 24
2002
0000
0000
3003
,  // measure 25
0010
0000
1000
0000
,  // measure 26
0100
0000
0010
0000
,  // measure 27
0001
0100
0010
0100
,  // measure 28
0001
0000
1000
0000
,  // measure 29
0010
0000
0100
0000
,  // measure 30
0010
0000
1000
0000
,  // measure 31
0100
1000
0010
1000
,  // measure 32
0100
0000
0010
0000
,  // measure 33
0001
0000
0100
0000
,  // measure 34
0010
0000
1000
0000
,  // measure 35
0001
0010
1000
0010
,  // measure 36
0001
0000
0100
0000
,  // measure 37
0010
0000
1000
0000
,  // measure 38
0001
0010
0100
0000
,  // measure 39
1000
0010
0100
0000
,  // measure 40
2002
0000
3003
0010
,  // measure 41
0001
1000
0000
0001
,  // measure 42
0000
0001
0000
0010
,  // measure 43
0001
1000
0000
0000
,  // measure 44
2002
0000
3003
0010
,  // measure 45
1000
0001
0000
1000
,  // measure 46
0000
1000
0000
0010
,  // measure 47
1000
0001
0000
0000
,  // measure 48
2002
0000
3003
0100
,  // measure 49
0001
1000
0000
0100
,  // measure 50
0000
0100
0000
1000
,  // measure 51
0001
0100
0000
0000
,  // measure 52
2002
0000
3003
0010
,  // measure 53
1000
0100
0000
1100
,  // measure 54
0000
1100
0000
0101
,  // measure 55
0000
0101
0000
0000
,  // measure 56
2000
0000
3001
2000
0000
3001
0000
0000
,  // measure 57
0020
0000
0130
0020
0000
0130
0000
0100
,  // measure 58
0000
0000
0200
0000
0301
0200
0000
0301
,  // measure 59
0000
0000
2000
0000
3100
0002
0000
0100
,  // measure 60
0000
0103
0000
0100
0020
0000
0130
0020
,  // measure 61
0000
0130
0000
0000
0002
0000
1003
0002
,  // measure 62
0000
1003
0000
0100
0000
0000
2000
0000
,  // measure 63
3001
2000
0000
3100
0000
0000
0020
0000
,  // measure 64
0130
2000
0000
0010
0000
0100
0000
3001
;

//---------------dance-single - ----------------
#NOTEDATA:;
#CHARTNAME:;
#STEPSTYPE:dance-single;
#DESCRIPTION:;
#CHARTSTYLE:;
#DIFFICULTY:Easy;
#METER:3;
#RADARVALUES:0.173701,0.305977,0.106659,0.074661,0.000000,114.000000,104.000000,10.000000,7.000000,0.000000,0.000000,0.000000,0.000000,0.000000,0.173701,0.305977,0.106659,0.074661,0.000000,114.000000,104.000000,10.000000,7.000000,0.000000,0.000000,0.000000,0.000000,0.000000;
#CREDIT:;
#DISPLAYBPM:130.000000:260.000000;
#NOTES:
// measure 0
0000
0000
0000
0000
,  // measure 1
0000
0000
0000
0000
,  // measure 2
0000
0000
0000
0000
,  // measure 3
0000
0000
0000
0000
,  // measure 4
0000
0000
0000
0000
,  // measure 5
0000
0000
0000
0000
,  // measure 6
0000
0000
0000
0000
,  // measure 7
0000
0000
0000
0000
,  // measure 8
0001
0000
1000
0000
,  // measure 9
0100
0000
0010
0000
,  // measure 10
0100
0000
1000
0000
,  // measure 11
0001
0000
1000
0000
,  // measure 12
0010
0000
0100
0000
,  // measure 13
0001
0000
0010
0000
,  // measure 14
0100
0000
1000
0000
,  // measure 15
0010
0000
0100
0000
,  // measure 16
0001
0001
0001
0001
,  // measure 17
1000
1000
1000
1000
,  // measure 18
0100
0100
0100
0100
,  // measure 19
0001
0001
0001
0001
,  // measure 20
0010
0010
0010
0010
,  // measure 21
0100
0100
0100
0100
,  // measure 22
1000
1000
1000
1000
,  // measure 23
0001
0000
1000
0000
,  // measure 24
2002
0000
0000
0000
,  // measure 25
3003
0000
0000
0000
,  // measure 26
0100
0000
0001
0000
,  // measure 27
0010
0000
1000
0000
,  // measure 28
0100
0000
0200
0000
,  // measure 29
0000
0000
0300
0000
,  // measure 30
0000
0000
0001
0000
,  // measure 31
1000
0000
0010
0000
,  // measure 32
0100
0000
0200
0000
,  // measure 33
0000
0000
0300
0000
,  // measure 34
0000
0000
1000
0000
,  // measure 35
0001
0000
0010
0000
,  // measure 36
0100
0000
0200
0000
,  // measure 37
0000
0000
0300
0000
,  // measure 38
1000
0000
0000
0000
,  // measure 39
0001
0000
0000
0000
,  // measure 40
2002
0000
0000
3003
,  // measure 41
0010
0000
0010
0000
,  // measure 42
1000
0000
1000
0000
,  // measure 43
0100
0000
0100
0000
,  // measure 44
0001
0000
0001
0000
,  // measure 45
0100
0000
0100
0000
,  // measure 46
1000
0000
1000
0000
,  // measure 47
0010
0000
0010
0000
,  // measure 48
0100
0000
0100
0000
,  // measure 49
0001
0000
0001
0000
,  // measure 50
1000
0000
1000
0000
,  // measure 51
0100
0000
0100
0000
,  // measure 52
0010
0000
0010
0000
,  // measure 53
0010
0000
0010
0000
,  // measure 54
0010
0000
0010
0000
,  // measure 55
0010
0000
0010
0000
,  // measure 56
0110
0000
0000
0000
,  // measure 57
0110
0000
0000
0000
,  // measure 58
0000
1001
0000
0000
,  // measure 59
0000
1001
0000
0000
,  // measure 60
0000
0000
0110
0000
,  // measure 61
0000
0000
0110
0000
,  // measure 62
0000
0000
0000
1001
,  // measure 63
0000
0000
0000
1001
;

//---------------dance-single - ----------------
#NOTEDATA:;
#CHARTNAME:;
#STEPSTYPE:dance-single;
#DESCRIPTION:;
#CHARTSTYLE:;
#DIFFICULTY:Beginner;
#METER:2;
#RADARVALUES:0.088374,0.179187,0.074661,0.106659,0.000000,58.000000,51.000000,7.000000,10.000000,0.000000,0.000000,0.000000,0.000000,0.000000,0.088374,0.179187,0.074661,0.106659,0.000000,58.000000,51.000000,7.000000,10.000000,0.000000,0.000000,0.000000,0.000000,0.000000;
#CREDIT:;
#DISPLAYBPM:130.000000:260.000000;
#NOTES:
// measure 0
0000
0000
0000
0000
,  // measure 1
0000
0000
0000
0000
,  // measure 2
0000
0000
0000
0000
,  // measure 3
0000
0000
0000
0000
,  // measure 4
0000
0000
0000
0000
,  // measure 5
0000
0000
0000
0000
,  // measure 6
0000
0000
0000
0000
,  // measure 7
0000
0000
0000
0000
,  // measure 8
0000
0000
0000
0000
,  // measure 9
0000
0000
0000
0000
,  // measure 10
0000
0000
0000
0000
,  // measure 11
0000
0000
0000
0000
,  // measure 12
0001
0000
0001
0000
,  // measure 13
1000
0000
1000
0000
,  // measure 14
0100
0000
0100
0000
,  // measure 15
0010
0000
0010
0000
,  // measure 16
0001
0000
0001
0000
,  // measure 17
0010
0000
0010
0000
,  // measure 18
0100
0000
0100
0000
,  // measure 19
1000
0000
1000
0000
,  // measure 20
0010
0000
0010
0000
,  // measure 21
0100
0000
0100
0000
,  // measure 22
0001
0000
0001
0000
,  // measure 23
1000
0000
0000
0000
,  // measure 24
2002
0000
0000
0000
,  // measure 25
3003
0000
0000
0000
,  // measure 26
0000
0000
0000
0000
,  // measure 27
0010
0000
0010
0000
,  // measure 28
0020
0000
0000
0000
,  // measure 29
0030
0000
0000
0000
,  // measure 30
0000
0000
0000
0000
,  // measure 31
0100
0000
0100
0000
,  // measure 32
0200
0000
0000
0000
,  // measure 33
0300
0000
0000
0000
,  // measure 34
0000
0000
0000
0000
,  // measure 35
0001
0000
0001
0000
,  // measure 36
0002
0000
0000
0000
,  // measure 37
0003
0000
0000
0000
,  // measure 38
1001
0000
0000
0000
,  // measure 39
0110
0000
0000
0000
,  // measure 40
2002
0000
0000
0000
,  // measure 41
3003
0000
0000
0000
,  // measure 42
0010
0000
0000
0000
,  // measure 43
1000
0000
1000
0000
,  // measure 44
2000
0000
0000
0000
,  // measure 45
3000
0000
0000
0000
,  // measure 46
0010
0000
0000
0000
,  // measure 47
0001
0000
0001
0000
,  // measure 48
0002
0000
0000
0000
,  // measure 49
0003
0000
0000
0000
,  // measure 50
1000
0000
0000
0000
,  // measure 51
0010
0000
0010
0000
,  // measure 52
0020
0000
0000
0000
,  // measure 53
0030
0000
0000
0000
,  // measure 54
1001
0000
0000
0000
,  // measure 55
0110
0000
0000
0000
,  // measure 56
1001
0000
0000
0000
;
