#TITLE:You Need To Calm Down;
#SUBTITLE:;
#ARTIST:Taylor Swift;
#TITLETRANSLIT:;
#SUBTITLETRANSLIT:;
#ARTISTTRANSLIT:;
#GENRE:Lover;
#CREDIT:;
#BANNER:You Need To Calm Down-bn.png;
#BACKGROUND:You Need To Calm Down-bg.png;
#LYRICSPATH:;
#CDTITLE:;
#MUSIC:You Need To Calm Down.mp3;
#OFFSET:-2.848004;
#SAMPLESTART:48.004856;
#SAMPLELENGTH:23.294121;
#LASTBEATHINT:186.042419;
#SELECTABLE:YES;
#BPMS:0.000000=85.000000
;
#STOPS:
;
#BGCHANGES:-1.000=You Need To Calm Down-video.avi=1.000=0=0=0=StretchNoLoop====,
99999=-nosongbg-=1.000=0=0=0 // don't automatically add -songbackground-
;
#KEYSOUNDS:;
#ATTACKS:;

//---------------dance-single - ----------------
#NOTES:
     dance-single:
     :
     Hard:
     8:
     0.347339,0.349510,0.117424,0.151961,0.227941,352.000000,335.000000,17.000000,22.000000,0.000000,0.000000,0.347339,0.349510,0.117424,0.151961,0.227941,352.000000,335.000000,17.000000,22.000000,0.000000,0.000000:
0000
0000
0000
0000
,
0000
0000
0000
0000
,
0000
0000
0000
0000
,
0000
0000
0000
0000
,
0010
0100
0010
0000
0110
0000
0001
0000
1000
0001
0000
0000
0100
0000
0000
0000
,
0001
1000
0001
0000
1001
0000
0010
0000
0100
1000
0000
0000
0001
1000
0001
0000
,
0102
0000
0000
0000
1000
0000
0000
0000
0103
0000
0000
0000
0010
0100
0010
0000
,
2100
0000
0000
0000
0001
0000
0000
0000
3100
0000
0000
0000
0010
0100
0010
0000
,
0001
1000
0001
1000
0001
0000
0100
0000
0001
1000
0000
0000
1100
0000
0000
0000
,
1000
0001
1000
0001
1000
0000
0010
0000
1000
0001
0000
0000
0100
0010
0100
0000
,
0002
0000
0000
0000
1000
0000
0000
0000
0013
0000
0000
0000
1000
0100
0010
0000
,
0200
0000
0000
0000
1000
0000
0000
0000
0310
0000
0000
0000
0001
1000
0001
0000
,
0010
0000
0001
0000
1000
0000
1000
0010
0000
0010
0100
0000
0001
0000
0001
0010
,
0000
0010
0100
0000
1000
0000
0100
1000
0100
0000
0010
0000
0001
0010
0001
0000
,
0200
0000
0000
0000
0301
0000
0000
0000
1000
0000
0010
0000
0100
0000
0000
0001
,
1000
0001
0100
0001
1000
0001
0101
0000
,
0001
0100
1000
0100
0001
0100
1000
0100
,
0010
0000
0100
0000
0001
0000
0100
0000
1000
0000
0100
0000
0001
0100
0001
0000
,
0102
0000
0000
0003
2010
0000
0000
3000
0001
0000
1000
0000
0100
0010
0100
0000
,
2100
0000
0000
3000
0012
0000
0000
0003
1000
0000
0001
0000
0100
0010
0100
0000
,
0001
0010
0100
0010
1000
0010
0100
0010
,
0001
0000
1000
0000
0010
0000
0200
0000
0000
0000
0301
0000
1000
0100
1000
0000
,
0120
0000
0000
0030
1002
0000
0000
0003
1000
0000
0010
0000
0100
0001
0100
0000
,
1020
0000
0000
0000
0130
0001
0100
0000
1020
0000
0000
0000
0130
0001
0100
0000
,
2001
0000
0000
0000
0100
0000
0000
0000
0001
0000
0000
0000
3100
0000
0000
1000
,
0002
0000
0000
0000
0100
0000
0000
0000
1000
0000
0000
0000
0103
0000
0000
0001
,
1000
0000
0000
0010
0100
0000
0000
0001
1000
0000
0000
0010
0100
0000
0000
0000
,
0001
0000
0000
1000
0100
0000
0000
0001
0100
0000
0000
1000
0100
0000
0000
0000
,
0010
0000
0000
0001
1000
0000
0010
0000
1000
0000
0000
1000
0001
0000
0010
0000
,
0001
0000
0000
0100
0010
0000
0100
0000
0001
0000
0000
1000
0010
0000
0100
0000
,
0001
0002
0000
0000
1000
2000
0003
0000
0010
0020
3000
0000
0100
0200
0030
0000
,
0001
0002
0000
0000
0000
0000
0000
0000
0303
0000
0000
0001
1000
0001
1000
0000
,
1100
0000
0001
0000
0100
0000
0010
0000
1000
0000
0010
0000
0100
0001
1000
0000
,
0010
0000
1000
0000
0001
0000
0010
0000
0100
0000
0010
0000
0001
1000
0001
0000
,
0100
0001
0000
0000
0001
1000
0000
0000
1000
0100
0000
0000
0100
0010
0000
0000
,
0010
0001
0000
0000
0001
1000
0002
0000
0000
0000
0103
0000
0010
1000
0010
0000
,
0100
0000
0001
0000
1000
0100
1000
0000
0001
0000
0010
0000
0100
0010
0001
0000
,
1000
0000
0001
0000
0100
0001
0100
0000
0010
0000
1000
0000
0001
1000
0100
0000
,
1000
0100
0001
0100
1000
0100
0001
0100
,
1000
0100
0010
0100
0001
0100
0010
0100
,
1000
0010
1000
0001
1000
0100
1000
0001
,
0010
0001
1000
0001
0100
0001
1000
1000
,
0001
0100
0010
0100
0001
0100
1000
0100
,
0010
0000
0100
0000
0001
0000
1000
0000
0010
0000
0100
0000
0001
0100
0001
0000
,
1000
0000
0010
0000
1000
0000
0100
0000
0010
0000
0001
0000
1000
0100
1000
0000
,
0001
0000
0010
0000
0100
1000
0001
0000
0010
0000
0100
0000
1000
0001
0100
0000
,
0101
0000
0000
0000
;

//---------------dance-single - ----------------
#NOTES:
     dance-single:
     :
     Medium:
     5:
     0.204259,0.238302,0.075980,0.103610,0.000000,207.000000,196.000000,11.000000,15.000000,0.000000,0.000000,0.204259,0.238302,0.075980,0.103610,0.000000,207.000000,196.000000,11.000000,15.000000,0.000000,0.000000:
0000
0000
0000
0000
,
0000
0000
0000
0000
,
0000
0000
0000
0000
,
0000
0000
0000
0000
,
1000
0001
0100
0000
2002
0000
3003
0000
,
0010
0001
0100
0000
0101
0000
0010
0100
,
0020
0000
0000
0000
0030
0000
1000
0001
,
2000
0000
3000
0000
,
0001
0010
0001
0000
2002
0000
3003
0000
,
1000
0010
0100
0000
1001
0000
0010
1000
,
0002
0000
0000
0000
0003
0000
0010
0001
,
2000
0000
3000
0000
,
0001
0000
0100
0000
2000
0001
3001
0000
,
0010
0100
0010
0000
0002
1000
1003
0000
,
0220
0330
0000
0000
,
0001
1000
0001
1000
0001
1000
0100
0000
,
1002
0010
1000
0010
,
1000
0000
0010
0000
1000
0003
0010
0001
,
1000
0000
0001
0000
1000
0000
0010
1000
,
0001
0000
1000
0000
0001
0000
0010
0001
,
2001
0010
0001
0010
,
0001
0000
0010
0000
3001
0000
0010
1000
,
0001
0000
0010
0000
0001
0000
1000
0010
,
0100
0000
0001
1000
0100
0000
0001
0010
,
1000
0010
0001
0001
,
1000
0010
0100
0100
,
0001
1000
0100
1001
,
1000
0001
0100
1001
,
1000
0000
0010
1000
0100
0000
0010
0001
,
0100
0000
0010
0001
1000
0000
0010
1000
,
0100
0000
0000
0000
,
0000
0000
0000
0000
0000
0000
0010
1000
,
1001
0000
0010
0001
1000
0000
0010
1000
,
0100
0000
1000
0001
0010
0000
0001
0100
,
1002
0010
1000
0010
,
1000
0000
0010
0000
1003
0000
0010
0001
,
1000
0000
0010
1000
0100
0000
1000
0010
,
0100
0000
0010
1000
0001
0000
0010
0001
,
0100
0000
0001
1000
0100
0000
1000
0000
,
0001
0000
1000
0001
0010
0010
1000
0000
,
0001
0000
1000
0001
0010
0000
0100
0010
,
0100
0000
1000
0000
0001
1000
0010
0000
,
0100
0000
0001
0100
0001
1000
0001
0000
,
0010
0000
0100
1000
0001
0000
0010
0001
,
1000
0000
0010
0000
0100
0000
0001
1000
,
0100
0000
0001
0010
1000
0000
0010
0001
,
0100
0000
0000
0000
;

//---------------dance-single - ----------------
#NOTES:
     dance-single:
     :
     Easy:
     3:
     0.134199,0.190642,0.062166,0.131239,0.000000,136.000000,127.000000,9.000000,19.000000,0.000000,0.000000,0.134199,0.190642,0.062166,0.131239,0.000000,136.000000,127.000000,9.000000,19.000000,0.000000,0.000000:
0000
0000
0000
0000
,
0000
0000
0000
0000
,
0000
0000
0000
0000
,
0000
0000
0000
0000
,
0001
1000
0100
1000
,
0001
0010
0001
1000
,
0020
0000
0030
0100
,
0002
0000
0003
0000
,
1000
0100
1000
1000
,
0001
1000
0001
0001
,
0200
0000
0300
0001
,
2000
0000
3000
0000
,
0010
1000
0001
0010
,
0001
1000
0010
1000
,
0002
0000
0003
0000
,
0010
0001
1000
0000
,
0020
0100
0100
0100
,
0100
0100
0200
0330
,
2002
0000
3003
0010
,
2002
0000
3003
1000
,
0002
1000
1000
1000
,
1000
1000
2000
3003
,
2002
0000
3003
0010
,
1001
0100
0010
0100
,
2002
0000
3003
0000
,
0001
1000
0000
0000
,
0010
1000
0000
0000
,
0100
0001
0000
0000
,
1000
0001
0000
0000
,
0010
0100
0000
0000
,
1000
0000
0000
0000
,
0000
0000
0000
0001
,
1001
0010
1000
0010
,
0001
1000
0001
1000
,
0020
0100
0100
0100
,
0100
0100
0200
0330
,
1001
0100
0100
0100
,
1001
0100
0010
0100
,
1001
0001
0001
0100
,
0001
1000
0001
1000
,
0100
1000
0100
1000
,
0001
1000
0100
1000
,
0001
0010
0100
0100
,
1000
0010
0100
0001
,
1000
0001
1000
0001
,
0010
0001
1000
0001
,
0100
0000
0000
0000
;

//---------------dance-single - ----------------
#NOTES:
     dance-single:
     :
     Beginner:
     1:
     0.068086,0.095321,0.006907,0.000000,0.000000,69.000000,68.000000,1.000000,0.000000,0.000000,0.000000,0.068086,0.095321,0.006907,0.000000,0.000000,69.000000,68.000000,1.000000,0.000000,0.000000,0.000000:
// measure 0
0000
0000
0000
0000
,  // measure 1
0000
0000
0000
0000
,  // measure 2
0000
0000
0000
0000
,  // measure 3
0000
0000
0000
0000
,  // measure 4
0010
0000
0100
0000
,  // measure 5
0010
0000
0100
0000
,  // measure 6
1000
0000
0000
0000
,  // measure 7
0001
0000
0000
0000
,  // measure 8
1000
0000
0010
0000
,  // measure 9
1000
0000
0010
0000
,  // measure 10
0100
0000
0000
0000
,  // measure 11
0001
0000
0000
0000
,  // measure 12
0010
0000
0001
0000
,  // measure 13
0010
0000
1000
0000
,  // measure 14
0100
0000
0000
0000
,  // measure 15
1000
0000
0000
0000
,  // measure 16
0001
0001
0001
0001
,  // measure 17
0001
0000
0000
0000
,  // measure 18
1000
0000
0000
0000
,  // measure 19
0001
0000
0000
0000
,  // measure 20
0100
0100
0100
0100
,  // measure 21
0100
0000
0000
0000
,  // measure 22
0010
0000
0000
0000
,  // measure 23
1000
0000
0001
0000
,  // measure 24
1000
0000
0000
0000
,  // measure 25
1000
0000
0000
0000
,  // measure 26
0010
0000
0000
0000
,  // measure 27
0100
0000
0000
0000
,  // measure 28
0001
0000
0001
0000
,  // measure 29
1000
0000
1000
0000
,  // measure 30
0100
0000
0000
0000
,  // measure 31
0000
0000
0000
0000
,  // measure 32
1001
0000
0000
0010
,  // measure 33
0010
0000
0000
0000
,  // measure 34
0100
0100
0100
0100
,  // measure 35
0100
0000
0000
0000
,  // measure 36
0001
0000
0001
0000
,  // measure 37
1000
0000
1000
0000
,  // measure 38
0100
0000
0000
0000
,  // measure 39
0010
0000
0000
0001
,  // measure 40
0001
0000
0000
0000
,  // measure 41
1000
0000
0000
0010
,  // measure 42
0010
0000
0000
0000
,  // measure 43
0100
0000
0000
0001
,  // measure 44
0001
0000
0000
1000
,  // measure 45
1000
0000
0100
0000
,  // measure 46
0001
0000
0000
0000
;
