#TITLE:Yoshi's Island Athletic Theme;
#SUBTITLE:(Techno Remix);
#ARTIST:近藤浩治;
#TITLETRANSLIT:;
#SUBTITLETRANSLIT:;
#ARTISTTRANSLIT:Koji Kondo;
#GENRE:Yoshi's Island;
#CREDIT:;
#BANNER:Yoshi's Island Athletic Theme-bn.png;
#BACKGROUND:Yoshi's Island Athletic Theme-bg.png;
#LYRICSPATH:;
#CDTITLE:;
#MUSIC:Yoshi's Island Athletic Theme (Techno Remix).mp3;
#OFFSET:-1.850000;
#SAMPLESTART:3.708092;
#SAMPLELENGTH:14.769230;
#LASTBEATHINT:278.000000;
#SELECTABLE:YES;
#DISPLAYBPM:130.000000;
#BPMS:0.000000=130.000000
,92.000000=520.000000
,100.000000=130.000000
,114.000000=520.000000
,115.000000=260.000000
,116.000000=130.000000
,252.000000=520.000000
,260.000000=130.000000
;
#STOPS:92.000000=0.259618,
92.750000=0.173078,
93.250000=0.086538,
93.500000=0.086538,
93.750000=0.086538,
94.000000=0.259614,
94.750000=0.259614,
95.500000=0.173078,
96.000000=0.259614,
96.750000=0.173078,
97.250000=0.086538,
97.500000=0.173078,
98.000000=0.173078,
98.500000=0.173078,
99.000000=0.173078,
99.500000=0.173078,
114.000000=0.057695,
114.166664=0.057695,
114.333336=0.057695,
114.500000=0.173078,
115.000000=0.230771,
252.000000=0.259614,
252.750000=0.173074,
253.250000=0.086542,
253.500000=0.086542,
253.750000=0.086542,
254.000000=0.173074,
254.500000=0.086542,
254.750000=0.259614,
255.500000=0.173074,
256.000000=0.259614,
256.750000=0.259614,
257.500000=0.173074,
258.000000=0.173074,
258.500000=0.173074,
259.000000=0.173074,
259.500000=0.173074
;
#BGCHANGES:;
#KEYSOUNDS:;
#ATTACKS:;

//---------------dance-single - ----------------
#NOTES:
     dance-single:
     :
     Hard:
     9:
     0.622579,0.579222,0.153183,0.045955,0.478696,569.000000,549.000000,20.000000,6.000000,0.000000,0.000000,0.622579,0.579222,0.153183,0.045955,0.478696,569.000000,549.000000,20.000000,6.000000,0.000000,0.000000:
0000
0000
0000
0000
,
0101
0000
1000
0000
0100
1000
0000
0010
0000
0000
0010
0000
0100
0000
0001
0000
,
1000
0000
0001
0000
0010
0001
0000
1000
0000
0000
0001
0000
0100
0000
0010
0000
,
1000
0000
0100
0000
0010
0100
0000
0010
0000
0000
0001
0000
1000
0000
0001
0000
,
0010
0000
0100
0000
1000
0010
0000
0100
0000
0000
0010
0000
1000
0001
0000
0000
,
0100
0000
0001
0000
1000
0100
0000
1000
0000
0000
0001
0000
0010
0000
0100
0000
,
1000
0000
0010
0000
0100
0001
0000
0010
0000
0000
0001
0000
1000
0000
0001
0000
,
0010
0000
0100
0000
1000
0010
0000
1000
0000
0000
0001
0000
0100
0000
0010
0000
,
0100
0001
1000
0001
0100
0010
1010
0000
,
0100
0000
0010
0000
0001
1000
0000
0100
0000
0000
1000
0000
0010
0000
1000
0000
,
0001
0000
1000
0000
0010
0100
0000
0002
0000
0000
0013
0000
0001
0000
1000
0000
,
0100
0000
1000
0000
0010
1000
0000
0100
0000
0000
0001
0000
0100
0000
1000
0000
,
0001
0000
0010
0000
0100
1000
0000
0001
0000
0000
1100
0000
1000
0001
0000
0000
,
0100
0000
0001
0000
1000
0001
0000
0100
0000
0000
0010
0000
1000
0000
0001
0000
,
0010
0000
0100
0000
0010
0001
0000
2000
0000
0000
3001
0000
0100
0000
0001
0000
,
1000
0000
0010
0000
0100
0001
0000
1000
0100
0000
0010
0000
0001
0000
1000
0000
,
0100
0100
0010
0010
0001
1000
1001
0000
,
0001
0100
0000
0001
0100
0000
0001
0100
0000
0001
0100
0000
0010
0000
1000
0000
,
0100
1000
0000
0100
1000
0000
0100
1000
0000
0100
1000
0000
0100
0000
0000
0000
,
1000
0001
0000
1000
0001
0000
1000
0001
0000
1000
0001
0000
0100
0000
0010
0000
,
0100
0001
0000
0100
0001
0000
0100
0001
0000
0100
0001
0000
1000
0000
0000
0000
,
0010
1000
0100
0001
0100
0010
0001
1000
,
0010
0100
0010
1000
0001
0100
1000
0100
,
0001
0000
0000
0101
0000
0000
0001
0000
1000
0000
0000
1100
0000
0000
1000
0000
,
0010
0000
0000
0110
0000
0000
0100
0000
0001
0000
1000
0000
0100
0000
0010
0000
,
0001
0000
1000
0000
0100
1000
0000
0001
0000
0000
1000
0000
0010
0000
1000
0000
,
0001
0000
0010
0000
0100
1000
0000
0001
0000
0000
1000
0000
0100
0000
1000
0000
,
0010
0000
0100
0000
0001
1000
0000
0010
0000
0000
0100
0000
0001
0000
1000
0000
,
0001
0100
0001
0100
0001
0000
0101
0000
,
1002
0100
1000
0103
,
1000
0100
0001
0100
1000
0100
0001
0100
,
2000
0010
0001
3010
,
0001
0010
1000
0010
0001
0010
1000
0010
,
0002
0000
0000
0000
1003
0000
0000
1000
0100
0000
0010
0001
0010
0000
0001
0000
,
0100
0000
0010
1000
0010
1000
0010
0000
0100
0000
0000
0001
1000
0000
0000
0000
,
0100
0010
0100
0000
0000
0000
1000
0000
0000
0000
0000
0001
1000
0000
0010
0100
,
0010
0000
0100
0001
0100
0000
0001
0000
1000
0100
1000
0000
1100
0000
0000
0000
,
0010
0000
0000
0000
0100
0001
0100
0001
0100
0000
0010
1000
0010
0000
0000
0100
,
0001
0000
1000
0001
1000
0000
0100
0000
0010
0100
0010
0000
0001
0000
0000
0000
,
1000
0000
0001
1000
0001
0000
0100
0000
0010
0000
1000
0001
1000
0000
0100
0000
,
0010
0001
0000
0010
0001
0000
0000
0000
1000
0100
1000
0000
0100
0000
0010
0000
,
0001
0100
0000
0001
0100
0000
0000
0000
0010
1000
0010
0000
0100
0000
0001
0000
,
1000
0100
0000
0010
0001
0000
1000
0000
0100
0000
0010
0000
0001
0100
0001
0000
,
1000
0100
1000
0000
0001
0000
0000
1000
0100
0000
0010
0000
0000
0001
1000
0000
,
0001
0000
0000
0100
0010
0100
0010
0000
1000
0001
1000
0000
1001
0000
0000
0000
,
0001
0000
1000
0000
0010
1000
0000
0001
0000
0000
1000
0000
0100
0000
0010
0000
,
0001
0000
1000
0000
0010
0100
0000
0010
0000
0000
1000
0000
0100
0000
0010
0000
,
0001
0000
1000
0000
0100
0010
0000
0001
0100
0000
0010
0000
1000
0000
0001
0000
,
1000
0100
0001
0100
1000
0001
0101
0000
,
0100
0001
0100
1000
0100
0001
0100
0010
,
1000
0010
1000
0001
1000
0100
1000
0001
,
0010
0001
0010
0100
0010
1000
0010
0100
,
0001
0100
1000
0100
0001
0100
1000
0100
,
0010
0000
0001
0000
0100
0001
0000
1000
0000
0000
0100
0000
0010
0000
0100
0000
,
1000
0000
0010
0000
1000
0001
0000
0200
0000
0000
0000
0000
0301
0000
1000
0000
,
0100
0000
0010
0000
0001
1000
0000
0010
0100
0000
0001
0000
1000
0000
0100
0000
,
1000
1000
0001
0001
0100
0010
0100
0000
,
0001
1000
0000
0001
1000
0000
0001
1000
0000
0001
1000
0000
0100
0000
0010
0000
,
0100
1000
0000
0100
1000
0000
0100
1000
0000
0100
1000
0000
0001
0000
0000
0000
,
0010
0001
0000
0010
0001
0000
0010
0001
0000
0010
0001
0000
1000
0000
0010
0000
,
0100
0010
0000
0100
0010
0000
0100
0010
0000
0100
0010
0000
0110
0000
0000
0000
,
1000
0100
1000
0001
0010
1000
0010
0001
,
1000
0001
0100
0001
1000
0010
0100
0001
,
0101
0000
0000
1001
0000
0000
1000
0000
1100
0000
0000
1001
0000
0000
1000
0000
,
0010
0000
0000
0110
0000
0000
0100
0000
0001
0000
0010
0000
0100
0000
1000
0000
,
0110
0000
0001
0000
0100
0001
0000
1000
0000
0000
0100
0000
0010
0000
0100
0000
,
1000
0000
0010
0000
0100
0001
0000
1000
0000
0000
0100
0000
0010
0000
0100
0000
,
1000
0000
0010
0000
1000
0001
0000
0010
0000
0000
0100
0000
1000
0000
0001
0000
,
0100
0001
1000
0100
0010
0000
0110
0000
;

//---------------dance-single - ----------------
#NOTES:
     dance-single:
     :
     Challenge:
     10:
     0.792174,0.895162,0.237433,0.045955,1.102916,724.000000,693.000000,31.000000,6.000000,0.000000,0.000000,0.792174,0.895162,0.237433,0.045955,1.102916,724.000000,693.000000,31.000000,6.000000,0.000000,0.000000:
0000
0000
0000
0000
,
0011
0000
0100
0000
1000
0100
0000
0001
0000
0000
0100
0000
0010
0000
0001
0000
,
1000
0000
0001
0000
0100
1000
0000
0200
0000
0000
0301
0000
1000
0000
0010
0000
,
0100
0000
0001
0000
0010
1000
0000
0010
0000
0000
0001
0000
1000
0000
0001
0000
,
0100
0000
0000
0000
0010
0000
0000
0000
1000
0000
0100
0000
0000
0000
0001
0000
0000
0000
0000
1000
0010
0000
0000
0000
0010
0000
0001
0000
0000
0000
0000
0000
,
0100
0000
0001
0000
1000
0100
0000
0001
0000
0000
0100
0000
1000
0000
0010
0000
,
0100
0000
1000
0000
0001
0010
0000
0200
0000
0000
0301
0000
1000
0000
0001
0000
,
0010
0000
0100
0000
1000
0010
0000
0100
0000
0000
1000
0000
0001
0000
0010
0000
,
1000
0000
0010
0000
1000
0000
0010
0000
1000
0000
0010
0000
1000
0000
0001
0000
1000
0000
0001
0000
1000
0000
0001
0000
1000
0000
0000
0100
0000
0000
1000
0000
0000
0100
0000
0000
1000
0000
0000
0000
0000
0000
0000
0000
0000
0000
0000
0000
,
0100
0000
0010
0000
0001
1000
0000
0100
0000
0000
0001
0000
0100
0000
1000
0000
,
0001
0000
0000
0000
0000
0000
0010
0000
0000
0000
0000
0000
1000
0000
0000
0010
0000
0000
0000
0000
0000
0001
0000
1000
0000
0001
0000
1000
0000
0001
0000
1000
0000
0001
0000
1000
0000
0001
0000
0000
0000
0000
1000
0000
0000
0000
0000
0000
,
0100
0000
1000
0000
0010
1000
0000
0100
0000
0000
0001
0000
0100
0000
1000
0000
,
0001
0000
0000
0000
0010
0000
0000
0000
0100
0000
1000
0000
0000
0001
0100
0000
0000
0000
0000
0000
0110
0000
0000
0000
1000
0000
0001
0000
0100
0000
0000
0000
,
0100
0000
0001
0000
1000
0001
0000
0100
0000
0000
0100
0010
1000
0001
0010
0000
,
0010
0000
0000
0000
0000
0000
0100
0000
0000
0000
0000
0000
0010
0000
0000
0001
0000
0000
0000
0000
0000
1000
0000
0001
0000
1000
0000
0001
0000
1000
0000
0001
0000
1000
0000
0001
0000
1000
0000
0000
0000
0000
0001
0000
0000
0000
0000
0000
,
1000
0000
0010
0000
0100
0001
0000
1000
0100
0010
0001
1000
0100
0010
0001
1000
,
0100
0000
1000
0000
0100
0000
1000
0000
0100
0000
1000
0000
0001
0000
1000
0000
0001
0000
1000
0000
0001
0000
1000
0000
0001
0000
0000
0010
0000
0000
0001
0000
0000
0010
0000
0000
0100
0000
0000
0000
0000
0000
0000
0000
0000
0000
0000
0000
,
0001
0100
0000
1000
0100
0000
0010
0001
0000
0100
0001
0000
1000
0000
0100
0000
,
0010
0100
0000
1000
0100
0000
0010
0001
0000
1000
0010
0000
0100
0000
0000
0000
,
0001
0100
0000
1000
0100
0000
0001
0100
0000
0010
1000
0000
0001
0000
0010
0000
,
0100
0001
0000
0100
1000
0000
0001
0100
0000
0010
1000
0000
0001
0000
0000
0000
,
1000
0000
0000
0010
0000
0000
1000
0000
0001
1000
0000
0001
0010
0000
0100
0010
0000
0001
1000
0000
0001
0100
0000
0010
,
1000
0000
0100
0000
0000
0010
0000
0000
0001
0000
0000
1000
0000
0000
0000
0010
0000
0000
0001
0000
0100
0001
0000
0000
,
0101
0000
0000
1010
0000
1000
0001
1000
1100
0000
0000
0011
0000
0000
1001
0000
,
1010
0000
0000
0110
0000
0100
0001
0000
1001
0000
1100
0000
1001
0000
0011
0000
,
0001
0000
1000
0000
0100
0001
0000
0100
0000
0000
1000
0000
0010
0000
0100
0000
,
0001
0000
0010
0000
0100
1000
0000
0002
0000
0000
1003
0000
0010
0000
0100
0000
,
0001
0000
1000
0000
0010
0001
0000
0010
0000
0000
0100
0000
0001
0000
1000
0000
,
0001
0010
0001
0010
0001
0010
0001
1000
0001
1000
0001
1000
0001
0100
0010
1000
0000
0000
0101
0000
0000
0000
0000
0000
,
1002
0100
0000
1000
0000
0100
0003
1000
,
0100
0001
0100
1000
0100
0001
0100
1000
,
2000
0010
0000
0001
0000
0010
3000
0001
,
0010
0000
1000
0000
0010
0000
0001
0000
0010
0000
1000
0000
0010
0001
1000
0001
,
0100
0000
0000
0000
0101
0000
0000
1000
0100
0000
0010
0100
1000
0000
0001
0100
,
0001
0000
1000
0010
0100
0001
1000
0000
0100
0000
0000
0010
0001
0000
0000
1000
,
0100
1000
0001
0000
0000
0000
0100
0000
0000
0000
0000
0001
1000
0001
0010
0100
,
1000
0100
1000
0100
1000
0001
1000
0000
0001
0100
0001
0000
0101
0000
0000
0000
,
0010
0000
0000
0000
0001
1000
0100
1000
0001
0000
0100
0001
1000
0000
0000
0001
,
0100
0000
0001
1000
0010
0000
0100
0000
0001
1000
0100
0000
0010
0000
0000
0100
,
1000
0000
0001
1000
0100
0010
0100
0010
0001
0000
1000
0001
0100
0010
0100
0010
,
1000
0001
0000
1000
0001
0000
0000
0000
0100
0001
0100
0000
0001
1000
0100
1000
,
0001
0100
0000
0001
1000
0000
0000
0100
1000
0010
1000
0000
0100
0010
0001
0000
,
1000
0100
0000
0010
0001
1000
0001
0000
0100
0000
0001
0000
1000
0100
1000
0000
,
0010
0100
0001
0000
1000
0000
0000
0001
1000
0000
0100
0000
0000
0010
0001
0000
,
1000
0000
0000
0001
0100
0010
1000
0000
0100
0010
0001
0000
1001
0000
0000
0000
,
0001
0000
1000
0000
0010
0001
0000
0010
0000
0000
1000
0000
0001
0000
1000
0000
,
0100
0000
0010
0000
0001
0010
0000
2000
0000
0000
3001
0000
0100
0000
1000
0000
,
0010
0000
0100
0000
1000
0100
0000
0001
0100
0000
0010
0000
1000
0000
0001
0000
,
1000
0000
0100
0000
1000
0000
0100
0000
1000
0000
0100
0000
1000
0000
0001
0000
1000
0000
0001
0000
1000
0000
0001
0000
1000
0000
0000
0010
0000
0000
0100
0000
0000
0001
0000
0000
0100
0000
0000
0000
0000
0000
0000
0000
0000
0000
0000
0000
,
0001
0000
1000
0000
0010
0100
0000
0010
0000
1000
0001
0000
0000
1000
0100
1000
,
0100
0000
0000
0000
0000
0000
0010
0000
0000
0000
0000
0000
0001
0000
0000
1000
0000
0000
0000
0000
0000
0100
0000
1000
0000
0100
0000
1000
0000
0100
0000
1000
0000
0100
0000
1000
0000
0100
0000
1000
0000
0000
0001
0000
0000
1000
0000
0000
,
0001
0000
0100
0000
0001
0100
0000
0001
0000
0000
0100
0000
0001
0000
0100
0001
,
1000
0000
0001
0000
1000
0001
0000
0010
0000
0000
0001
0000
1000
0000
0000
0000
,
1100
0000
0001
0000
0100
0001
0000
0100
0000
0000
0010
1000
0100
1000
0010
0000
,
0100
0000
0000
0000
0000
0000
0001
0000
0000
0000
0000
0000
0100
0000
0000
1000
0000
0000
0000
0000
0000
0100
0000
0001
0000
0100
0000
0001
0000
0100
0000
0001
0000
0100
0000
0001
0000
0000
0000
0000
0000
0000
1000
0000
0000
0000
0000
0000
,
0100
0000
0010
0000
0001
1000
0000
0010
0100
0001
1000
0100
0010
0001
1000
0010
,
0100
0000
0001
0000
0100
0000
0001
0000
0100
0000
0001
0000
1000
0000
0001
0000
1000
0000
0001
0000
1000
0000
0001
0000
1000
0000
0000
0100
0000
0000
1000
0000
0000
0100
0000
0000
1000
0000
0000
0000
0000
0000
0000
0000
0000
0000
0000
0000
,
0001
1000
0000
0001
0100
0000
0001
1000
0000
0100
1000
0000
0001
0000
1000
0000
,
0010
1000
0000
0001
1000
0000
0100
0010
0000
0001
1000
0000
1001
0000
0000
0000
,
0001
0100
0000
1000
0100
0000
0010
0001
0000
0010
1000
0000
0001
0000
0010
0000
,
0100
0001
0000
0100
1000
0000
0001
0010
0000
0100
1000
0000
0110
0000
0000
0000
,
1000
0000
0000
0100
0000
0000
0010
0000
0001
0010
0000
0001
1000
0000
0100
0010
0000
0001
1000
0000
0010
0100
0000
0001
,
1000
0000
0000
0000
0010
0000
0000
0000
0000
0000
0100
0000
0000
0000
0000
0000
0001
0000
0000
0000
0000
0000
1000
0000
0000
0000
0000
0000
0000
0000
0001
0000
0000
0000
0000
0000
0010
0000
0000
0100
0000
0000
0010
0000
0000
0000
0000
0000
,
0011
0000
0000
1001
0000
1000
0010
1000
1010
0000
1000
0001
0000
0000
1000
0000
,
0010
0000
0000
0110
0000
0000
0100
0000
0101
0000
1001
0000
1100
0000
1001
0000
,
0110
0000
0001
0000
0100
0001
0000
1000
0000
0000
0100
0000
0010
0000
0100
0000
,
1000
0000
0010
0000
0001
0010
0000
0100
0000
0000
1000
0000
0100
0000
0010
0000
,
1000
0000
0001
0000
0010
1000
0000
0010
0000
0000
0100
0000
1000
0000
0001
0000
,
0100
0001
0100
0001
0100
0001
1000
0100
1000
0100
1000
0100
0010
0001
1000
0010
0000
0000
0110
0000
0000
0000
0000
0000
;

//---------------dance-single - ----------------
#NOTES:
     dance-single:
     :
     Medium:
     7:
     0.413593,0.421253,0.168501,0.061273,0.084251,378.000000,356.000000,22.000000,8.000000,0.000000,0.000000,0.413593,0.421253,0.168501,0.061273,0.084251,378.000000,356.000000,22.000000,8.000000,0.000000,0.000000:
// measure 0
0000
0000
0000
0000
,  // measure 1
1000
0100
1000
0001
0010
0000
0011
0000
,  // measure 2
0010
0001
0100
0001
0010
0000
0110
0000
,  // measure 3
0001
0100
1000
0100
0001
0000
1001
0000
,  // measure 4
1000
0100
0010
0100
1000
0000
0110
0000
,  // measure 5
0010
1000
0001
1000
0010
0000
1001
0000
,  // measure 6
1000
0100
0010
0001
0100
0000
1001
0000
,  // measure 7
0001
1000
0100
0000
1000
0010
0100
0000
,  // measure 8
0010
1000
0001
1000
0010
0000
1010
0000
,  // measure 9
1000
0100
0010
0110
,  // measure 10
0010
0001
1000
0000
0001
0000
0101
0000
,  // measure 11
0100
0010
0100
0000
0010
0000
1000
0000
,  // measure 12
0001
1000
0001
0000
0010
0000
0110
0000
,  // measure 13
1000
0100
1000
0000
0001
0000
1000
0000
,  // measure 14
0001
0100
0001
0000
1000
0000
1001
0000
,  // measure 15
0001
0100
0001
0000
1000
0010
0100
0000
,  // measure 16
0010
0000
1000
0000
0001
0010
0110
0000
,  // measure 17
0010
0000
0000
0100
0000
0000
0010
0000
0000
0001
0000
0000
1000
0000
0000
0000
,  // measure 18
0001
0000
0000
1000
0000
0000
0001
0000
0000
0100
0000
0000
0001
0000
0000
0000
,  // measure 19
1000
0000
0000
0010
0000
0000
0100
0000
0000
0010
0000
0000
1000
0000
0000
0000
,  // measure 20
0100
0000
0000
1000
0000
0000
0001
0000
0000
1000
0000
0000
0100
0000
0000
0000
,  // measure 21
0010
0000
0001
0000
1000
0001
0100
0000
,  // measure 22
0010
0000
1000
0000
0001
1000
0100
0000
,  // measure 23
0010
0000
0000
0001
0000
0000
1000
0000
0010
0000
0000
0100
0000
0000
0010
0000
,  // measure 24
1000
0000
0000
0001
0000
0000
0010
0000
0100
0000
0010
0000
0100
0000
0010
0000
,  // measure 25
0100
1000
0001
1000
,  // measure 26
0010
1000
0001
0000
0100
0000
0101
0000
,  // measure 27
0100
0001
0010
0000
0100
1000
0001
0000
,  // measure 28
1000
0100
1000
0100
1000
0000
0000
0000
,  // measure 29
2002
3003
0010
0001
,  // measure 30
1000
0000
0001
0000
1000
0001
1000
0000
,  // measure 31
0001
0100
0001
0000
1000
0000
0010
0000
,  // measure 32
0100
0010
0100
0000
0010
0000
1000
0000
,  // measure 33
0002
0013
2000
3001
,  // measure 34
0100
1000
0010
0000
0100
0001
1000
0000
,  // measure 35
0020
1030
0200
0301
,  // measure 36
1000
0001
0100
0000
0010
1000
0100
0000
,  // measure 37
0002
1003
0020
0130
,  // measure 38
0001
1000
0010
0000
0100
0001
1000
0000
,  // measure 39
0001
0101
0010
1100
,  // measure 40
0001
1000
0010
0000
1000
0100
0001
0000
,  // measure 41
0100
0000
0010
0000
0001
1000
0010
0000
,  // measure 42
1000
0100
0001
0000
0001
0100
1000
0000
,  // measure 43
0010
1000
0100
0000
0010
0000
1001
0000
,  // measure 44
0010
0001
0100
0000
0010
1000
0001
0000
,  // measure 45
0100
0010
1000
0001
0100
0000
1001
0000
,  // measure 46
0001
1000
0010
1000
0001
0000
1001
0000
,  // measure 47
0010
0001
0100
0000
0010
1000
0100
0000
,  // measure 48
0010
0100
1000
0100
0010
0000
0110
0000
,  // measure 49
0010
0001
1000
0001
,  // measure 50
0100
0010
0100
0010
,  // measure 51
1000
0100
0001
0100
,  // measure 52
1000
0001
0100
0010
,  // measure 53
1000
0010
1000
0000
0001
0100
0001
0000
,  // measure 54
1000
0000
0001
0000
0010
0100
0010
0000
,  // measure 55
0001
0000
1000
0000
0100
1000
0100
0000
,  // measure 56
0010
0000
0001
0000
1000
0001
1000
0000
,  // measure 57
0001
0000
0000
0100
0000
0000
1000
0000
0000
0100
0000
0000
0010
0000
0000
0000
,  // measure 58
1000
0000
0000
0001
0000
0000
0100
0000
0000
0001
0000
0000
1000
0000
0000
0000
,  // measure 59
0100
0000
0000
0010
0000
0000
0001
0000
0000
0010
0000
0000
0100
0000
0000
0000
,  // measure 60
1000
0000
0000
0001
0000
0000
0100
0000
0000
0010
0000
0000
0100
0000
0000
0000
,  // measure 61
0001
0000
1000
0000
0100
0010
0100
0010
,  // measure 62
0001
1000
0010
0100
,  // measure 63
0001
0000
0000
1000
0000
0000
0100
0000
0010
0000
0000
0100
0000
0000
1000
0000
,  // measure 64
0001
0000
0000
0010
0000
0000
0100
0000
1000
0000
0100
0000
1000
0000
0100
0000
,  // measure 65
1000
0001
0100
0010
,  // measure 66
1000
0001
0100
0010
0100
0000
0110
0000
,  // measure 67
0001
1000
0100
0000
1000
0001
0010
0000
,  // measure 68
1000
0000
0010
0000
0001
0010
0110
0000
;

//---------------dance-single - ----------------
#NOTES:
     dance-single:
     :
     Easy:
     4:
     0.260411,0.263283,0.068932,0.122546,0.000000,238.000000,229.000000,9.000000,16.000000,0.000000,0.000000,0.260411,0.263283,0.068932,0.122546,0.000000,238.000000,229.000000,9.000000,16.000000,0.000000,0.000000:
0000
0000
0000
0000
,
1000
0100
1000
1000
,
0001
0010
0100
0100
,
0010
0001
1000
1000
,
0001
0100
0010
0010
,
0100
0001
1000
1000
,
0001
0010
0100
0100
,
1000
1000
0001
0001
,
0100
0010
0220
0330
,
0001
1000
0002
0013
,
1000
0001
1000
0001
,
1000
0100
2000
3001
,
0100
0010
0100
0010
,
1000
0010
0002
1003
,
0001
0100
0001
0100
,
0010
1000
0200
0310
,
0001
1000
0001
1000
,
0100
0100
0100
0101
,
0010
0100
0010
0000
,
1000
1000
1000
1100
,
0010
0100
0010
0000
,
0001
1000
0100
0010
,
0001
1000
0001
1000
,
0001
0000
1000
0000
,
0100
0000
0010
0010
,
0010
0001
1000
1001
,
0001
0100
0002
1003
,
0010
0100
0010
0100
,
0001
1000
0100
0000
,
0200
0000
0300
0000
,
2000
0000
3000
0000
,
0002
0000
0003
0000
,
0200
0000
0300
0000
,
0010
0010
1000
1000
,
0001
0001
0010
0010
,
0100
0100
1000
1000
,
0001
0001
0100
0100
,
0010
0010
1000
0001
,
1000
1000
0100
1000
,
0001
0001
0010
0001
,
0010
0010
0100
0010
,
0100
0000
1000
0000
,
0001
1000
0010
0100
,
0001
0000
1000
0000
,
0100
0010
0001
1000
,
0100
0100
0010
0000
,
0001
1000
0100
0000
,
1000
0010
0100
0001
,
1000
0001
2002
3003
,
0001
0000
0010
0000
,
1000
0000
0010
0000
,
0001
0000
1000
0000
,
0001
0000
0100
0000
,
0010
0100
0010
0000
,
1000
0001
0100
0000
,
0001
0010
0100
1000
,
0010
0100
0220
0330
,
0010
0010
0010
1010
,
0010
0100
0010
0000
,
0100
0100
0100
0101
,
0100
0010
0100
0000
,
0001
1000
0100
1000
,
0001
0010
0100
1000
,
0010
0000
0100
0000
,
0001
0000
1000
1000
,
0100
0010
0100
0010
,
0001
1000
0200
0300
,
0010
0100
0010
0010
,
0001
1000
0001
1001
;

//---------------dance-single - ----------------
#NOTES:
     dance-single:
     :
     Beginner:
     1:
     0.113793,0.184298,0.015318,0.000000,0.000000,104.000000,102.000000,2.000000,0.000000,0.000000,0.000000,0.113793,0.184298,0.015318,0.000000,0.000000,104.000000,102.000000,2.000000,0.000000,0.000000,0.000000:
0000
0000
0000
0000
,
1000
0000
1000
0000
,
0001
0000
0001
0000
,
0100
0000
0100
0000
,
0010
0000
1000
0000
,
0001
0000
0001
0000
,
0010
0000
0010
0000
,
0100
0000
0100
0000
,
1000
0000
0001
0000
,
1000
0000
1000
0000
,
0100
0000
0100
0000
,
0010
0000
0010
0000
,
0001
0000
0001
0000
,
1000
0000
1000
0000
,
0001
0000
0001
0000
,
0100
0000
0010
0000
,
0100
0000
0010
0000
,
1000
0000
0000
0000
,
0001
0000
0000
0000
,
0010
0000
0000
0000
,
0100
0000
0000
0000
,
1000
0000
1000
0000
,
0001
0000
0001
0000
,
0100
0000
0000
0000
,
0000
0000
0000
0000
,
0010
0000
0010
0000
,
1000
0000
1000
0000
,
0001
0000
0010
0000
,
0100
0000
0000
0000
,
1000
0000
0000
0000
,
0001
0000
0000
0000
,
0100
0000
0000
0000
,
0010
0000
0000
0000
,
1000
0000
0000
0000
,
1000
0000
0000
0000
,
0001
0000
0000
0000
,
0001
0000
0000
0000
,
0010
0000
0000
0000
,
0100
0000
0000
0000
,
0010
0000
0000
0000
,
0100
0000
0000
0000
,
1000
0000
0000
0000
,
0001
0000
0000
0000
,
0100
0000
0000
0000
,
0010
0000
0000
0000
,
1000
0000
1000
0000
,
0001
0000
0001
0000
,
0100
0000
0010
0000
,
0100
0000
0100
0000
,
0001
0000
0000
0000
,
1000
0000
0000
0000
,
0100
0000
0000
0000
,
0010
0000
0000
0000
,
0001
0000
0001
0000
,
1000
0000
1000
0000
,
0100
0000
0010
0000
,
0100
0000
0100
0000
,
1000
0000
0000
0000
,
0001
0000
0000
0000
,
0100
0000
0000
0000
,
0010
0000
0000
0000
,
1000
0000
1000
0000
,
0001
0000
0001
0000
,
0100
0000
0000
0000
,
0000
0000
0000
0000
,
0010
0000
0010
0000
,
1000
0000
0001
0000
,
1000
0000
0100
0000
,
0010
0000
0110
0110
;
