#TITLE:With You;
#SUBTITLE:(Jai Wolf Remix);
#ARTIST:Dirty South;
#TITLETRANSLIT:;
#SUBTITLETRANSLIT:;
#ARTISTTRANSLIT:;
#GENRE:With You;
#CREDIT:;
#BANNER:With You (Jai Wolf Remix)-bn.png;
#BACKGROUND:With You (Jai Wolf Remix)-bg.png;
#LYRICSPATH:;
#CDTITLE:;
#MUSIC:With You (Jai Wolf Remix).mp3;
#OFFSET:-0.088000;
#SAMPLESTART:111.228104;
#SAMPLELENGTH:20.210518;
#LASTBEATHINT:206.869476;
#SELECTABLE:YES;
#DISPLAYBPM:95.000000:190.000000;
#BPMS:0.000000=95.000000
,128.000000=190.000000
,152.000000=380.000000
,155.500000=95.000000
,186.500000=380.000000
,187.000000=379.980011
,187.500000=95.000000
;
#STOPS:152.000000=0.473686,
153.000000=0.473679,
154.000000=0.118416,
154.250000=0.236839,
154.750000=0.118416,
155.000000=0.236839,
186.500000=0.059212,
186.625000=0.059212,
186.750000=0.059212,
186.875000=0.059212,
187.000000=0.118423,
187.250000=0.118423
;
#BGCHANGES:;
#KEYSOUNDS:;
#ATTACKS:;

//---------------dance-single - ----------------
#NOTES:
     dance-single:
     :
     Challenge:
     10:
     0.581242,0.804817,0.149899,0.021414,0.960070,570.000000,549.000000,21.000000,3.000000,0.000000,0.000000,0.581242,0.804817,0.149899,0.021414,0.960070,570.000000,549.000000,21.000000,3.000000,0.000000,0.000000:
0000
0000
0000
0000
,
0000
0000
0000
0000
,
0000
0000
0000
0000
,
0000
0000
0000
0000
,
1000
0010
0000
1000
0000
0001
0100
0000
0010
0000
1000
0000
1001
0000
0000
0000
,
0001
0010
0000
0001
0000
1000
0100
0000
0010
0000
0001
0000
1000
0000
0001
0000
,
0100
0001
0000
1000
0000
0100
1000
0000
0010
0000
1000
0000
1001
0000
0000
0000
,
1000
0100
0000
0010
0000
0001
1000
0000
0010
0000
1000
0000
0001
0000
0100
0001
,
1000
0010
0100
0001
0000
0010
0100
1000
0000
0100
0010
0001
0000
1000
0100
0010
,
0001
1000
0010
0100
0000
0010
1000
0001
0000
0100
0001
1000
0000
0100
1000
0010
,
1000
0100
0010
0001
0000
0100
0010
1000
0000
0010
1000
0001
0000
0010
0001
1000
,
0010
1000
0001
0100
0000
0001
1000
0100
0000
0100
1000
0010
0000
0100
0001
0010
,
0001
1000
0010
0100
0000
0010
1000
0100
0000
0010
0001
0100
0000
0001
1000
0010
,
0100
0001
1000
0100
0000
0010
0001
0100
0000
0010
1000
0100
0000
0010
0100
0010
,
0001
1000
0100
0010
0000
0001
1000
0010
0000
1000
0001
0100
0000
0010
0100
0001
,
1000
0010
1000
0100
0000
0010
0001
0100
0000
0001
1000
0100
0000
0010
0100
0010
,
0001
0000
0101
0000
0010
0000
1001
0100
,
0010
0000
1100
0000
0010
0000
0110
0001
,
1000
0000
0000
0000
1010
0000
0000
0000
0001
0000
0000
0000
1100
0000
0100
0010
,
0001
0000
0000
0000
1001
0000
0000
0010
1000
0000
0000
0000
1001
0000
0100
0000
,
0010
1000
0000
0100
0000
1000
0010
0000
0100
0000
0001
0000
1000
0000
0000
0000
,
0001
0100
0000
0010
0000
0100
0001
0000
1000
0000
0001
0000
0010
0000
0100
0000
,
0010
0001
0000
1000
0000
0001
1000
0000
0100
0000
0010
0000
0001
0000
0000
0000
,
1000
0010
0000
1000
0000
0100
0010
0000
0001
0000
1000
0000
0010
0000
0100
0000
,
0002
0000
0000
0023
,
0230
0000
0000
0000
0000
0000
0000
0000
0000
0000
0000
1300
0001
0000
1000
0010
,
1000
0100
0000
0010
0000
0001
0100
0000
0010
0000
1000
0000
0001
0000
0000
0000
,
0010
0001
0000
1000
0000
0100
0010
0000
0001
0000
1000
0000
0010
0000
0100
0000
,
0010
1000
0010
1000
0010
0000
0000
0000
0100
0001
0100
0001
0100
0000
0000
0000
0001
1000
0001
1000
0001
0000
0000
0000
0010
0001
0010
0001
0010
0000
0000
0000
,
0100
1000
0100
1000
0100
0000
0000
0000
0010
0001
0010
0001
0010
0000
0000
0000
0001
0100
0001
0100
0001
0000
0000
0000
1000
0010
1000
0010
1000
0000
0000
0000
,
0001
1000
0001
1000
0001
0000
0000
0000
0100
0010
0100
0010
0100
0000
0000
0000
0010
1000
0010
1000
0010
0000
0000
0000
1000
0100
1000
0100
1000
0000
0000
0000
,
0100
0010
0100
0010
0100
0000
0000
0000
0010
0001
0010
0001
0010
0000
0000
0000
0001
0100
0001
0100
0001
0000
0000
0000
1000
0010
1000
0010
1000
0000
0000
0000
,
0001
0100
0001
0100
0001
0000
0000
0000
1000
0100
1000
0100
1000
0000
0000
0000
,
0010
0100
0010
0100
0010
0000
0000
0000
1000
0001
1000
0001
1000
0000
0000
0000
,
0010
0100
0010
0100
0010
0000
0000
0000
1000
0001
1000
0001
1000
0000
0000
0000
,
0100
1000
0100
1000
0100
0000
0000
0000
0010
0001
0010
0001
0010
0000
0000
0000
,
0001
0100
0001
0100
0001
0100
0001
0100
0010
1000
0010
1000
0010
1000
0010
1000
,
0001
0100
0001
0100
0010
1000
0010
1000
0001
0100
0001
0100
0010
1000
0010
1000
,
0010
0000
0000
0000
0010
0000
0000
0000
1000
0100
0000
0001
0100
0000
0100
0000
,
1001
0100
0010
1000
0000
0010
0100
0001
0000
0010
0100
0010
0000
0010
0001
0010
,
0000
0001
1000
0010
0000
0010
1000
0010
0000
0010
1000
0001
0000
0001
0010
0001
,
0100
0010
0100
0001
0000
0001
0100
0001
0000
0001
0010
0001
0000
0001
1000
0010
,
0000
0010
1000
0010
0000
0010
0100
0010
0000
0010
1000
0100
0000
0100
1000
0100
,
0010
0001
0100
0010
0000
0010
1000
0010
0000
0010
1000
0001
0000
0001
1000
0001
,
0000
0001
0010
0001
0000
0001
0100
0001
0000
0100
0010
0100
0000
0100
1000
0100
,
0001
0100
0010
1000
0000
1000
0010
0001
0000
0001
0010
1000
0000
1000
0010
0100
,
0000
0000
0100
0000
0010
0000
1000
0000
0000
0000
1000
0000
0100
0000
0001
0000
0100
0000
0000
0000
1000
0100
1000
0100
1000
0000
0001
0000
0100
0000
0000
0000
,
1001
0100
0000
0010
0000
1000
0100
0000
0010
0000
0001
0000
1001
0000
0000
0000
,
0010
1000
0000
0001
0000
0100
0010
0000
0100
0000
0001
0000
1100
0000
0100
0000
,
1000
0010
0000
1000
0000
0100
0010
0000
0001
0000
1000
0000
0110
0000
0000
0000
,
0100
0001
0000
0010
0000
0100
1000
0000
0010
0000
1000
0000
0101
0000
0100
0000
,
0010
0100
0000
0001
0000
1000
0100
0000
0010
0000
0100
0000
1001
0000
0000
0000
,
0001
1000
0000
0010
0000
1000
0001
0000
0010
0000
0100
0000
0110
0000
0001
0000
,
1000
0100
0000
0010
0000
0100
1000
0000
0010
0000
1000
0000
0101
0000
0000
0000
,
0010
0100
0000
0010
0000
0001
1000
0000
0010
0000
1000
0000
1001
0000
0100
0000
,
0110
0000
0000
0000
;

//---------------dance-single - ----------------
#NOTES:
     dance-single:
     :
     Hard:
     8:
     0.474171,0.510372,0.135623,0.021414,0.578183,465.000000,446.000000,19.000000,3.000000,0.000000,0.000000,0.474171,0.510372,0.135623,0.021414,0.578183,465.000000,446.000000,19.000000,3.000000,0.000000,0.000000:
0000
0000
0000
0000
,
0000
0000
0000
0000
,
0000
0000
0000
0000
,
0000
0000
0000
0000
,
1000
0010
0000
1000
0000
0001
0100
0000
0010
0000
1000
0000
1001
0000
0000
0000
,
0001
0010
0000
0001
0000
1000
0100
0000
0010
0000
0001
0000
1000
0000
0001
0000
,
0100
0001
0000
1000
0000
0100
1000
0000
0010
0000
1000
0000
1001
0000
0000
0000
,
1000
0100
0000
0010
0000
0001
1000
0000
0010
0000
1000
0000
0001
0000
0100
0001
,
1000
0010
0000
1000
0000
0100
0010
0000
0100
0000
1000
0000
1001
0000
0000
0000
,
0001
1000
0000
0010
0000
0100
0001
0000
0010
0000
0100
0000
0010
0000
0001
0000
,
1000
0010
0000
0100
0000
0001
1000
0000
0010
0000
0100
0000
1001
0000
0000
0000
,
1000
0010
0000
1000
0000
0001
0100
0000
0010
0000
1000
0000
0100
0000
0010
0000
,
0100
1000
0000
0001
0000
0010
0100
0000
0010
0000
0001
0000
1001
0000
0000
0000
,
0001
1000
0000
0010
0000
1000
0001
0000
0010
0000
0100
0000
1000
0000
0001
0000
,
0100
0010
0000
1000
0000
0001
0100
0000
0010
0000
0100
0000
1001
0000
0000
0000
,
0001
1000
0000
0010
0000
1000
0001
0000
0010
0000
0001
0000
1000
0000
0100
0000
,
0001
0000
0101
0000
0010
0000
1001
0100
,
0010
0000
1100
0000
0010
0000
0110
0001
,
1000
0000
0000
0000
1010
0000
0000
0000
0001
0000
0000
0000
1100
0000
0100
0010
,
0001
0000
0000
0000
1001
0000
0000
0010
1000
0000
0000
0000
1001
0000
0100
0000
,
0010
1000
0000
0100
0000
1000
0010
0000
0100
0000
0001
0000
1000
0000
0000
0000
,
0001
0100
0000
0010
0000
0100
0001
0000
1000
0000
0001
0000
0010
0000
0100
0000
,
0010
0001
0000
1000
0000
0001
1000
0000
0100
0000
0010
0000
0001
0000
0000
0000
,
1000
0010
0000
1000
0000
0100
0010
0000
0001
0000
1000
0000
0010
0000
0100
0000
,
0002
0000
0000
0023
,
0230
0000
0000
0000
0000
0000
0000
0000
0000
0000
0000
1300
0001
0000
1000
0010
,
1000
0100
0000
0010
0000
0001
0100
0000
0010
0000
1000
0000
0001
0000
0000
0000
,
0010
0001
0000
1000
0000
0100
0010
0000
0001
0000
1000
0000
0010
0000
0100
0000
,
0010
1000
0010
0000
1000
0100
1000
0000
0001
1000
0001
0000
0010
0001
0010
0000
,
0001
0100
0001
0000
0100
0010
0100
0000
0010
1000
0010
0000
1000
0001
1000
0000
,
0001
0010
0001
0000
0100
0010
0100
0000
0001
0100
0001
0000
1000
0010
1000
0000
,
0100
1000
0100
0000
0010
0100
0010
0000
0001
0010
0001
0000
1000
0001
0100
0000
,
0010
1000
0100
0000
0010
0001
0100
0000
,
0001
0100
0010
0000
0100
0010
1000
0000
,
0010
1000
0001
0000
0010
0001
1000
0000
,
0001
1000
0100
0000
0010
0100
1000
0000
,
0001
0010
0001
0010
0100
1000
0100
1000
,
0010
0100
0001
1000
0010
0100
0001
1000
,
0010
0000
0000
0000
0010
0000
0000
0000
1000
0001
0000
0100
0010
0000
0100
0000
,
0001
0100
0010
1000
0000
0010
0100
0001
0000
0010
0100
0010
0000
0001
0010
0001
,
0000
0010
0001
1000
0000
0010
1000
0010
0000
1000
0001
1000
0000
0001
0100
0001
,
1000
0010
0100
0001
0000
0100
0001
0100
0000
0001
0010
0001
0000
0010
0001
1000
,
0000
0010
1000
0010
0000
0100
0010
0100
0000
0010
1000
0100
0000
1000
0100
1000
,
0001
0100
0010
1000
0000
0010
1000
0010
0000
1000
0001
1000
0000
0001
1000
0001
,
0000
0010
0001
0010
0000
0001
0100
0001
0000
0100
0010
0100
0000
0010
1000
0010
,
0100
0001
1000
0010
0000
1000
0010
1000
0000
0001
0010
0001
0000
1000
0010
0100
,
0000
0001
0100
0010
0000
1000
0100
0010
0001
0000
1000
0000
0001
1000
0100
0000
,
1000
0100
0000
0010
0000
0001
0100
0000
0010
0000
1000
0000
1001
0000
0000
0000
,
0010
1000
0000
0001
0000
0100
0010
0000
0100
0000
0001
0000
1000
0000
0100
0000
,
1000
0010
0000
1000
0000
0100
0010
0000
0001
0000
1000
0000
0110
0000
0000
0000
,
0100
0001
0000
0010
0000
0100
1000
0000
0010
0000
1000
0000
0001
0000
0100
0000
,
0010
0100
0000
0001
0000
1000
0100
0000
0010
0000
0100
0000
1001
0000
0000
0000
,
0001
1000
0000
0010
0000
1000
0001
0000
0010
0000
0100
0000
1000
0000
0001
0000
,
1000
0100
0000
0010
0000
0100
1000
0000
0010
0000
1000
0000
1001
0000
0000
0000
,
0010
0100
0000
0010
0000
0001
1000
0000
0010
0000
1000
0000
0001
0000
0100
0000
,
0110
0000
0000
0000
;

//---------------dance-single - ----------------
#NOTES:
     dance-single:
     :
     Medium:
     6:
     0.300818,0.333705,0.092795,0.221280,0.000000,295.000000,282.000000,13.000000,31.000000,0.000000,0.000000,0.300818,0.333705,0.092795,0.221280,0.000000,295.000000,282.000000,13.000000,31.000000,0.000000,0.000000:
0000
0000
0000
0000
,
0000
0000
0000
0000
,
0000
0000
0000
0000
,
0000
0000
0000
0000
,
1000
0000
1100
0000
0001
1000
0100
0000
,
0001
0000
0101
0000
1000
0001
0100
0000
,
0010
0000
1010
0000
0001
1000
0010
0000
,
1000
0011
0010
0100
,
1000
0100
1000
0100
0010
0001
0010
0000
,
0001
0100
0001
0100
0010
1000
0010
0000
,
1000
0001
1000
0001
0100
0010
0100
0000
,
0001
1000
0001
1000
0010
0100
0010
0000
,
1000
0100
1000
0100
0001
1000
0001
0000
,
0001
0100
0001
0100
1000
0001
1000
0000
,
0001
1000
0001
1000
0010
0100
0010
0000
,
1000
0001
1000
0001
0100
0010
0100
0010
,
0100
0010
1000
0100
,
0010
0001
1000
0100
,
0010
0001
0100
0010
,
1000
0001
0010
0100
,
1000
0100
1000
0000
0010
1000
0100
0000
,
0001
0100
0001
0000
0010
0001
0100
0000
,
1000
0100
1000
0000
0010
1000
0100
0000
,
0001
0100
0001
0000
0010
0001
0100
0000
,
0020
0000
0000
2030
,
3200
0000
0000
0000
,
0320
0000
0000
0032
,
0203
0000
0000
0000
,
0310
1010
0001
0101
,
1000
1100
0001
0101
,
1000
1010
0001
0011
,
1000
1100
0001
0101
,
2000
3020
0230
0302
,
0023
0230
0320
0032
,
2003
3200
0320
0230
,
2300
3002
0203
0320
,
2030
3002
0203
0320
,
2030
3002
0203
0320
,
2030
0000
0000
0000
,
3001
0010
0001
0010
0001
0100
0001
0100
,
0001
0100
0001
0100
0001
0100
0001
0100
,
0010
1000
0010
1000
0100
1000
0100
1000
,
0100
1000
0100
1000
0100
1000
0100
1000
,
0010
0100
0010
0100
0001
1000
0001
1000
,
0001
1000
0001
1000
0001
1000
0001
1000
,
0010
1000
0010
1000
0001
1000
0001
1000
,
0001
0100
0001
0100
0001
0000
0100
0000
,
0010
1000
0100
1000
0001
1000
0001
0000
,
0010
0001
0100
0001
1000
0001
1000
0000
,
0001
0100
0010
0100
0010
1000
0010
0000
,
1000
0010
0100
0010
0100
0001
0100
0000
,
0001
0010
0100
0010
0100
1000
0100
0000
,
1000
0100
0010
0100
0010
0001
0010
0000
,
0001
0100
1000
0100
0001
0100
0001
0000
,
1000
0010
0100
0001
1000
0010
1000
0000
,
1001
0000
0000
0000
;

//---------------dance-single - ----------------
#NOTES:
     dance-single:
     :
     Easy:
     4:
     0.200886,0.235556,0.007138,0.035690,0.000000,197.000000,196.000000,1.000000,5.000000,0.000000,0.000000,0.200886,0.235556,0.007138,0.035690,0.000000,197.000000,196.000000,1.000000,5.000000,0.000000,0.000000:
// measure 0
0000
0000
0000
0000
,  // measure 1
0000
0000
0000
0000
,  // measure 2
0000
0000
0000
0000
,  // measure 3
0000
0000
0000
0000
,  // measure 4
1000
0100
0010
0001
,  // measure 5
0010
0100
0010
0001
,  // measure 6
1000
0100
0010
0001
,  // measure 7
0010
0100
0010
0001
,  // measure 8
1000
0010
1000
1000
,  // measure 9
0001
0100
0001
0001
,  // measure 10
1000
0100
1000
1000
,  // measure 11
0001
0010
0001
0001
,  // measure 12
0100
0010
1000
0001
,  // measure 13
0100
0010
1000
0001
,  // measure 14
0010
0100
1000
0001
,  // measure 15
0100
0010
0100
0001
,  // measure 16
1000
1000
0010
0010
,  // measure 17
1000
1000
0100
0100
,  // measure 18
0001
0001
0100
0100
,  // measure 19
1000
1000
0100
0100
,  // measure 20
0001
0001
0010
0010
,  // measure 21
0001
0001
0100
0100
,  // measure 22
0001
0001
0010
0010
,  // measure 23
0001
0001
0100
0100
,  // measure 24
0020
0000
0000
1030
,  // measure 25
0200
0000
0000
0000
,  // measure 26
0320
0000
0000
0031
,  // measure 27
0200
0000
0000
0000
,  // measure 28
0310
0010
0010
1000
,  // measure 29
0100
0100
0100
1000
,  // measure 30
0010
0010
0010
0001
,  // measure 31
0100
0100
0100
0010
,  // measure 32
1000
0000
0100
0000
,  // measure 33
0010
0001
0010
0001
,  // measure 34
1000
0000
1000
0000
,  // measure 35
0001
0100
0001
0100
,  // measure 36
0010
1000
0001
0100
,  // measure 37
0010
1000
0001
0100
,  // measure 38
0020
0000
0000
0000
,  // measure 39
1030
0001
0100
0010
,  // measure 40
0100
0001
0010
0100
,  // measure 41
0010
0001
1000
0100
,  // measure 42
0010
0100
1000
0010
,  // measure 43
0100
0001
1000
0100
,  // measure 44
0010
0100
1000
0010
,  // measure 45
0100
0001
1000
0100
,  // measure 46
0010
0001
0100
0010
,  // measure 47
1000
0000
0100
0000
0010
0010
0010
0000
,  // measure 48
0001
0000
0100
0000
0010
0010
0010
0000
,  // measure 49
1000
0000
0001
0000
0010
0010
0010
0000
,  // measure 50
0001
0000
1000
0000
0010
0010
0010
0000
,  // measure 51
1000
0000
0001
0000
0100
0100
0100
0000
,  // measure 52
0001
0000
1000
0000
0100
0100
0100
0000
,  // measure 53
1000
0000
0001
0000
0100
0100
0100
0000
,  // measure 54
0001
0000
1000
0000
0010
1000
0001
0000
,  // measure 55
1001
0000
0000
0000
;

//---------------dance-single - ----------------
#NOTES:
     dance-single:
     :
     Beginner:
     1:
     0.102992,0.137408,0.007138,0.114209,0.000000,101.000000,100.000000,1.000000,16.000000,0.000000,0.000000,0.102992,0.137408,0.007138,0.114209,0.000000,101.000000,100.000000,1.000000,16.000000,0.000000,0.000000:
// measure 0
0000
0000
0000
0000
,  // measure 1
0000
0000
0000
0000
,  // measure 2
0000
0000
0000
0000
,  // measure 3
0000
0000
0000
0000
,  // measure 4
1000
1000
1000
0000
,  // measure 5
0001
0000
0100
0000
,  // measure 6
0001
0001
0001
0000
,  // measure 7
1000
0000
0100
0000
,  // measure 8
0010
0000
0001
0000
,  // measure 9
1000
0000
0010
0000
,  // measure 10
0100
0000
0010
0000
,  // measure 11
0100
0000
0010
0000
,  // measure 12
1000
0000
0001
0000
,  // measure 13
0100
0000
0010
0000
,  // measure 14
1000
0000
0100
0000
,  // measure 15
0010
0000
0001
0000
,  // measure 16
1000
0000
0100
0000
,  // measure 17
0001
0000
0100
0000
,  // measure 18
1000
0000
0100
0000
,  // measure 19
0001
0000
0100
0000
,  // measure 20
0010
0000
1000
0000
,  // measure 21
0100
0000
0010
0000
,  // measure 22
0001
0000
1000
0000
,  // measure 23
0010
0000
0100
0000
,  // measure 24
0010
0000
0000
0000
,  // measure 25
0000
0000
0000
0000
,  // measure 26
0100
0000
0000
0000
,  // measure 27
0000
0000
0000
0000
,  // measure 28
1001
0000
0010
0000
,  // measure 29
0001
0000
0000
0000
,  // measure 30
1000
0000
0010
0000
,  // measure 31
1000
0000
0000
0000
,  // measure 32
0100
0000
0000
0000
,  // measure 33
0000
0010
0000
0000
,  // measure 34
0100
0000
0000
0000
,  // measure 35
1000
0000
0000
0000
,  // measure 36
0010
0000
0010
0000
,  // measure 37
0100
0000
0100
0000
,  // measure 38
0010
0000
0000
0000
,  // measure 39
2000
3000
0200
0300
,  // measure 40
0200
0300
0200
0300
,  // measure 41
0002
0003
0200
0300
,  // measure 42
0200
0300
0200
0300
,  // measure 43
2000
3000
0200
0300
,  // measure 44
0200
0300
0200
0300
,  // measure 45
0002
0003
0200
0300
,  // measure 46
2000
3000
0200
0300
,  // measure 47
0010
0010
0010
0000
,  // measure 48
0001
0001
0001
0000
,  // measure 49
1000
1000
1000
0000
,  // measure 50
0100
0100
0100
0000
,  // measure 51
0010
0010
0010
0000
,  // measure 52
0100
0100
0100
0000
,  // measure 53
0010
0010
0010
0000
,  // measure 54
0001
0001
0001
0000
,  // measure 55
1000
0000
0000
0000
;
