#VERSION:0.81;
#TITLE:Wicked Games;
#SUBTITLE:;
#ARTIST:Parra for Cuva feat. Anna Naklab;
#TITLETRANSLIT:;
#SUBTITLETRANSLIT:;
#ARTISTTRANSLIT:;
#GENRE:Wicked Games;
#ORIGIN:;
#CREDIT:;
#BANNER:Wicked Games-bn.png;
#BACKGROUND:Wicked Games-bg.png;
#PREVIEWVID:Wicked Games-preview.avi;
#JACKET:;
#CDIMAGE:;
#DISCIMAGE:;
#LYRICSPATH:;
#CDTITLE:;
#MUSIC:Wicked Games.mp3;
#OFFSET:-0.031000;
#SAMPLESTART:63.352200;
#SAMPLELENGTH:15.360004;
#SELECTABLE:YES;
#DISPLAYBPM:125.000000;
#BPMS:0.000=125.000,
127.500=62.500,
129.125=500.000,
129.750=125.000;
#STOPS:129.125=0.105,
129.250=0.090,
129.500=0.090,
129.750=0.120;
#DELAYS:;
#WARPS:;
#TIMESIGNATURES:0.000=4=4,
128.000=2=4,
130.000=4=4;
#TICKCOUNTS:0.000=4;
#COMBOS:0.000=1;
#SPEEDS:0.000=1.000=0.000=0;
#SCROLLS:0.000=1.000;
#FAKES:;
#LABELS:0.000=Song Start;
#LASTSECONDHINT:115.272209;
#BGCHANGES:-1.000=Wicked Games-video.avi=1.000=0=0=0=StretchNoLoop====,
99999=-nosongbg-=1.000=0=0=0 // don't automatically add -songbackground-
;
#KEYSOUNDS:;
#ATTACKS:
;

//---------------dance-single - ----------------
#NOTEDATA:;
#CHARTNAME:;
#STEPSTYPE:dance-single;
#DESCRIPTION:;
#CHARTSTYLE:;
#DIFFICULTY:Hard;
#METER:7;
#RADARVALUES:0.437730,0.424409,0.136562,0.110957,0.166435,330.000000,16.000000,13.000000,0.000000,0.000000,0.000000,0.000000,0.000000,0.437730,0.424409,0.136562,0.110957,0.166435,330.000000,16.000000,13.000000,0.000000,0.000000,0.000000,0.000000,0.000000;
#CREDIT:;
#DISPLAYBPM:0.000000;
#NOTES:
0000
0000
0000
0000
,
0000
0000
0000
0000
,
0000
0000
0000
0000
,
0000
0000
0000
0000
,
1000
0010
0100
0001
0010
0000
0100
0000
,
0010
0001
1000
0100
0010
0000
0001
0000
,
0100
0010
1000
0001
0100
0000
0010
0000
,
1000
0010
0100
0001
0010
0000
0100
0000
,
1000
0000
0100
1000
0020
0000
0130
0000
,
0001
0000
1000
0000
0020
0000
1030
0001
,
2000
0000
0100
0000
0010
0000
3001
1000
,
0002
0000
0100
0000
0010
0000
1003
0001
,
2000
0000
3010
0100
0002
0000
1003
0000
,
0010
0100
0010
0000
2000
0000
3100
0000
,
0020
0000
0001
0000
1000
0000
0130
0010
,
0200
0000
1000
0000
0001
0000
0310
0100
,
0010
0000
0001
1000
0020
0000
0130
0010
,
1000
0000
0001
0010
0001
0100
0010
0000
,
1000
0000
0100
0010
0002
0000
0103
0010
,
1000
0000
0001
0100
0001
0010
0100
0000
,
0010
0000
0001
1000
0200
0000
0310
0100
,
1000
0000
0010
0100
0001
1000
0100
0000
,
0010
0000
0001
1000
0200
0000
0310
0100
,
1000
0000
0010
0100
0001
1000
0100
0000
,
0010
0001
0100
0010
,
1000
0000
0000
0000
0100
0000
0000
0000
0010
0000
0000
0000
0001
0000
0000
1000
,
0001
0000
0100
0000
0010
0000
1000
0010
,
0100
0000
0010
0000
1000
0000
0001
0100
,
0010
1000
0100
0010
,
0001
0000
0000
0000
1000
0000
0000
0000
0010
0000
0000
0000
0100
0000
0000
0001
,
1000
0000
0100
0000
0010
0000
0001
0010
,
0100
0000
1000
0000
0010
0000
1000
0001
,
0000
0000
0000
0000
0001
0010
0100
1000
,
0010
0000
0000
1000
0000
0001
1000
0000
0100
0000
0010
0000
0001
0000
0100
0000
,
0010
0000
0000
0100
0000
0001
0100
0000
0010
0000
1000
0000
0100
0000
0010
0000
,
0100
0000
0000
1000
0000
0001
0100
0000
0010
0000
1000
0000
0100
0000
0010
0001
,
0000
0100
0001
0000
0100
0000
0000
0000
0010
0000
1000
0000
0100
0000
0010
0000
,
0001
0000
0000
1000
0000
0001
0100
0000
0010
0000
1000
0000
0100
0000
0010
0000
,
0100
0000
0000
1000
0000
0001
0100
0000
0010
0000
0100
0000
0001
0000
0010
0000
,
0100
0000
0000
1000
0000
0001
0100
0000
0010
0000
0100
0000
0001
0000
1000
0010
,
0000
0100
0001
0000
0100
0000
0000
0000
0001
0000
0000
0001
0010
0000
0100
0000
,
0000
1100
0000
0000
1001
0000
0000
0000
1000
0000
0000
1000
0010
0000
0100
0000
,
0000
0101
0000
0000
1001
0000
0000
0000
0001
0000
0000
0001
0010
0000
0100
0000
,
0000
1100
0000
0000
1001
0000
0000
0000
1000
0000
0000
1000
0010
0000
0100
0001
,
0000
0100
0001
0000
1000
0000
0000
0000
0001
0000
0000
0010
0100
0000
1000
0000
,
0000
1010
0000
0000
1001
0000
0000
0000
1000
0000
0000
0010
0100
0000
0001
0000
,
0000
0011
0000
0000
1001
0000
0000
0000
0001
0000
0000
1000
0010
0000
0100
0000
,
0000
0101
0000
0000
1001
0000
0000
0000
0001
0000
0000
0010
0100
0000
1000
0100
,
0000
1000
0100
0000
1001
0000
0000
0000
0010
0000
0100
0000
1000
0000
0001
0000
,
0100
0000
0010
0000
1000
0010
0100
0001
,
1000
0000
0000
0000
0100
0000
0000
0010
0100
0000
1000
0000
0001
0000
0100
0000
,
0010
0000
1000
0001
0010
0100
0010
0001
,
0100
0000
0010
1000
0100
0010
0100
1000
,
0001
0000
0100
0000
0010
1000
0100
0010
,
0100
0000
0000
0000
1000
0000
0000
0001
0100
0000
0010
0000
1000
0000
0001
0000
,
0010
0000
0100
0010
0100
1000
0010
0100
,
0001
0000
1000
0001
0100
0000
1001
0000
,
0100
1001
0010
1001
,
0010
0000
0000
0000
1000
0000
0000
0001
0100
0000
0000
0000
0000
0000
0000
0000
;

//---------------dance-single - ----------------
#NOTEDATA:;
#CHARTNAME:;
#STEPSTYPE:dance-single;
#DESCRIPTION:;
#CHARTSTYLE:;
#DIFFICULTY:Medium;
#METER:5;
#RADARVALUES:0.292633,0.249652,0.059746,0.000000,0.000000,233.000000,7.000000,0.000000,0.000000,0.000000,0.000000,0.000000,0.000000,0.292633,0.249652,0.059746,0.000000,0.000000,233.000000,7.000000,0.000000,0.000000,0.000000,0.000000,0.000000,0.000000;
#CREDIT:;
#NOTES:
0000
0000
0000
0000
,
0000
0000
0000
0000
,
0000
0000
0000
0000
,
0000
0000
0000
0000
,
1000
0100
0010
0001
,
1000
0010
0100
0001
,
0010
0100
0010
0100
,
1000
0001
0100
0010
,
1000
0000
0100
0010
0100
0000
1000
0000
,
0010
0100
0001
0010
,
0100
1000
0001
0100
,
0010
1000
0001
0010
,
0100
0000
1000
0001
1000
0000
0010
0000
,
0100
0001
0010
0100
,
1000
0010
0000
0010
,
0000
0100
0000
0100
,
0001
0000
0010
0000
0100
0000
1000
0001
,
1000
0100
0010
0001
,
1000
0010
0100
0001
,
1000
0010
0100
0001
,
0010
0000
0100
0000
0010
0000
0001
1000
,
0100
0010
0001
1000
,
0010
0100
0001
1000
,
0010
0000
0100
0000
0010
0000
1000
0100
,
0010
0001
1000
0100
,
0010
0001
0100
0010
,
1000
0000
0100
0000
0010
0000
0100
1000
,
0100
0000
0010
0000
0001
0000
1000
0001
,
1000
0010
0100
0001
,
0010
0100
1000
0010
,
0100
0000
0001
0000
0010
0000
0100
0010
,
0100
0000
1000
0000
0010
0000
0100
0001
,
0000
0000
0010
0100
,
1000
0001
0010
0100
,
0010
0000
0001
1000
0001
0000
0100
0000
,
0010
1000
0100
0010
,
0100
0000
1000
0001
1000
0000
0010
0000
,
0100
0001
0010
0100
,
0010
0000
0001
1000
0001
0000
0100
0000
,
0010
1000
0001
0010
,
0100
0000
1000
0001
1000
0000
0100
0000
,
0010
1001
0010
0100
,
0010
1001
0100
0001
,
0010
0110
0010
0100
,
0010
0100
1000
0010
,
0100
1001
0100
0010
,
1000
1001
0010
0100
,
0001
1001
0010
1000
,
0100
1001
0010
0001
,
0100
0010
1000
0100
,
0010
0000
0001
1000
0001
0000
0100
0000
,
0010
0000
1000
0001
1000
0000
0010
0000
,
0100
0000
0001
1000
0001
0000
0010
0000
,
0100
1000
0100
0010
,
0001
0000
1000
0001
1000
0000
0010
0000
,
0100
0000
0001
1000
0001
0000
0100
0000
,
0010
0000
1000
0001
1000
0000
0100
0000
,
0001
0100
1000
0010
,
0001
0010
1000
0000
;

//---------------dance-single - ----------------
#NOTEDATA:;
#CHARTNAME:;
#STEPSTYPE:dance-single;
#DESCRIPTION:;
#CHARTSTYLE:;
#DIFFICULTY:Easy;
#METER:3;
#RADARVALUES:0.193869,0.199722,0.000000,0.000000,0.000000,159.000000,0.000000,0.000000,0.000000,0.000000,0.000000,0.000000,0.000000,0.193869,0.199722,0.000000,0.000000,0.000000,159.000000,0.000000,0.000000,0.000000,0.000000,0.000000,0.000000,0.000000;
#CREDIT:;
#NOTES:
0000
0000
0000
0000
,
0000
0000
0000
0000
,
0000
0000
0000
0000
,
0000
0000
0000
0000
,
1000
0000
0100
0000
,
0010
0000
0001
1000
,
0001
0000
0100
0000
,
0010
0000
1000
0001
,
1000
0000
0100
0000
,
0010
0001
0010
0001
,
0010
0000
0100
0000
,
1000
0000
0001
0000
,
0100
0000
0010
0000
,
1000
0000
0001
0100
,
0001
0000
0010
0000
,
0100
0000
1000
0000
,
0010
0100
0010
0100
,
0001
1000
0001
1000
,
0001
0000
0010
0000
,
0100
0000
1000
0001
,
1000
0010
1000
0010
,
0100
0001
0100
0001
,
1000
0000
0010
0000
,
0100
0000
0001
0000
,
0010
0010
0010
0000
,
0100
0100
0100
0000
,
1000
0001
0100
0000
,
0001
1000
0001
0000
,
0100
0100
0100
0000
,
0010
0010
0010
0000
,
1000
0001
1000
0000
,
0100
1000
0001
0000
,
0000
0000
0100
0000
,
0010
1000
0100
0000
,
0010
0001
0100
0000
,
0001
1000
0010
0000
,
1000
0001
1000
0000
,
0100
0010
0001
0000
,
0010
0100
1000
0000
,
0010
0100
0001
0000
,
1000
0010
0100
0001
,
0100
0001
1000
0010
,
1000
0010
0100
0010
,
0100
0010
1000
0001
,
1000
0001
0010
0100
,
0010
0100
1000
0001
,
1000
0001
0100
0010
,
0100
0010
1000
0001
,
1000
0001
0010
0000
,
0100
0000
1000
0000
,
0010
0100
0001
0000
,
0010
0000
0100
0000
,
1000
0001
0100
0000
,
0010
0000
1000
0000
,
0100
0010
0001
0000
,
1000
0000
0010
0000
,
1000
0001
0100
0000
,
0100
0000
0010
0000
,
0010
0000
1000
0000
;

//---------------dance-single - ----------------
#NOTEDATA:;
#CHARTNAME:;
#STEPSTYPE:dance-single;
#DESCRIPTION:;
#CHARTSTYLE:;
#DIFFICULTY:Beginner;
#METER:1;
#RADARVALUES:0.099983,0.099861,0.000000,0.000000,0.000000,82.000000,0.000000,0.000000,0.000000,0.000000,0.000000,0.000000,0.000000,0.099983,0.099861,0.000000,0.000000,0.000000,82.000000,0.000000,0.000000,0.000000,0.000000,0.000000,0.000000,0.000000;
#CREDIT:;
#NOTES:
// measure 0
0000
0000
0000
0000
,  // measure 1
0000
0000
0000
0000
,  // measure 2
0000
0000
0000
0000
,  // measure 3
0000
0000
0000
0000
,  // measure 4
0010
0000
0000
0000
,  // measure 5
1000
0000
0000
0000
,  // measure 6
0100
0000
0000
0000
,  // measure 7
0010
0000
0000
0000
,  // measure 8
0001
0000
0000
0000
,  // measure 9
1000
0000
0000
0000
,  // measure 10
0010
0000
0000
0000
,  // measure 11
0100
0000
0000
0000
,  // measure 12
0010
0000
0000
0000
,  // measure 13
1000
0000
0000
0000
,  // measure 14
0100
0000
0000
0000
,  // measure 15
0010
0000
0000
0000
,  // measure 16
0001
0000
0000
0000
,  // measure 17
1000
0000
0010
0000
,  // measure 18
0100
0000
0000
0000
,  // measure 19
0010
0000
0000
0000
,  // measure 20
1000
0000
0001
0000
,  // measure 21
0010
0000
0100
0000
,  // measure 22
1000
0000
0000
0000
,  // measure 23
0001
0000
0000
0000
,  // measure 24
0100
0000
0100
0000
,  // measure 25
0100
0000
0100
0000
,  // measure 26
0010
0000
0010
0000
,  // measure 27
0010
0000
0010
0000
,  // measure 28
1000
0000
1000
0000
,  // measure 29
0001
0000
0001
0000
,  // measure 30
0100
0000
0100
0000
,  // measure 31
0100
0000
0100
0000
,  // measure 32
0000
0000
0010
0000
,  // measure 33
0000
0000
0010
0000
,  // measure 34
0000
0000
1000
0000
,  // measure 35
0100
0000
0010
0000
,  // measure 36
0001
0000
0100
0000
,  // measure 37
0000
0000
0010
0000
,  // measure 38
0000
0000
0100
0000
,  // measure 39
0001
0000
1000
0000
,  // measure 40
0010
0000
0100
0000
,  // measure 41
0000
0010
0010
0000
,  // measure 42
0000
1000
1000
0000
,  // measure 43
0000
0100
0100
0000
,  // measure 44
0000
0010
0010
0000
,  // measure 45
0000
0001
0001
0000
,  // measure 46
0000
1000
1000
0000
,  // measure 47
0000
0010
0010
0000
,  // measure 48
0000
0100
0100
0000
,  // measure 49
0010
0000
1000
0000
,  // measure 50
0100
0000
0010
0000
,  // measure 51
0000
0000
0001
0000
,  // measure 52
0000
0000
1000
0000
,  // measure 53
0010
0000
0100
0000
,  // measure 54
0001
0000
0010
0000
,  // measure 55
0000
0000
0100
0000
,  // measure 56
0000
0000
1000
0000
,  // measure 57
0000
0000
0001
0000
,  // measure 58
0000
0000
0100
0000
;
