#TITLE:Whistle While You Work It;
#SUBTITLE:;
#ARTIST:Katy Tiz;
#TITLETRANSLIT:;
#SUBTITLETRANSLIT:;
#ARTISTTRANSLIT:;
#GENRE:Whistle While You Work It;
#CREDIT:;
#BANNER:Whistle While You Work It-bn.png;
#BACKGROUND:Whistle While You Work It-bg.png;
#LYRICSPATH:;
#CDTITLE:;
#MUSIC:Whistle While You Work It.mp3;
#OFFSET:-0.030000;
#SAMPLESTART:70.962357;
#SAMPLELENGTH:17.777771;
#LASTBEATHINT:288.010101;
#SELECTABLE:YES;
#DISPLAYBPM:162.000000;
#BPMS:0.000000=162.000000
;
#STOPS:155.500000=1.481000
;
#BGCHANGES:-1.000=Whistle While You Work It-video.avi=1.000=0=0=0=StretchNoLoop====,
99999=-nosongbg-=1.000=0=0=0 // don't automatically add -songbackground-
;
#KEYSOUNDS:;
#ATTACKS:;

//---------------dance-single - ----------------
#NOTES:
     dance-single:
     :
     Hard:
     8:
     0.572912,0.596673,0.381498,0.065134,0.018610,431.000000,390.000000,41.000000,7.000000,0.000000,0.000000,0.572912,0.596673,0.381498,0.065134,0.018610,431.000000,390.000000,41.000000,7.000000,0.000000,0.000000:
// measure 0
0000
0000
0000
0000
,  // measure 1
0000
0000
0000
0000
,  // measure 2
0000
0000
0000
0000
,  // measure 3
0000
0000
0000
0000
,  // measure 4
1010
1000
0001
1000
0001
0100
0001
1000
,  // measure 5
0010
0000
0010
0000
1000
0100
0000
0100
,  // measure 6
0010
0000
0010
0000
0001
0100
0000
0100
,  // measure 7
0010
0000
0010
0000
1000
0100
1000
0001
,  // measure 8
0010
0000
0001
0000
0101
0000
0010
1000
,  // measure 9
0100
1000
0010
0000
0100
0000
0001
1000
,  // measure 10
0100
0000
0010
0000
0001
0000
1000
0010
,  // measure 11
0100
0000
0010
0000
1000
0000
0001
0100
,  // measure 12
0010
0000
0101
0000
1001
0000
0010
1000
,  // measure 13
0100
0010
0001
0000
1001
0000
1000
0010
,  // measure 14
0100
0001
0010
0100
1000
0000
0010
0000
,  // measure 15
0100
0000
0001
1000
0010
0100
0001
1000
,  // measure 16
1001
0000
0100
0000
0010
1000
0100
0010
,  // measure 17
0001
0000
0000
1000
0000
0000
0100
0000
0000
0000
0000
0000
1000
0000
0000
0001
,  // measure 18
0000
0100
0000
0000
0010
0000
1000
0010
,  // measure 19
0100
0001
0010
0110
,  // measure 20
1000
0000
0001
0000
0100
0000
0010
0100
,  // measure 21
0001
0010
0100
1000
0010
0000
0100
0000
,  // measure 22
0110
0000
1000
0001
1001
0000
0100
0010
,  // measure 23
1000
0001
0100
0010
1000
0000
0001
0000
,  // measure 24
1001
0001
0010
0100
1000
0010
0100
0001
,  // measure 25
0010
0000
0011
0000
0001
1000
0100
0000
,  // measure 26
0010
0000
1010
0000
1000
0001
0100
0000
,  // measure 27
0010
0000
0011
0000
0001
1000
0100
0000
,  // measure 28
1001
1000
0001
0100
0010
1000
0100
0010
,  // measure 29
0001
0000
0101
0000
1000
0010
0100
0000
,  // measure 30
1000
0000
1100
0000
0001
0010
0100
1000
,  // measure 31
0010
0100
0001
1000
0010
0000
1001
0000
,  // measure 32
1100
0000
0101
0000
0001
1000
0100
0000
,  // measure 33
0010
0001
0100
0010
1000
0100
0010
0200
,  // measure 34
0000
1300
0001
0000
0100
0010
0100
0002
,  // measure 35
0000
1003
0001
0000
0010
0100
0010
0000
,  // measure 36
0001
0000
1001
0000
0100
0010
0100
0000
,  // measure 37
0010
1000
0100
0010
0001
1000
0100
0020
,  // measure 38
0000
0031
1000
0000
0100
0010
0100
1000
,  // measure 39
0001
1000
0100
0000
1001
0000
1000
0001
,  // measure 40
0100
0001
1000
0000
1001
0000
0010
1000
,  // measure 41
0100
0000
0010
0001
0100
0010
0100
0000
,  // measure 42
1010
0000
0101
0000
1000
0010
0100
0001
,  // measure 43
0010
0100
1000
0000
1100
0000
1000
0010
,  // measure 44
0100
0001
0100
0000
0101
0000
0001
1000
,  // measure 45
0010
0000
0100
0001
1000
0010
0100
0000
,  // measure 46
0110
0000
1001
0000
0100
0010
1000
0000
,  // measure 47
2010
0000
0001
0000
3100
0000
0010
1000
,  // measure 48
0100
0001
0100
1000
0010
0000
1000
0001
,  // measure 49
0100
0000
0010
0000
0100
0000
0001
0020
,  // measure 50
0000
0000
0000
0000
0000
0000
0031
0100
,  // measure 51
0010
0000
1000
0000
0001
0000
1000
0010
,  // measure 52
0100
0010
1000
0000
0001
0000
0010
0100
,  // measure 53
0010
0001
0100
0010
0100
0000
0001
0000
,  // measure 54
2000
0000
0000
3010
0100
0010
0100
0010
,  // measure 55
1000
0100
0010
0001
1000
0100
0010
0001
,  // measure 56
0100
0000
0000
0010
0000
0000
1010
0000
0000
0000
0000
0000
1000
0000
0000
0001
,  // measure 57
0000
0101
0000
0000
0001
0000
0010
0100
,  // measure 58
1000
0000
1100
0000
1000
0001
0100
0000
,  // measure 59
0010
1000
0100
0010
0001
0100
0010
1000
,  // measure 60
0100
0010
0100
0010
0001
1000
1001
0000
,  // measure 61
0010
0100
0010
0100
0001
1000
1001
0000
,  // measure 62
0010
1000
0100
0001
0100
1000
0010
0000
,  // measure 63
0100
0001
1000
0010
0100
0001
1000
0010
,  // measure 64
0101
0000
1100
0000
0001
1000
0100
0000
,  // measure 65
1100
0000
0101
0000
1000
0001
0100
0000
,  // measure 66
0010
0100
0001
1000
0010
0000
0110
0000
,  // measure 67
1000
0010
0100
0001
0010
0100
1000
0010
,  // measure 68
0100
0000
0110
0000
0001
1000
0100
0000
,  // measure 69
0010
0000
0110
0000
1000
0001
0100
0000
,  // measure 70
0010
1000
0001
0100
0010
0000
0200
0000
,  // measure 71
0000
0300
0000
0000
;

//---------------dance-single - ----------------
#NOTES:
     dance-single:
     :
     Medium:
     6:
     0.370864,0.397782,0.139573,0.018610,0.000000,279.000000,264.000000,15.000000,2.000000,0.000000,0.000000,0.370864,0.397782,0.139573,0.018610,0.000000,279.000000,264.000000,15.000000,2.000000,0.000000,0.000000:
0000
0000
0000
0000
,
0000
0000
0000
0000
,
0000
0000
0000
0000
,
0000
0000
0000
0000
,
0010
1000
0100
0010
,
0001
0000
0001
0000
1000
0001
0000
0000
,
0100
0000
0100
0000
0010
0100
0000
0000
,
0001
0000
1000
0000
0001
0100
0000
0000
,
0010
0000
1000
0000
0100
0000
0010
0100
,
0000
1000
0100
0000
1000
0000
0010
0000
,
0100
0000
0001
0000
0010
0000
0100
0010
,
0000
0000
0000
0000
0000
0000
0001
1000
,
0001
0000
0100
0000
0010
0000
1000
0010
,
0000
1000
0001
0000
0100
0000
0010
0000
,
1000
0100
0010
0100
,
0000
0000
0010
0001
,
1001
0000
0000
0000
0100
0010
0100
0000
,
1001
0000
0010
0100
,
1001
0000
0110
1001
,
0010
0000
1000
0001
,
1001
0000
0000
0000
0100
0000
0010
0100
,
0010
1000
0001
0100
,
1001
0000
0110
0000
,
1001
0000
0000
0000
,
1000
0100
1000
0000
0001
0100
0001
0000
,
0010
0000
0010
0000
0001
1000
0000
0000
,
0010
0000
0010
0000
1000
0001
0000
0000
,
0010
0000
0010
0000
0001
1000
0000
0000
,
0001
0100
0001
0000
1000
0100
1000
0000
,
0010
0000
0010
0000
1000
0001
0000
0000
,
0010
0000
0010
0000
0001
1000
0000
0000
,
1001
0000
0000
0000
,
0010
0000
0100
0000
0001
0100
0001
0000
,
0010
0000
0100
0000
1000
0100
1000
0000
,
0010
1000
0100
0100
,
0010
0001
0100
0100
,
0010
0100
0010
0000
1000
0001
1000
0000
,
0100
0010
0001
1000
,
0010
0100
0010
0100
,
0001
0010
0100
1000
,
0010
0100
0001
0010
,
0100
1000
0001
0100
,
0001
0000
0000
0010
,
0100
1000
0100
0000
0010
0000
0001
0000
,
1000
0001
1000
0000
0010
0000
0100
0000
,
0001
0010
0100
1000
,
0010
0000
0010
0000
1000
0001
0000
0000
,
0010
0000
0100
0000
0010
0000
0001
1000
,
0000
0001
1000
0000
0001
0000
0100
0010
,
0100
0000
0010
0000
1000
0000
0001
1000
,
0000
0000
0000
0000
0000
0000
0010
0100
,
0010
0000
1000
0000
0100
0000
0010
0100
,
0000
1000
0100
0000
0010
0000
0001
1000
,
0001
0100
0010
1000
,
0001
0000
0000
0000
,
1001
0000
0110
0000
0010
0100
0010
0000
,
1000
0100
0010
0001
,
1000
0000
0001
0000
0100
0000
0100
0010
,
1000
0001
0100
1001
,
0010
0100
0001
1000
,
0010
0000
0010
0000
1000
0001
0000
0000
,
0010
0000
0010
0000
0001
1000
0000
0000
,
1001
0000
0000
0000
,
1000
0010
1000
0000
0001
0100
0001
0000
,
0010
0000
0010
0000
0100
1000
0000
0000
,
0010
0000
0010
0000
0100
0001
0000
0000
,
0010
0000
0100
0000
1000
0001
0000
0000
,
0100
0010
0100
0000
0010
1000
0010
0000
,
1000
0000
0100
0000
0010
0001
0000
0000
,
0001
0000
0100
0000
0010
1000
0000
0000
,
2002
0000
0000
0000
,
0000
3003
0000
0000
;

//---------------dance-single - ----------------
#NOTES:
     dance-single:
     :
     Easy:
     4:
     0.252560,0.298336,0.111658,0.083744,0.000000,190.000000,178.000000,12.000000,9.000000,0.000000,0.000000,0.252560,0.298336,0.111658,0.083744,0.000000,190.000000,178.000000,12.000000,9.000000,0.000000,0.000000:
0000
0000
0000
0000
,
0000
0000
0000
0000
,
0000
0000
0000
0000
,
0000
0000
0000
0000
,
2002
0000
0000
3003
,
0200
0000
0000
0300
,
0020
0000
0000
0000
,
0000
0000
0030
0000
,
1001
0000
0100
0000
,
0010
1000
0100
0000
,
0010
0001
1000
0000
,
0100
0000
0010
0000
,
0001
0100
0010
0000
,
1000
0001
0100
0000
,
0010
0000
1000
0000
,
0100
0000
0010
0000
,
1001
0000
0010
0000
,
1001
0000
0010
0000
,
1001
0000
0100
0000
,
1001
0000
0010
0000
,
1001
0000
0100
0000
,
1001
0000
0010
0000
,
1001
0000
0110
0000
,
1001
0000
0000
0000
,
0010
1000
0100
0000
,
0010
0010
0001
0000
,
0100
0010
0100
0000
,
0001
1000
0100
0000
,
0010
0100
1000
0000
,
0010
0100
0001
0000
,
1000
0010
0100
0000
,
0010
0000
0000
0000
,
1000
1000
0001
0001
,
0100
0010
0100
0010
,
0100
0000
0010
0000
,
1000
0000
0001
0000
,
0010
0100
0010
0100
,
1000
0001
1000
0001
,
0100
0000
0010
0000
,
1000
0100
0010
0000
,
0001
0100
0010
0000
,
1000
0010
0100
0001
,
1000
0000
0001
0000
,
0010
0100
1000
0000
,
0010
0100
0001
0000
,
0010
0100
0010
0100
,
1000
0000
0000
0000
,
2002
0000
0000
3003
,
0020
0000
0000
0030
,
0200
0000
0000
0000
,
0000
0000
0300
0000
,
0001
0001
1000
1000
,
0010
0010
0100
0100
,
0001
0010
0100
1000
,
0001
0000
0000
0000
,
0010
0010
0100
0100
,
1000
1000
0001
0001
,
0100
0100
0010
0010
,
1000
1000
0001
0001
,
0100
0010
1000
0100
,
0010
0010
0100
0100
,
0010
0001
0100
0010
,
0100
0000
0000
0000
,
0010
1000
0001
0100
,
0010
0010
0100
0100
,
0001
0001
1000
1000
,
0100
0010
0100
0000
,
0010
0001
1000
0100
,
0010
0010
0100
0100
,
1000
1000
0001
0001
,
0200
0000
0000
0000
,
0000
0300
0000
0000
;

//---------------dance-single - ----------------
#NOTES:
     dance-single:
     :
     Beginner:
     1:
     0.135585,0.195402,0.009305,0.000000,0.000000,102.000000,101.000000,1.000000,0.000000,0.000000,0.000000,0.135585,0.195402,0.009305,0.000000,0.000000,102.000000,101.000000,1.000000,0.000000,0.000000,0.000000:
0000
0000
0000
0000
,
0000
0000
0000
0000
,
0000
0000
0000
0000
,
0000
0000
0000
0000
,
0010
0000
0000
0000
,
1000
0000
0000
0000
,
0100
0000
0000
0000
,
0000
0000
0000
0000
,
0010
0000
0000
0000
,
0001
0000
0000
0000
,
0100
0000
0000
0000
,
0000
0000
0000
0000
,
1000
0000
0000
0000
,
0100
0000
0000
0000
,
0010
0000
0000
0000
,
0001
0000
0000
0000
,
1000
0000
0000
0000
,
0001
0000
0000
0000
,
1000
0000
0000
0000
,
0100
0000
0000
0000
,
0010
0000
0000
0000
,
0001
0000
0000
0000
,
1000
0000
0100
0000
,
0010
0000
0000
0000
,
0001
0000
0100
0000
,
1000
0000
0100
0000
,
0001
0000
0100
0000
,
1000
0000
0100
0000
,
0001
0000
0010
0000
,
1000
0000
0010
0000
,
0001
0000
0010
0000
,
1000
0000
0000
0000
,
0010
0000
0100
0000
,
0001
0000
1000
0000
,
0010
0000
0100
0000
,
0001
0000
0000
0000
,
0010
0000
0100
0000
,
1000
0000
0001
0000
,
0010
0000
0100
0000
,
1000
0000
1000
0000
,
0001
0000
0001
0000
,
0100
0000
0010
0000
,
0100
0000
0010
0000
,
1000
0000
1000
0000
,
0001
0000
0001
0000
,
0010
0000
0010
0000
,
0100
0000
0000
0000
,
1000
0000
0000
0000
,
0001
0000
0000
0000
,
0100
0000
0000
0000
,
0000
0000
0000
0000
,
0010
0000
0010
0000
,
0100
0000
0100
0000
,
0001
0000
1000
0000
,
0100
0000
0000
0000
,
0010
0000
0010
0000
,
0100
0000
0100
0000
,
1000
0000
1000
0000
,
0001
0000
0001
0000
,
0100
0000
0100
0000
,
0010
0000
0010
0000
,
1000
0000
1000
0000
,
0001
0000
0000
0000
,
0010
0000
0100
0000
,
1000
0000
0001
0000
,
0100
0000
0010
0000
,
0100
0000
0000
0000
,
0010
0000
1000
0000
,
0100
0000
0010
0000
,
0001
0000
1000
0000
,
1001
0000
0000
0000
;
