#TITLE:Where We Go;
#SUBTITLE:;
#ARTIST:Pink;
#TITLETRANSLIT:;
#SUBTITLETRANSLIT:;
#ARTISTTRANSLIT:;
#GENRE:Beautiful Trauma;
#CREDIT:;
#BANNER:Where We Go-bn.png;
#BACKGROUND:Where We Go-bg.png;
#LYRICSPATH:;
#CDTITLE:;
#MUSIC:Where We Go.mp3;
#OFFSET:-0.021000;
#SAMPLESTART:86.598846;
#SAMPLELENGTH:16.695656;
#LASTBEATHINT:264.000000;
#SELECTABLE:YES;
#DISPLAYBPM:115.000000;
#BPMS:0.000000=115.000000
;
#STOPS:
;
#BGCHANGES:;
#KEYSOUNDS:;
#ATTACKS:;

//---------------dance-single - ----------------
#NOTES:
     dance-single:
     :
     Hard:
     8:
     0.387042,0.515051,0.300238,0.114376,0.296664,379.000000,337.000000,42.000000,16.000000,0.000000,0.000000,0.387042,0.515051,0.300238,0.114376,0.296664,379.000000,337.000000,42.000000,16.000000,0.000000,0.000000:
0000
0000
0000
0000
,
0000
0000
0000
0000
,
0000
0000
0000
0000
,
0000
0000
0000
0000
,
0000
0000
0000
0000
,
0000
0000
0000
0000
,
0000
0000
0000
0000
,
0000
0000
0000
0000
,
1000
0000
0000
0010
0000
0000
0001
0000
0000
0100
0000
0000
0101
0000
0000
0000
,
0100
0000
0000
0001
0000
0000
1000
0000
0000
0001
0000
0000
0100
0000
0000
0000
,
0001
0000
0000
0010
0000
0000
1000
0000
0000
0100
0000
0000
1100
0000
0000
0000
,
0100
0000
0000
1000
0000
0000
0001
0000
0000
1000
0000
0000
0100
0000
0000
0000
,
0010
0000
0000
1000
0000
0000
0100
0000
0000
0001
0000
0000
0110
0000
0000
0000
,
1000
0000
0000
0001
0000
0000
1000
0000
0000
0100
0000
0000
0001
0000
0000
0000
,
0001
0000
0000
0100
0000
0000
0010
0000
0000
0100
0000
0000
1000
0000
0000
0000
,
1000
0000
0000
0100
0000
0000
0010
0000
0000
0100
0000
0000
0001
0000
0000
0000
,
0010
0000
0000
0010
1000
0000
0001
0000
0000
1000
0000
0000
0100
0000
0000
0000
,
0010
0000
0000
0001
0000
0000
1000
0000
0000
0100
0000
0000
1000
0000
0010
0000
,
1000
0000
0000
1000
0001
0000
0100
0000
0000
0010
0000
0000
1000
0000
0001
0000
,
1000
0000
0000
0100
0000
0000
0010
0000
0000
0001
0000
0000
0100
0000
0001
0000
,
1000
0000
0000
1000
0010
0000
0100
0000
0000
0001
0000
0000
1000
0000
0010
0000
,
1000
0000
0000
0100
0000
0000
0010
0000
0000
0001
0000
0000
0100
0000
0000
0000
,
0010
0000
0000
1000
0000
0000
0100
0000
1000
0000
0000
0001
0000
0000
0100
0000
,
0001
0000
0000
0010
0000
0000
0100
0000
1000
0000
0000
0100
0000
0000
0020
0000
,
0000
0000
0030
0002
0100
0000
0103
0000
,
0001
0001
0101
1001
,
0010
0000
0000
0010
1000
0000
0100
0000
0010
0000
0000
0000
0110
0000
0000
0000
,
1001
0000
0000
0001
1000
0000
0001
0000
0100
0000
0000
0000
0101
0000
0000
0000
,
1001
0000
0000
1000
0001
0000
1000
0000
0010
0000
0000
0000
1100
0000
0000
0000
,
1001
0000
0000
0010
0100
0000
0010
0000
1000
0000
0000
0000
0001
0000
0000
0000
,
1001
0000
0000
0001
0010
0000
0001
0000
0100
0000
0000
0000
0101
0000
0000
0000
,
1010
0000
0000
0010
1000
0000
0010
0000
0100
0000
0001
0000
0000
1000
0000
0000
,
0100
0000
0000
0100
0010
0000
0001
0000
1000
0000
0010
0000
0000
0100
0000
0000
,
0001
0000
0000
0001
1000
0000
0100
0000
1100
0000
0000
0000
1001
0000
0000
0000
,
1010
0000
0000
1000
0100
0000
1000
0000
0001
0000
0100
0000
0010
0000
1000
0000
,
0001
0000
0000
0001
0010
0000
0100
0000
1000
0000
0100
0000
0010
0000
0000
0000
,
0001
0000
0000
0100
0010
0000
1000
0000
0001
0000
1000
0000
0100
0000
0010
0000
,
0100
0000
0000
1000
0100
0000
0010
0000
0001
0000
1000
0000
0000
0000
0001
0000
,
0100
0000
0100
0000
0100
0001
0000
1000
,
0100
0000
0100
0000
0100
1001
0000
0110
,
1001
0000
0000
0100
0001
0000
0100
0000
0001
0000
0000
0000
0001
0000
0000
0000
,
1000
0000
0000
0100
1000
0000
0100
0000
1000
0000
0000
0000
1100
0000
0000
0000
,
0011
0000
0000
0010
0001
0000
1000
0000
0100
0000
0000
0000
1001
0000
0000
0000
,
0110
0000
0000
0100
0001
0000
1000
0000
0100
0000
1010
0000
0000
1001
0000
0000
,
0101
0000
0000
0100
0010
0000
1000
0000
0100
0000
0000
0000
0110
0000
0000
0000
,
0011
0000
0000
0001
1000
0000
0001
0000
0100
0000
0110
0000
0000
0101
0000
0000
,
1001
0000
0000
1000
0001
0000
1000
0000
0010
0000
0000
0000
1010
0000
0000
0000
,
0101
0000
0000
0100
0010
0000
1000
0000
0100
0000
1100
0000
0000
0011
0000
0000
,
1001
0000
0000
0001
0100
0000
0010
0000
1000
0000
1100
0000
0000
0000
0110
0000
,
1001
0000
0000
0100
0001
0000
1000
0000
0100
0000
0000
0000
1001
0000
0000
0000
,
0010
0000
1000
0010
1000
0000
0001
0100
0000
0100
0010
0000
0100
0000
0000
0000
,
0001
0000
1000
0001
1000
0000
0100
0010
0000
0010
0100
0000
1000
0000
0000
0000
,
0010
0000
1000
0100
1000
0000
0001
0100
0000
0100
0001
0000
1000
0000
0000
0000
,
0001
0000
0010
0001
0010
0000
0100
1000
0000
1000
0100
0000
0000
0010
0000
0000
,
0001
0000
0000
0000
0100
0000
0000
0000
0010
0000
1000
0000
0000
1000
0000
0000
,
0001
0000
0100
0000
0010
0100
0000
0001
,
1000
0000
0100
1000
0100
0000
1000
0001
0000
0001
0100
0000
0010
0000
0000
0000
,
0100
0000
0001
1000
0001
0000
0100
0010
0000
0010
1000
0000
0000
0100
0000
0000
,
0020
0000
0030
0001
2000
0000
3002
0000
,
0203
0000
0000
0000
0300
0000
0000
0000
0000
0000
0010
0000
0000
1000
0000
0000
,
0200
0000
0300
0010
0200
0000
2300
0000
,
3002
0000
0000
0000
0000
0000
0000
0000
0003
0000
0100
0000
0000
0010
0000
0000
,
2000
0000
0000
0000
0000
0000
0000
0000
3000
0000
0100
0000
0000
0010
0000
0000
,
0002
0000
0000
0000
0003
1000
0000
0001
,
2002
0003
0200
0300
,
0002
0000
3003
0000
;

//---------------dance-single - ----------------
#NOTES:
     dance-single:
     :
     Medium:
     6:
     0.210371,0.231433,0.007149,0.235901,0.078634,206.000000,205.000000,1.000000,33.000000,0.000000,0.000000,0.210371,0.231433,0.007149,0.235901,0.078634,206.000000,205.000000,1.000000,33.000000,0.000000,0.000000:
0000
0000
0000
0000
,
0000
0000
0000
0000
,
0000
0000
0000
0000
,
0000
0000
0000
0000
,
0000
0000
0000
0000
,
0000
0000
0000
0000
,
0000
0000
0000
0000
,
0000
0000
0000
0000
,
0010
0000
0000
0010
0000
0000
1000
0000
0000
1000
0000
0000
0100
0000
0000
0000
,
0010
0100
1000
0000
,
0001
0000
0000
0001
0000
0000
1000
0000
0000
1000
0000
0000
0100
0000
0000
0000
,
0010
0001
0100
0000
,
0010
0000
0000
0010
0000
0000
1000
0000
0000
1000
0000
0000
0001
0000
0000
0000
,
0010
0100
1000
1000
,
0001
0000
0000
0000
0100
0000
0000
1000
0000
0000
0000
0000
0100
0000
0000
0000
,
0001
0100
1000
0100
,
0001
0000
0000
0100
0000
0000
0010
0000
0000
1000
0000
0000
0100
0000
0000
0000
,
0010
0001
1000
0100
,
0010
0000
0000
0001
0000
0000
0100
0000
0000
0010
0000
0000
1000
0000
0000
0000
,
0100
0010
0001
0100
,
0010
0000
0000
1000
0000
0000
0001
0000
0000
0100
0000
0000
0010
0000
0000
0000
,
1000
0100
0010
0001
,
1000
0100
0001
0100
,
1000
0100
0001
0100
,
0010
0100
1000
0100
,
0010
0001
1000
0001
,
2002
0000
3003
0001
0100
0000
0100
0000
,
0020
0030
1000
0001
,
2000
0000
3000
0100
0010
0000
0100
0000
,
2000
3000
0001
0010
,
0002
0000
0003
0100
0010
0000
1000
0000
,
0200
0000
0000
0000
0300
0000
0000
0000
0000
0000
0010
0000
0000
0010
0000
0000
,
0010
0000
0000
0000
0000
0000
0000
0000
0000
0000
0100
0000
0000
0100
0000
0000
,
1000
0000
0001
1000
,
0020
0000
0030
0100
0001
0000
1000
0000
,
0200
0000
0000
0000
0300
0000
0000
0000
0000
0000
0010
0000
0000
0001
0000
0000
,
0200
0000
0300
0100
0010
0000
1000
0000
,
0002
0000
0003
0000
0000
0010
0000
0100
,
2000
0000
3000
0000
0000
0010
0000
0100
,
0002
0000
0003
0000
0000
1000
0000
0001
,
0200
0300
0010
0010
,
1000
0100
0010
0001
,
2000
0000
3000
0010
0100
0000
0001
0000
,
0020
0000
0000
0000
0030
0000
0000
0000
0000
0000
0100
0000
0000
1000
0000
0000
,
0002
0000
0003
0100
0010
0000
0100
0000
,
0002
0000
0000
0000
0003
0000
0000
0000
0000
0000
1000
0000
0000
0001
0000
0000
,
0020
0000
0030
0100
1000
0000
0001
0000
,
0200
0000
0000
0000
0300
0000
0000
0000
0000
0000
0010
0000
0000
1000
0000
0000
,
0200
0000
0300
0000
0000
0010
0000
0001
,
2000
3000
0001
0100
,
0020
0000
0030
1000
0100
0000
0010
0000
,
0200
0300
1000
0001
,
0200
0000
0300
0010
1000
0000
0001
0000
,
0020
0000
0000
0000
0030
0000
0000
0000
0000
0000
0100
0000
0000
1000
0000
0000
,
0001
0000
0000
0000
0000
0000
0000
0000
0000
0000
0100
0000
0000
0010
0000
0000
,
1000
0000
0000
0000
0000
0001
0000
0010
,
0100
0000
1000
0001
,
0100
0100
0010
1000
,
0002
0000
0003
0010
0100
0000
1000
0000
,
0002
0000
0000
0000
0003
0000
0000
0000
0000
0000
1000
0000
0000
0100
0000
0000
,
0020
0000
0030
0100
1000
0000
0001
0000
,
0200
0000
0300
0000
0000
0010
0000
1000
,
0002
0000
0003
0000
0000
0010
0000
0100
,
2000
0000
3000
0000
0000
0001
0000
1000
,
0200
0000
0000
0300
;

//---------------dance-single - ----------------
#NOTES:
     dance-single:
     :
     Easy:
     4:
     0.185862,0.231433,0.078634,0.221604,0.000000,182.000000,171.000000,11.000000,31.000000,0.000000,0.000000,0.185862,0.231433,0.078634,0.221604,0.000000,182.000000,171.000000,11.000000,31.000000,0.000000,0.000000:
// measure 0
0000
0000
0000
0000
,  // measure 1
0000
0000
0000
0000
,  // measure 2
0000
0000
0000
0000
,  // measure 3
0000
0000
0000
0000
,  // measure 4
0000
0000
0000
0000
,  // measure 5
0000
0000
0000
0000
,  // measure 6
0000
0000
0000
0000
,  // measure 7
0000
0000
0000
0000
,  // measure 8
0010
0100
1000
0100
,  // measure 9
0010
0001
1000
0100
,  // measure 10
0010
0001
0100
0001
,  // measure 11
0010
0100
1000
0001
,  // measure 12
0010
0100
0010
0001
,  // measure 13
1000
0001
0100
0010
,  // measure 14
1000
0100
0010
0000
,  // measure 15
0001
1000
0100
0000
,  // measure 16
0010
0010
0001
0100
,  // measure 17
0010
0000
0100
0000
,  // measure 18
0010
0010
1000
0100
,  // measure 19
0010
0000
0100
0000
,  // measure 20
1000
1000
0001
0001
,  // measure 21
0100
0000
0000
0010
,  // measure 22
1000
0100
0010
0001
,  // measure 23
1000
0100
0010
0001
,  // measure 24
1000
0000
0001
0000
,  // measure 25
0100
0000
0010
0010
,  // measure 26
1001
0000
0000
1000
0001
0000
0001
0000
,  // measure 27
0002
0003
0010
0010
,  // measure 28
0100
0000
0000
0100
1000
0000
1000
0000
,  // measure 29
2000
3000
0010
0100
,  // measure 30
0001
0000
0000
0001
1000
0000
1000
0000
,  // measure 31
0200
0000
0000
0310
,  // measure 32
0002
0000
0000
0103
,  // measure 33
0020
0030
1000
0001
,  // measure 34
0010
0000
0000
0100
1000
0000
0100
0000
,  // measure 35
2000
0000
0000
3001
,  // measure 36
0010
0000
0000
0001
0010
0000
0100
0000
,  // measure 37
2000
0000
3000
0110
,  // measure 38
2002
0000
3003
0110
,  // measure 39
2002
0000
3003
0110
,  // measure 40
2002
0000
0000
3003
,  // measure 41
0010
1000
0100
0100
,  // measure 42
1001
0000
0000
0001
0001
0000
0010
0000
,  // measure 43
0200
0300
1000
1000
,  // measure 44
0100
0000
0000
0010
0100
0000
0010
0000
,  // measure 45
0200
0300
0010
0010
,  // measure 46
0010
0000
0000
0010
0001
0000
1000
0000
,  // measure 47
0002
0003
0100
0100
,  // measure 48
0020
0030
1000
0001
,  // measure 49
0020
0030
0100
0100
,  // measure 50
1000
0000
0000
0001
1000
0000
0100
0000
,  // measure 51
0020
0030
0001
0001
,  // measure 52
0100
0000
0000
0100
0010
0000
1000
0000
,  // measure 53
0002
0000
0003
0010
,  // measure 54
2200
0000
3300
0100
,  // measure 55
2002
0000
3003
0100
,  // measure 56
0101
0000
0010
0000
,  // measure 57
1000
0000
0001
0000
,  // measure 58
0020
0030
0100
1000
,  // measure 59
0200
0300
0010
0001
,  // measure 60
0200
0300
0001
1000
,  // measure 61
0200
0000
0300
0010
,  // measure 62
0002
0000
0003
0010
,  // measure 63
2000
0000
3000
0001
,  // measure 64
0200
0000
0000
0300
;

//---------------dance-single - ----------------
#NOTES:
     dance-single:
     :
     Beginner:
     2:
     0.137864,0.228753,0.021446,0.000000,0.000000,135.000000,132.000000,3.000000,0.000000,0.000000,0.000000,0.137864,0.228753,0.021446,0.000000,0.000000,135.000000,132.000000,3.000000,0.000000,0.000000,0.000000:
// measure 0
0000
0000
0000
0000
,  // measure 1
0000
0000
0000
0000
,  // measure 2
0000
0000
0000
0000
,  // measure 3
0000
0000
0000
0000
,  // measure 4
0000
0000
0000
0000
,  // measure 5
0000
0000
0000
0000
,  // measure 6
0000
0000
0000
0000
,  // measure 7
0000
0000
0000
0000
,  // measure 8
0010
0000
0100
0000
,  // measure 9
1000
0000
0001
0000
,  // measure 10
0100
0000
0010
0000
,  // measure 11
1000
0000
0100
0000
,  // measure 12
0010
0000
0001
0000
,  // measure 13
1000
0000
0010
0000
,  // measure 14
0100
0000
0001
0000
,  // measure 15
0010
0000
0100
0000
,  // measure 16
1000
0000
0010
0010
,  // measure 17
0000
0100
0000
0001
,  // measure 18
0001
0000
0010
0000
,  // measure 19
0100
0000
1000
0000
,  // measure 20
0010
0000
1000
1000
,  // measure 21
0000
0100
0000
0010
,  // measure 22
0010
0000
0001
0000
,  // measure 23
1000
0000
0100
0000
,  // measure 24
0010
0000
0001
0000
,  // measure 25
1000
0000
0100
0100
,  // measure 26
0100
0000
0010
0000
,  // measure 27
0001
0000
1000
1000
,  // measure 28
1000
0000
0010
0010
,  // measure 29
0010
0000
0100
0100
,  // measure 30
0100
0000
0001
0001
,  // measure 31
0001
0000
0000
0010
,  // measure 32
0010
0000
0000
0100
,  // measure 33
0100
0000
1000
1000
,  // measure 34
1000
0000
0001
0001
,  // measure 35
0001
0000
0000
0100
,  // measure 36
0100
0000
0100
0100
,  // measure 37
0100
0000
0000
0010
,  // measure 38
0010
0000
0000
1000
,  // measure 39
1000
0000
0000
0001
,  // measure 40
0001
0000
0010
0000
,  // measure 41
0100
0000
1001
1001
,  // measure 42
1001
0000
1000
1000
,  // measure 43
1000
0000
0000
0001
,  // measure 44
0001
0000
0010
0010
,  // measure 45
0010
0000
0000
0100
,  // measure 46
0100
0000
1000
1000
,  // measure 47
1000
0000
0000
0001
,  // measure 48
0001
0000
0000
0100
,  // measure 49
0100
0000
0010
0010
,  // measure 50
0010
0000
1000
1000
,  // measure 51
1000
0000
0001
0001
,  // measure 52
0001
0000
0010
0010
,  // measure 53
0010
0000
0000
0100
,  // measure 54
0100
0000
0000
1000
,  // measure 55
1000
0000
0000
0001
,  // measure 56
0001
0000
0100
0000
,  // measure 57
1000
0000
0100
0000
,  // measure 58
0001
0000
0010
0000
,  // measure 59
0100
0000
0000
1000
,  // measure 60
1000
0000
0001
0000
,  // measure 61
0010
0000
0000
0100
,  // measure 62
0100
0000
0100
0100
,  // measure 63
0100
0000
0000
0010
,  // measure 64
0010
0000
0000
0000
;
