#VERSION:0.83;
#TITLE:When You Grow Up, Your Heart Dies;
#SUBTITLE:;
#ARTIST:Gunship;
#TITLETRANSLIT:;
#SUBTITLETRANSLIT:;
#ARTISTTRANSLIT:;
#GENRE:Dark All Day;
#ORIGIN:;
#CREDIT:;
#BANNER:When You Grow Up Your Heart Dies-bn.png;
#BACKGROUND:When You Grow Up Your Heart Dies-bg.png;
#PREVIEWVID:;
#JACKET:When You Grow Up Your Heart Dies-jacket.png;
#CDIMAGE:;
#DISCIMAGE:;
#LYRICSPATH:;
#CDTITLE:;
#MUSIC:When You Grow Up Your Heart Dies.mp3;
#OFFSET:-0.024004;
#SAMPLESTART:61.444389;
#SAMPLELENGTH:15.840000;
#SELECTABLE:YES;
#BPMS:0.000=125.000;
#STOPS:;
#DELAYS:;
#WARPS:;
#TIMESIGNATURES:0.000=4=4;
#TICKCOUNTS:0.000=2;
#COMBOS:0.000=1;
#SPEEDS:0.000=1.000=0.000=0;
#SCROLLS:0.000=1.000;
#FAKES:;
#LABELS:0.000=Song Start;
#LASTSECONDHINT:109.504387;
#BGCHANGES:;
#KEYSOUNDS:;
#ATTACKS:
;

//---------------dance-single - ----------------
#NOTEDATA:;
#CHARTNAME:;
#STEPSTYPE:dance-single;
#DESCRIPTION:;
#CHARTSTYLE:;
#DIFFICULTY:Hard;
#METER:7;
#RADARVALUES:0.364571,0.380666,0.230448,0.298729,0.000000,299.000000,272.000000,27.000000,35.000000,0.000000,0.000000,0.000000,0.000000,0.000000,0.364571,0.380666,0.230448,0.298729,0.000000,299.000000,272.000000,27.000000,35.000000,0.000000,0.000000,0.000000,0.000000,0.000000;
#CREDIT:;
#NOTES:
0000
0000
0000
0000
,
0000
0000
0000
0000
,
0000
0000
0000
0000
,
0000
0000
0000
0000
,
0010
0000
1000
0000
0100
2000
0000
0001
,
0000
0010
0000
3001
0010
0001
1000
0010
,
0100
0000
0001
0000
0020
0100
0000
0031
,
0000
1000
0000
0010
0100
0001
1000
0000
,
1200
0000
1300
0000
1000
0001
0100
0002
,
0000
1000
0000
0103
0010
1000
0100
0010
,
0001
0000
1000
0000
0010
1000
0100
0020
,
0000
0001
0000
0130
0010
0100
1000
0001
,
1000
0000
0010
0000
0100
0001
1000
0200
,
0000
0010
0000
1300
0100
0010
0100
1000
,
0001
0000
1000
0000
0010
1000
0001
0020
,
0000
0100
0000
0031
1000
0001
1000
0001
,
0200
0000
0000
0310
1000
0010
0000
0100
,
0000
0002
0000
2003
0000
3100
0010
0000
,
0001
0000
1000
0000
0010
1000
0010
0000
,
1000
0001
1000
0000
0100
0010
0100
0000
,
1000
0000
0001
0000
0010
0001
0011
0000
,
0001
0000
1000
0000
0100
1000
1100
0000
,
0010
1000
0010
0000
0100
0001
1000
0000
,
0001
0010
0100
1000
0010
0100
0001
0000
,
0000
1000
0100
1000
0002
0000
1003
0100
,
1000
0002
0000
1003
0100
0000
1001
0000
,
0000
0001
0010
0001
2000
0000
3001
0010
,
0001
2000
0000
3001
0010
0000
1001
0000
,
0000
0010
2000
0000
3001
0010
0100
0010
,
0002
0000
1003
0100
0000
0010
0000
0110
,
0000
2002
3003
0000
0000
0010
0001
1000
,
0000
0010
0000
0100
0001
1000
0001
1000
,
0100
0000
0110
0000
0001
1000
0001
0020
,
0000
0100
0000
0001
0000
0130
0010
0100
,
2000
0000
0001
0000
3100
0010
0001
1000
,
0010
1000
0010
0200
0000
0310
1000
0001
,
0011
0000
1001
0000
1000
0100
1000
0002
,
0000
0100
0000
0103
0010
1000
0100
0010
,
0011
0000
1100
0000
0010
1000
0001
0000
,
0202
0000
0000
0303
,
2002
0000
0000
0000
3003
0000
0020
0200
,
0000
0330
0000
0001
1000
0001
0000
0101
,
0000
1000
0100
0000
1000
0001
1001
0000
,
0010
1000
0100
0010
0001
1000
0010
0100
,
0010
0000
0110
0000
0010
0100
0010
1000
,
0001
0000
1001
0000
1000
0100
0010
0100
,
0010
0000
1001
0000
0100
0001
0100
0000
,
0020
0000
0000
2030
0000
0000
3002
0000
,
0013
0011
0010
1001
,
0010
0000
1100
0000
0001
1000
0100
0000
,
0001
1100
0001
1010
,
0001
0100
1000
0100
0000
0100
0010
0100
,
0001
0000
1001
0000
1000
0010
1000
0002
,
0000
1003
0000
0001
0010
0100
0000
0110
,
0000
2002
0000
3003
0000
0000
0000
0000
,
0020
0000
0000
0001
0000
0000
0130
0000
;

//---------------dance-single - ----------------
#NOTEDATA:;
#CHARTNAME:;
#STEPSTYPE:dance-single;
#DESCRIPTION:;
#CHARTSTYLE:;
#DIFFICULTY:Medium;
#METER:5;
#RADARVALUES:0.209720,0.261708,0.017070,0.162167,0.000000,172.000000,170.000000,2.000000,19.000000,0.000000,0.000000,0.000000,0.000000,0.000000,0.209720,0.261708,0.017070,0.162167,0.000000,172.000000,170.000000,2.000000,19.000000,0.000000,0.000000,0.000000,0.000000,0.000000;
#CREDIT:;
#NOTES:
0000
0000
0000
0000
,
0000
0000
0000
0000
,
0000
0000
0000
0000
,
0000
0000
0000
0000
,
0100
0001
0010
0000
,
0100
0000
0010
0000
,
0100
0000
0000
1000
2000
0000
3000
0000
,
0020
0030
0200
0300
,
0010
0000
1000
0000
0100
0000
0000
0001
,
0000
0010
0000
0001
0010
0000
0000
0000
,
0001
0000
0100
0000
0010
0000
0000
1000
,
0000
0001
0000
1000
0010
0000
0000
0000
,
0100
0000
0001
0000
0010
0000
0000
0100
,
0000
1000
0000
0100
1000
0000
0000
0000
,
0010
0000
1000
0000
0001
0000
0000
0010
,
0000
0001
0000
0010
0001
0000
1000
0000
,
0100
0000
1000
0001
,
1000
0010
0100
0001
,
0020
0000
0230
0000
,
2300
0000
3002
0000
,
0103
0010
1000
0001
,
0010
0001
1000
0001
,
0100
0010
0100
0010
,
1000
0100
0010
0001
,
1000
0010
1000
1000
,
0001
0001
0100
0010
,
0100
0001
1000
0001
,
0010
0100
1000
0001
,
0100
0010
0100
0001
,
0100
0010
0100
0001
,
1000
0010
0100
0001
,
1000
0000
0010
0000
1000
0001
0100
0000
,
0010
0000
0100
0000
0001
1000
0000
0001
,
0000
0010
0000
0001
1000
0000
1000
0000
,
0010
0000
1000
0000
0100
0010
0000
0100
,
0000
1000
0000
0100
0010
0000
0001
0000
,
1000
0000
0001
0000
0100
0010
0000
1000
,
0000
0010
0000
0100
0001
0000
1000
0000
,
0001
0000
0010
0000
0100
1000
0000
0001
,
0000
0000
0000
0000
,
2002
0000
0000
0000
3003
0000
0010
0020
,
0000
0000
0000
0000
0030
0000
0001
0002
,
0000
0000
0003
0000
,
1000
0010
0100
0001
,
1000
1000
0001
0010
,
0001
0001
1000
0010
,
1000
1000
0000
0000
,
0010
0000
0000
0100
0000
0000
0001
0000
,
2000
0000
0000
3100
,
0002
0000
0000
0013
,
2000
0000
0000
3010
,
0100
0001
0010
0100
,
2002
0000
0000
3003
,
0020
0000
0000
0030
,
2000
0000
3002
0000
,
0103
0000
0000
0100
0000
0000
0010
0000
;

//---------------dance-single - ----------------
#NOTEDATA:;
#CHARTNAME:;
#STEPSTYPE:dance-single;
#DESCRIPTION:;
#CHARTSTYLE:;
#DIFFICULTY:Easy;
#METER:2;
#RADARVALUES:0.131685,0.166541,0.025605,0.076816,0.000000,108.000000,105.000000,3.000000,9.000000,0.000000,0.000000,0.000000,0.000000,0.000000,0.131685,0.166541,0.025605,0.076816,0.000000,108.000000,105.000000,3.000000,9.000000,0.000000,0.000000,0.000000,0.000000,0.000000;
#CREDIT:;
#NOTES:
// measure 0
0000
0000
0000
0000
,  // measure 1
0000
0000
0000
0000
,  // measure 2
0000
0000
0000
0000
,  // measure 3
0000
0000
0000
0000
,  // measure 4
0010
0000
1000
0000
,  // measure 5
0001
0000
1000
0000
,  // measure 6
0100
0000
0010
0000
,  // measure 7
0001
0000
1000
0000
,  // measure 8
0010
1000
0010
0000
,  // measure 9
0100
0000
0001
0000
,  // measure 10
0010
0001
0010
0000
,  // measure 11
0100
0000
1000
0000
,  // measure 12
0001
1000
0001
0000
,  // measure 13
0100
0000
0001
0000
,  // measure 14
1000
0001
1000
0000
,  // measure 15
0010
0000
1000
0000
,  // measure 16
0001
0000
0010
0000
,  // measure 17
0001
0000
1000
0000
,  // measure 18
0010
0000
1000
0000
,  // measure 19
0100
0000
0010
0000
,  // measure 20
0001
0000
1000
0000
,  // measure 21
0001
0000
0100
0000
,  // measure 22
0010
0000
0100
0000
,  // measure 23
0001
0000
0010
0000
,  // measure 24
0100
1000
0001
0000
,  // measure 25
0010
0000
0010
0000
,  // measure 26
0001
1000
0010
0000
,  // measure 27
0100
0000
0100
0000
,  // measure 28
0001
0100
0010
0000
,  // measure 29
1000
0000
0001
0000
,  // measure 30
1001
0000
0000
0000
,  // measure 31
1001
0000
0000
0000
,  // measure 32
0010
1000
0001
0000
,  // measure 33
0020
0000
0000
0030
,  // measure 34
0010
0001
1000
0000
,  // measure 35
0100
1000
0001
0000
,  // measure 36
0100
0001
0010
0000
,  // measure 37
0200
0000
0000
0300
,  // measure 38
1000
0010
0100
0000
,  // measure 39
0000
0000
0000
0000
,  // measure 40
2002
0000
3003
0020
,  // measure 41
0000
0000
0030
2000
,  // measure 42
0000
0000
3000
0000
,  // measure 43
0001
0001
0010
0010
,  // measure 44
0100
0000
0000
0000
,  // measure 45
1000
0000
0001
0000
,  // measure 46
0100
0000
0010
0000
,  // measure 47
1000
0000
0001
0000
,  // measure 48
2000
0000
0000
3000
,  // measure 49
0002
0000
0000
0003
,  // measure 50
0200
0000
0000
0300
,  // measure 51
0010
0000
1000
0000
,  // measure 52
0100
0000
0010
0000
,  // measure 53
0001
0000
1000
0000
,  // measure 54
0010
0000
0100
0000
,  // measure 55
0001
0000
0000
1000
;

//---------------dance-single - ----------------
#NOTEDATA:;
#CHARTNAME:;
#STEPSTYPE:dance-single;
#DESCRIPTION:;
#CHARTSTYLE:;
#DIFFICULTY:Beginner;
#METER:1;
#RADARVALUES:0.080474,0.117358,0.008535,0.000000,0.000000,66.000000,65.000000,1.000000,0.000000,0.000000,0.000000,0.000000,0.000000,0.000000,0.080474,0.117358,0.008535,0.000000,0.000000,66.000000,65.000000,1.000000,0.000000,0.000000,0.000000,0.000000,0.000000,0.000000;
#CREDIT:;
#NOTES:
// measure 0
0000
0000
0000
0000
,  // measure 1
0000
0000
0000
0000
,  // measure 2
0000
0000
0000
0000
,  // measure 3
0000
0000
0000
0000
,  // measure 4
0001
0000
0000
0000
,  // measure 5
1000
0000
0000
0000
,  // measure 6
0100
0000
0000
0000
,  // measure 7
0010
0000
0000
0000
,  // measure 8
0001
0000
0000
0000
,  // measure 9
1000
0000
0000
0000
,  // measure 10
0100
0000
0000
0000
,  // measure 11
0010
0000
0000
0000
,  // measure 12
0001
0000
0000
0000
,  // measure 13
0100
0000
0000
0000
,  // measure 14
0010
0000
0000
0000
,  // measure 15
0001
0000
0000
0000
,  // measure 16
1000
0000
0000
0000
,  // measure 17
0100
0000
0000
0000
,  // measure 18
1000
0000
0000
0000
,  // measure 19
0010
0000
0000
0000
,  // measure 20
0100
0000
0000
0000
,  // measure 21
0001
0000
0000
0000
,  // measure 22
0010
0000
0000
0000
,  // measure 23
1000
0000
0000
0000
,  // measure 24
0100
0000
0010
0000
,  // measure 25
1000
0000
0010
0000
,  // measure 26
0100
0000
0010
0000
,  // measure 27
0001
0000
1000
0000
,  // measure 28
0001
0000
1000
0000
,  // measure 29
0001
0000
0100
0000
,  // measure 30
1000
0000
0000
0000
,  // measure 31
1000
0000
0000
0000
,  // measure 32
1000
0000
0100
0000
,  // measure 33
0001
0000
0000
0000
,  // measure 34
1000
0000
1000
0000
,  // measure 35
0010
0000
0010
0000
,  // measure 36
1000
0000
0010
0000
,  // measure 37
0001
0000
0010
0000
,  // measure 38
1000
0000
0100
0000
,  // measure 39
0000
0000
0000
0000
,  // measure 40
1001
0000
0000
1000
,  // measure 41
0000
0000
0000
0010
,  // measure 42
0000
0000
0000
0000
,  // measure 43
0100
0000
0100
0000
,  // measure 44
0001
0000
1000
0000
,  // measure 45
0100
0000
0000
0000
,  // measure 46
1000
0000
0000
0000
,  // measure 47
0010
0000
0000
0000
,  // measure 48
0100
0000
0000
0000
,  // measure 49
1000
0000
0000
0000
,  // measure 50
0010
0000
0000
0000
,  // measure 51
1000
0000
0000
0000
,  // measure 52
0100
0000
0000
0000
,  // measure 53
0001
0000
0000
0000
,  // measure 54
1000
0000
0000
0000
,  // measure 55
0010
0000
0000
0000
;
