#VERSION:0.83;
#TITLE:What Else Can I Do?;
#SUBTITLE:;
#ARTIST:Diane Guerrero & Stephanie Beatriz;
#TITLETRANSLIT:;
#SUBTITLETRANSLIT:;
#ARTISTTRANSLIT:;
#GENRE:Encanto;
#ORIGIN:;
#CREDIT:;
#BANNER:What Else Can I Do-bn.png;
#BACKGROUND:Black.png;
#PREVIEWVID:What Else Can I Do-preview.avi;
#JACKET:What Else Can I Do-jacket.png;
#CDIMAGE:;
#DISCIMAGE:What Else Can I Do-bg.png;
#LYRICSPATH:;
#CDTITLE:;
#MUSIC:What Else Can I Do.mp3;
#OFFSET:-0.002006;
#SAMPLESTART:59.993942;
#SAMPLELENGTH:17.000000;
#SELECTABLE:YES;
#BPMS:0.000=120.000;
#STOPS:;
#DELAYS:;
#WARPS:;
#TIMESIGNATURES:0.000=4=4;
#TICKCOUNTS:0.000=2;
#COMBOS:0.000=1;
#SPEEDS:0.000=1.000=0.000=0;
#SCROLLS:0.000=1.000;
#FAKES:;
#LABELS:0.000=Song Start;
#LASTSECONDHINT:173.533936;
#BGCHANGES:-0.500=What Else Can I Do-video.avi=1.000=0=0=0=StretchNoLoop====,
99999=-nosongbg-=1.000=0=0=0 // don't automatically add -songbackground-
;
#KEYSOUNDS:;
#ATTACKS:
;

//---------------dance-single - ----------------
#NOTEDATA:;
#CHARTNAME:;
#STEPSTYPE:dance-single;
#DESCRIPTION:;
#CHARTSTYLE:;
#DIFFICULTY:Challenge;
#METER:9;
#RADARVALUES:0.520088,0.632209,0.136310,0.159029,0.366334,641.000000,617.000000,24.000000,28.000000,0.000000,0.000000,0.000000,0.000000,0.000000,0.520088,0.632209,0.136310,0.159029,0.366334,641.000000,617.000000,24.000000,28.000000,0.000000,0.000000,0.000000,0.000000,0.000000;
#CREDIT:;
#NOTES:
// measure 0
0000
0000
0000
0000
,  // measure 1
0000
0000
0000
0000
,  // measure 2
0000
0000
0000
0000
,  // measure 3
0000
0000
0000
0000
,  // measure 4
0000
0000
0000
0000
,  // measure 5
0000
0000
0000
0000
,  // measure 6
0000
0000
1000
0001
0000
0000
0100
0000
0000
0000
0001
0100
0000
0000
0010
0000
,  // measure 7
0000
0000
1000
0010
0000
0000
0100
0000
0000
0000
1000
0100
0000
0000
0001
0000
,  // measure 8
0000
0000
0010
0100
0000
0000
1000
0000
0000
0000
0010
0100
0000
0000
0001
0000
,  // measure 9
0000
0000
1000
0010
0000
0100
0001
0000
,  // measure 10
2002
0000
0000
0000
3003
0000
1000
0100
1000
0000
0001
0100
0001
0000
1000
0000
,  // measure 11
0010
0000
0100
0001
0000
0000
1000
0100
0010
0000
0001
1000
0001
0000
0100
0000
,  // measure 12
0010
0000
0100
0001
0000
0000
1000
0010
1000
0000
0010
0100
0010
0000
1000
0000
,  // measure 13
0001
0000
1000
0100
0000
0000
0010
0100
1000
0000
0001
0010
0100
0000
0000
0000
,  // measure 14
1000
0000
0000
0001
0000
0000
0101
0000
0000
0000
0100
0000
0010
0000
1000
0000
,  // measure 15
0100
0000
0000
0010
0000
0000
0011
0000
0000
0000
0001
0000
1000
0000
0010
0000
,  // measure 16
1000
0000
0000
0100
0000
0000
1001
0000
0000
0000
1000
0000
0010
0000
0100
0000
,  // measure 17
0001
0000
0000
0010
0000
0000
1001
0000
0000
0000
0001
0000
1000
0000
0001
0000
,  // measure 18
0100
0000
0000
0010
0000
0000
1010
0000
0000
0000
1000
0000
0001
0000
0100
0000
,  // measure 19
1000
0000
0000
0100
0000
0000
0110
0000
0000
0000
0001
0000
0010
0000
1000
0000
,  // measure 20
0001
0000
0000
0010
0000
0000
0110
0000
0000
0000
0001
0000
0100
0000
1000
0000
,  // measure 21
0001
0000
0000
0100
0000
0000
1001
0000
0000
0000
0100
0000
0010
0000
1000
0000
,  // measure 22
0001
0000
0010
0001
0010
0000
0100
0000
1000
0000
0100
0000
0001
0000
0100
0000
,  // measure 23
1000
0000
0100
1000
0100
0000
0010
0000
0001
0000
0010
0000
1000
0000
0010
0000
,  // measure 24
0001
0000
0000
1000
0001
0000
0100
0000
0000
0000
0010
0000
1000
0000
0100
0000
,  // measure 25
0000
0000
0000
0010
0001
0000
1000
0000
0000
0000
0010
0000
0100
0000
0010
0000
,  // measure 26
1000
0000
0001
1000
0100
0000
1000
0000
0001
0000
0100
0000
0001
0000
1000
0000
,  // measure 27
0100
0000
0010
0001
0100
0000
0001
0000
0010
0000
0001
0000
1000
0000
0100
0000
,  // measure 28
1000
0000
0000
0010
0100
0000
0001
0000
1000
0000
0100
0000
1000
0000
0100
0000
,  // measure 29
1000
0000
0000
0001
0010
0000
0100
0000
0010
0000
0001
0000
1000
0000
0000
0000
,  // measure 30
1001
0000
0000
1000
0001
0000
0000
0001
0100
0000
0000
0100
1000
0000
0000
1000
,  // measure 31
0010
0000
0000
0010
0001
0000
0000
0001
1000
0000
0000
1000
0001
0000
0000
0000
,  // measure 32
0100
0000
0000
0101
0000
0000
2001
0000
0000
0000
0100
0000
3100
0000
0000
0000
,  // measure 33
0010
0000
0000
1010
0000
0000
1002
0000
0000
0000
0010
0000
0013
0000
0000
0000
,  // measure 34
0001
0010
0001
0100
1000
0100
0001
0010
,  // measure 35
0100
1000
0010
0100
0001
1000
0100
0010
,  // measure 36
0001
1000
0100
2000
0000
0010
0000
3001
,  // measure 37
0000
0010
0100
1000
0000
0001
0100
0000
,  // measure 38
0201
0000
0000
0000
0000
0000
0000
0000
0301
0000
0000
0000
0000
1000
0010
1000
,  // measure 39
0010
1000
0010
0000
0000
0100
0001
0100
0001
0000
1000
0000
0000
0000
0100
0000
,  // measure 40
0020
0000
0000
0000
0000
0000
0000
0000
0031
0000
0000
0000
1000
0100
1000
0100
,  // measure 41
1000
0100
1000
0000
0000
0001
0010
0001
0010
0000
0100
0000
0000
0000
1000
0000
,  // measure 42
0002
0000
0000
0000
0000
0000
0000
0000
0103
0000
0000
0010
0100
0010
0100
0010
,  // measure 43
0100
0010
0100
0000
0000
0000
0001
0000
0000
0000
1000
0000
0000
0000
0100
0000
,  // measure 44
0000
0000
0000
0010
0000
0000
0001
0000
0000
0000
0000
0000
1000
0000
0000
0000
0001
0000
1000
0000
0010
0000
0100
0000
,  // measure 45
0001
0010
0100
1000
0010
0100
0001
0000
0000
1000
0000
0000
,  // measure 46
2100
0000
0001
0000
3010
1000
0001
0200
,  // measure 47
0000
0301
1000
0020
0000
0031
0010
2000
,  // measure 48
0000
3001
0100
0020
0000
1030
0100
0010
,  // measure 49
0001
0000
0000
1000
0000
0000
0100
0000
0110
0000
0000
0000
0011
0000
0000
0000
,  // measure 50
1002
0000
0100
0000
0013
0001
1000
0020
,  // measure 51
0000
1030
0100
0002
0000
0103
0010
0002
,  // measure 52
0000
1003
0010
0200
0000
0310
1000
0200
,  // measure 53
0000
0301
0100
2000
0000
3001
0010
2000
,  // measure 54
0000
3010
0100
0020
0000
0130
1000
0002
,  // measure 55
0000
0000
0203
0000
0000
0000
0320
0000
0000
0000
1030
0000
0001
1000
0001
1000
,  // measure 56
0001
0000
0010
0001
1000
0000
0010
0000
1000
0000
0000
0100
1000
0000
0001
0000
,  // measure 57
0010
0000
0001
1000
0001
0000
0100
0000
0010
0000
0000
1000
0100
0000
1000
0000
,  // measure 58
0001
0000
1000
0100
0010
0000
0100
0000
1000
0000
0000
0001
0100
0000
0010
0000
,  // measure 59
1000
0000
0001
1000
0100
0000
0010
0000
0001
0000
0000
1000
0010
0000
0100
0000
,  // measure 60
0001
0000
0010
0001
1000
0000
0100
0000
1000
0000
0001
1000
0010
0000
0100
0000
,  // measure 61
0001
0000
1000
0100
0010
0000
0100
0000
1000
0000
0001
0010
0100
0000
0010
0000
,  // measure 62
0001
0000
1000
0001
0100
0000
0001
0000
1000
0000
0001
1000
0100
0000
0010
0000
,  // measure 63
0001
0000
2100
0010
3000
0102
0010
0003
,  // measure 64
0011
0000
1000
0010
1000
0000
0001
1000
0001
0000
1000
0100
1000
0000
0001
1000
,  // measure 65
0001
0000
0010
0001
0010
0000
0001
1000
0001
0000
0100
0001
0100
0000
0001
1000
,  // measure 66
0001
0000
0000
0010
0100
0000
1000
0000
0000
0000
1000
0000
0010
0000
0100
0000
,  // measure 67
0001
0000
0000
1000
0100
0000
0010
0000
0000
0000
0001
0000
1000
0000
0000
0000
,  // measure 68
0001
0000
0100
0001
0100
0000
0001
1000
0001
0000
0010
0001
0010
0000
0001
1000
,  // measure 69
0001
0000
1000
0100
1000
0000
0001
1000
0001
0000
1000
0010
1000
0000
0010
0100
,  // measure 70
0010
0000
0000
1000
0100
0000
1000
0000
0001
0000
1000
0000
0100
0000
0010
0000
,  // measure 71
0001
0000
0100
0000
0001
1000
0001
1000
0100
0000
0010
0000
0001
0000
0000
0000
,  // measure 72
0101
0000
0001
0010
0100
0000
1000
0000
0010
0000
1000
0010
0001
0000
0010
0000
,  // measure 73
1000
0000
0001
0100
0010
0000
1000
0000
0100
0000
0001
0100
1000
0000
0001
0000
,  // measure 74
0010
0000
0100
0010
0001
0000
1000
0000
0100
0000
0010
0100
1000
0000
0001
0000
,  // measure 75
0010
0000
0001
0100
1000
0000
0100
0000
0010
0000
1000
0100
0001
0000
0100
0000
,  // measure 76
0010
0000
0001
1000
0010
0000
1000
0000
0001
0000
1000
0100
0010
0000
0001
0000
,  // measure 77
0100
0000
0010
0100
0001
0000
1000
0000
0010
0000
0100
0010
1000
0000
0100
0000
,  // measure 78
0001
0000
0100
0010
0001
0000
1000
0000
0010
0000
0100
0010
1000
0000
0100
0000
,  // measure 79
0010
0000
1000
0010
0100
0000
1000
0000
0010
0000
0001
0010
0100
0000
0001
0000
,  // measure 80
1000
0000
0001
1000
0100
0000
1000
0000
1000
0000
0001
1000
0010
0000
0100
0000
,  // measure 81
0100
0000
0001
0010
0100
0000
0010
0000
0010
0000
0001
1000
0010
0000
0100
0000
,  // measure 82
0100
0000
1000
0100
0010
0000
0010
0000
1000
0000
1000
0001
0010
0000
0010
0000
,  // measure 83
0100
0000
1000
0100
0010
0000
0001
0000
1000
0000
0001
0100
0010
0000
0000
0000
,  // measure 84
1010
0000
0000
0010
1000
0000
0000
1000
0001
0000
0000
0001
0010
0000
0000
0010
,  // measure 85
0200
0000
0000
0000
0000
0300
0000
0000
;

//---------------dance-single - ----------------
#NOTEDATA:;
#CHARTNAME:;
#STEPSTYPE:dance-single;
#DESCRIPTION:;
#CHARTSTYLE:;
#DIFFICULTY:Medium;
#METER:6;
#RADARVALUES:0.324548,0.389052,0.141990,0.147669,0.000000,400.000000,375.000000,25.000000,26.000000,0.000000,0.000000,0.000000,0.000000,0.000000,0.324548,0.389052,0.141990,0.147669,0.000000,400.000000,375.000000,25.000000,26.000000,0.000000,0.000000,0.000000,0.000000,0.000000;
#CREDIT:;
#NOTES:
// measure 0
0000
0000
0000
0000
,  // measure 1
0000
0000
0000
0000
,  // measure 2
0000
0000
0000
0000
,  // measure 3
0000
0000
0000
0000
,  // measure 4
0000
0000
0000
0000
,  // measure 5
0000
0000
0000
0000
,  // measure 6
0000
1000
0000
0100
0000
1000
0000
0001
,  // measure 7
0000
0010
0000
0001
0000
0100
0000
0001
,  // measure 8
0000
1000
0000
0010
0000
0100
0000
0001
,  // measure 9
0000
0000
0000
0000
,  // measure 10
0220
0330
1000
0001
,  // measure 11
1000
0000
0100
0000
0001
1000
0001
0000
,  // measure 12
0010
0000
0100
0000
0010
0001
1000
0000
,  // measure 13
0010
0000
0100
0000
0001
1000
0100
0000
,  // measure 14
2000
0100
3001
1100
,  // measure 15
1001
0000
0010
0001
1000
0000
0100
0000
,  // measure 16
0002
0100
1003
0101
,  // measure 17
1001
0000
1000
0010
0100
0000
0010
0000
,  // measure 18
2000
0010
3001
1010
,  // measure 19
1001
0000
0010
0001
0100
0000
0010
0000
,  // measure 20
0002
0010
1003
0011
,  // measure 21
1001
0000
0100
0001
0010
0000
0100
0000
,  // measure 22
1000
0100
1000
0100
1000
0000
0001
0000
,  // measure 23
0010
0100
0010
0100
0010
0000
0001
0000
,  // measure 24
1000
0000
0000
1001
0000
0000
0010
0000
,  // measure 25
0100
0000
0000
1001
0000
0000
0010
0000
,  // measure 26
0001
1000
0001
1000
0001
0000
0100
0000
,  // measure 27
1000
0100
1000
0100
1000
0000
0100
0000
,  // measure 28
0001
0000
1000
0000
0010
0100
0010
0000
,  // measure 29
1010
0000
0001
0000
0010
0001
0010
0000
,  // measure 30
1002
0203
2300
3020
,  // measure 31
0032
2003
3002
1003
,  // measure 32
0010
0000
1000
0000
0100
1000
0100
0000
,  // measure 33
0010
0000
0001
0000
0100
0001
0100
0000
,  // measure 34
0010
0100
0001
1000
,  // measure 35
0100
0010
0001
1000
,  // measure 36
0010
0000
0100
0000
0010
1000
0001
0000
,  // measure 37
0010
0000
0100
0010
0000
0001
1000
0000
,  // measure 38
2001
0000
3100
0000
,  // measure 39
1000
0100
0000
1000
0100
0000
0010
0000
,  // measure 40
0002
0000
0000
0000
0103
0000
0001
0100
,  // measure 41
0001
0000
0000
1000
0010
0000
0100
0000
,  // measure 42
0002
0000
0000
0000
0013
0000
0100
1000
,  // measure 43
0100
0010
0000
0001
0000
1000
0000
0010
,  // measure 44
0000
0100
0001
0000
0000
0000
1000
0000
,  // measure 45
0010
0001
0100
0110
,  // measure 46
1001
0000
0010
0000
1000
0001
1000
0001
,  // measure 47
0000
0010
0100
0010
0000
0001
1000
0001
,  // measure 48
0000
0100
0010
0100
0000
0001
1000
0000
,  // measure 49
0100
0010
0001
0000
,  // measure 50
1000
0000
0001
0000
1000
0010
1000
0010
,  // measure 51
0000
0100
0001
0100
0000
0010
0100
0010
,  // measure 52
0000
1000
0010
1000
0000
0001
1000
0001
,  // measure 53
0000
0010
0000
0100
0000
1000
0000
0100
,  // measure 54
0000
0001
0000
0100
0000
1000
0000
0001
,  // measure 55
0000
0100
0000
0010
0000
1000
0001
0000
,  // measure 56
2001
3200
0302
0023
,  // measure 57
2030
3200
0320
0032
,  // measure 58
1003
0000
0001
0000
0100
0001
1000
0000
,  // measure 59
0100
0000
0010
0000
0100
1000
0001
0000
,  // measure 60
1000
0010
1000
0000
0001
0100
0010
0000
,  // measure 61
0100
0001
1000
0001
,  // measure 62
0010
0100
1000
0000
0010
0100
0001
0000
,  // measure 63
1000
0000
0001
0010
0000
0100
1000
0000
,  // measure 64
1100
0000
1000
0100
0001
0000
0001
0100
,  // measure 65
1000
0000
1000
0001
0100
0000
0100
0010
,  // measure 66
0100
0000
0001
0000
0010
0001
1000
0000
,  // measure 67
0010
1000
0010
0000
0100
0001
1000
0000
,  // measure 68
0100
0010
0100
0000
0010
0001
1000
0000
,  // measure 69
0001
1000
0001
0000
0100
0001
0010
0000
,  // measure 70
0100
0000
1000
0000
0010
1000
0100
0000
,  // measure 71
1000
0001
1000
0001
1000
0001
1000
0000
,  // measure 72
0110
0000
0001
0010
1000
0010
0001
0010
,  // measure 73
1000
0100
0010
0001
,  // measure 74
1000
0000
0001
0000
1000
0100
0001
0000
,  // measure 75
0100
0000
0010
0000
0001
1000
0100
0000
,  // measure 76
0010
0001
1000
0001
,  // measure 77
0100
0000
0010
0000
1000
0001
0100
0000
,  // measure 78
0010
1000
0100
0010
,  // measure 79
0001
0000
1000
0000
0001
0100
0010
0000
,  // measure 80
0101
0000
1001
0000
1000
0100
1000
0000
,  // measure 81
0001
0010
0100
0000
0010
0001
1000
0000
,  // measure 82
1100
0000
1001
0000
1000
0010
0100
0000
,  // measure 83
0010
1000
0001
0010
0000
0100
0010
0000
,  // measure 84
0110
1000
0001
0100
,  // measure 85
2002
0000
0000
0000
0000
3003
0000
0000
;

//---------------dance-single - ----------------
#NOTEDATA:;
#CHARTNAME:;
#STEPSTYPE:dance-single;
#DESCRIPTION:;
#CHARTSTYLE:;
#DIFFICULTY:Easy;
#METER:3;
#RADARVALUES:0.201220,0.243158,0.034078,0.113592,0.000000,248.000000,242.000000,6.000000,20.000000,0.000000,0.000000,0.000000,0.000000,0.000000,0.201220,0.243158,0.034078,0.113592,0.000000,248.000000,242.000000,6.000000,20.000000,0.000000,0.000000,0.000000,0.000000,0.000000;
#CREDIT:;
#NOTES:
// measure 0
0000
0000
0000
0000
,  // measure 1
0000
0000
0000
0000
,  // measure 2
0000
0000
0000
0000
,  // measure 3
0000
0000
0000
0000
,  // measure 4
0000
0000
0000
0000
,  // measure 5
0000
0000
0000
0000
,  // measure 6
2000
0000
3010
0100
,  // measure 7
0002
0000
1003
0001
,  // measure 8
0020
0000
0230
0000
,  // measure 9
1300
0000
0000
0000
,  // measure 10
2002
3003
1000
0001
,  // measure 11
1000
0100
1000
0000
,  // measure 12
0001
0010
0001
0000
,  // measure 13
1000
0001
1000
0000
,  // measure 14
0001
0000
0100
0000
,  // measure 15
1000
0000
0100
0000
,  // measure 16
0001
0100
1000
0100
,  // measure 17
0001
0100
1000
0100
,  // measure 18
0001
0000
0010
0000
,  // measure 19
0100
0000
1000
0000
,  // measure 20
0001
0010
0100
1000
,  // measure 21
0001
0010
0100
1000
,  // measure 22
0010
0000
1000
0010
,  // measure 23
1000
0000
0001
1000
,  // measure 24
0200
0000
0320
0000
,  // measure 25
0031
1000
0010
0100
,  // measure 26
0001
0000
1000
0001
,  // measure 27
0100
0000
0001
0010
,  // measure 28
0200
0000
2300
0000
,  // measure 29
3010
0100
0001
1000
,  // measure 30
0100
1000
0100
1000
,  // measure 31
0001
1000
0001
1000
,  // measure 32
0010
1000
0010
1000
,  // measure 33
0001
1000
0001
1000
,  // measure 34
0001
0100
0001
0100
,  // measure 35
0001
1000
0001
1000
,  // measure 36
0001
0010
0001
0010
,  // measure 37
0001
1000
0001
1000
,  // measure 38
2002
0000
3003
0000
,  // measure 39
0100
0000
0010
0000
,  // measure 40
0220
0000
0330
0000
,  // measure 41
1000
0000
0100
0000
,  // measure 42
2200
0000
3300
0000
,  // measure 43
0001
0000
0100
0000
,  // measure 44
0202
0000
0303
0000
,  // measure 45
0001
0000
1000
0000
,  // measure 46
0010
0010
0100
0000
,  // measure 47
0001
0000
1000
0000
,  // measure 48
0100
1000
1000
0000
,  // measure 49
0001
0000
0100
0000
,  // measure 50
0010
0010
1000
0000
,  // measure 51
0100
0000
0010
0000
,  // measure 52
0001
0100
0100
0000
,  // measure 53
0001
0000
1000
0000
,  // measure 54
0001
0000
1000
0000
,  // measure 55
0010
0100
0010
0000
,  // measure 56
1000
0100
1000
0100
,  // measure 57
0010
0100
0010
0100
,  // measure 58
0001
0100
0001
0100
,  // measure 59
0010
0100
0010
0100
,  // measure 60
1000
0100
1000
0100
,  // measure 61
1000
0001
1000
0001
,  // measure 62
1000
0010
1000
0010
,  // measure 63
0100
0010
0100
0000
,  // measure 64
0001
0100
0001
0100
,  // measure 65
0010
0100
0010
0100
,  // measure 66
1000
0100
1000
0100
,  // measure 67
0010
0100
0010
0100
,  // measure 68
0001
0100
0001
0100
,  // measure 69
0001
1000
0001
1000
,  // measure 70
0100
1000
0100
1000
,  // measure 71
0001
1000
0001
1000
,  // measure 72
0001
0010
0001
0000
,  // measure 73
1000
0010
0100
0000
,  // measure 74
0010
1000
0100
0000
,  // measure 75
0010
0001
1000
0000
,  // measure 76
0001
0100
0010
0000
,  // measure 77
1000
0100
1000
0000
,  // measure 78
0001
1000
0010
0100
,  // measure 79
0001
0010
0100
1000
,  // measure 80
0100
0000
0010
0000
,  // measure 81
0100
0000
0010
0001
,  // measure 82
0100
0000
0010
0000
,  // measure 83
0100
0000
0010
1000
,  // measure 84
0001
0010
0100
1000
,  // measure 85
2002
0000
0000
0000
0000
3003
0000
0000
;

//---------------dance-single - ----------------
#NOTEDATA:;
#CHARTNAME:;
#STEPSTYPE:dance-single;
#DESCRIPTION:;
#CHARTSTYLE:;
#DIFFICULTY:Beginner;
#METER:1;
#RADARVALUES:0.067344,0.120691,0.005680,0.000000,0.000000,83.000000,82.000000,1.000000,0.000000,0.000000,0.000000,0.000000,0.000000,0.000000,0.067344,0.120691,0.005680,0.000000,0.000000,83.000000,82.000000,1.000000,0.000000,0.000000,0.000000,0.000000,0.000000,0.000000;
#CREDIT:;
#NOTES:
// measure 0
0000
0000
0000
0000
,  // measure 1
0000
0000
0000
0000
,  // measure 2
0000
0000
0000
0000
,  // measure 3
0000
0000
0000
0000
,  // measure 4
0000
0000
0000
0000
,  // measure 5
0000
0000
0000
0000
,  // measure 6
0010
0000
0000
0000
,  // measure 7
1000
0000
0000
0000
,  // measure 8
0001
0000
0000
0000
,  // measure 9
0100
0000
0000
0000
,  // measure 10
0001
0000
0000
0000
,  // measure 11
0001
0000
0000
0000
,  // measure 12
1000
0000
0000
0000
,  // measure 13
1000
0000
0000
0000
,  // measure 14
0100
0000
0000
0000
,  // measure 15
0010
0000
0000
0000
,  // measure 16
0100
0000
0000
0000
,  // measure 17
0010
0000
0000
0000
,  // measure 18
0001
0000
0000
0000
,  // measure 19
1000
0000
0000
0000
,  // measure 20
0010
0000
0000
0000
,  // measure 21
0100
0000
0000
0000
,  // measure 22
0001
0000
0000
0000
,  // measure 23
0001
0000
0000
0000
,  // measure 24
1000
0000
0000
0000
,  // measure 25
1000
0000
0000
0000
,  // measure 26
0100
0000
0000
0000
,  // measure 27
0100
0000
0000
0000
,  // measure 28
0010
0000
0000
0000
,  // measure 29
0010
0000
0000
0000
,  // measure 30
0001
0000
0000
0000
,  // measure 31
1000
0000
0000
0000
,  // measure 32
0010
0000
0000
0000
,  // measure 33
0100
0000
0000
0000
,  // measure 34
0001
0000
0000
0000
,  // measure 35
0001
0000
0000
0000
,  // measure 36
1000
0000
0000
0000
,  // measure 37
0100
0000
0010
0000
,  // measure 38
0100
0000
0000
0000
,  // measure 39
1000
0000
0000
0000
,  // measure 40
0001
0000
0000
0000
,  // measure 41
0100
0000
0000
0000
,  // measure 42
0010
0000
0000
0000
,  // measure 43
1000
0000
0000
0000
,  // measure 44
0001
0000
0000
0000
,  // measure 45
0010
0000
0000
0000
,  // measure 46
0100
0000
0000
0000
,  // measure 47
0010
0000
0000
0000
,  // measure 48
0001
0000
0000
0000
,  // measure 49
1000
0000
0000
0000
,  // measure 50
0010
0000
0000
0000
,  // measure 51
1000
0000
0000
0000
,  // measure 52
0001
0000
0000
0000
,  // measure 53
0010
0000
0000
0000
,  // measure 54
0100
0000
0000
0000
,  // measure 55
1000
0000
0000
0000
,  // measure 56
0001
0000
0000
0000
,  // measure 57
1000
0000
0000
0000
,  // measure 58
0010
0000
0000
0000
,  // measure 59
0100
0000
0000
0000
,  // measure 60
0001
0000
0000
0000
,  // measure 61
1000
0000
0000
0000
,  // measure 62
0100
0000
0000
0000
,  // measure 63
0010
0000
0000
0000
,  // measure 64
0001
0000
0000
0000
,  // measure 65
1000
0000
0000
0000
,  // measure 66
0010
0000
0000
0000
,  // measure 67
0100
0000
0000
0000
,  // measure 68
0010
0000
0000
0000
,  // measure 69
1000
0000
0000
0000
,  // measure 70
0001
0000
0000
0000
,  // measure 71
1000
0000
0000
0000
,  // measure 72
0100
0000
0000
0000
,  // measure 73
0010
0000
0000
0000
,  // measure 74
0001
0000
0000
0000
,  // measure 75
1000
0000
0000
0000
,  // measure 76
0001
0000
0000
0000
,  // measure 77
0100
0000
0000
0000
,  // measure 78
0010
0000
0000
0000
,  // measure 79
1000
0000
0000
0000
,  // measure 80
0001
0000
0000
0000
,  // measure 81
1000
0000
0000
0000
,  // measure 82
0100
0000
0000
0000
,  // measure 83
0100
0000
0000
0000
,  // measure 84
0010
0000
0100
0000
,  // measure 85
1001
0000
0000
0000
;

//---------------dance-single - ----------------
#NOTEDATA:;
#CHARTNAME:;
#STEPSTYPE:dance-single;
#DESCRIPTION:;
#CHARTSTYLE:;
#DIFFICULTY:Hard;
#METER:7;
#RADARVALUES:0.389458,0.413368,0.198786,0.221504,0.059636,480.000000,445.000000,35.000000,39.000000,0.000000,0.000000,0.000000,0.000000,0.000000,0.389458,0.413368,0.198786,0.221504,0.059636,480.000000,445.000000,35.000000,39.000000,0.000000,0.000000,0.000000,0.000000,0.000000;
#CREDIT:;
#NOTES:
// measure 0
0000
0000
0000
0000
,  // measure 1
0000
0000
0000
0000
,  // measure 2
0000
0000
0000
0000
,  // measure 3
0000
0000
0000
0000
,  // measure 4
0000
0000
0000
0000
,  // measure 5
0000
0000
0000
0000
,  // measure 6
0000
1000
0100
0001
0100
1000
0100
0001
,  // measure 7
0100
0000
0000
0010
0000
0000
0001
0000
1000
0000
0000
0010
0000
0000
0100
0000
,  // measure 8
0001
0000
0010
0200
0000
0000
0300
0000
,  // measure 9
2000
0000
0002
3003
,  // measure 10
2002
0000
3003
1000
0010
0001
0010
0000
,  // measure 11
1000
0000
0000
0100
0000
0000
0010
0000
0001
0000
1000
0000
0010
0000
0000
0000
,  // measure 12
0100
0000
0000
0001
0000
0000
1000
0000
0100
0000
0010
0000
0100
0000
0000
0000
,  // measure 13
1000
0000
0000
0010
0000
0000
1000
0000
0001
0000
0010
0000
0100
0000
0000
0000
,  // measure 14
1000
0000
0000
0001
0000
0000
0100
0000
0000
0000
0001
0000
0000
0000
1000
0000
,  // measure 15
0000
0010
0000
0110
0000
1001
0000
0010
,  // measure 16
0100
1000
0001
0100
0000
0010
0000
1000
,  // measure 17
0100
0010
0100
1000
0000
0001
0000
0010
,  // measure 18
0100
0000
0000
0010
0000
0000
0001
0000
0000
0000
1000
0000
0000
0000
0010
0000
,  // measure 19
0000
0101
0000
0010
0000
1100
0000
0001
,  // measure 20
0100
0010
1000
0100
0000
0010
0000
0001
,  // measure 21
0000
1100
0000
1000
0000
0101
0000
0000
,  // measure 22
0001
1000
0100
1000
0001
1000
0100
1000
,  // measure 23
0001
0010
0001
1000
0001
0010
0001
0100
,  // measure 24
0010
0000
0000
1000
0000
0000
0100
0000
0000
0000
1000
0000
0010
0000
2000
0000
,  // measure 25
0000
3001
0010
0200
0000
0310
0000
1001
,  // measure 26
0000
1000
0100
0010
0100
1000
0100
0010
,  // measure 27
0001
0010
0100
0010
0001
0010
0100
1000
,  // measure 28
0000
0001
0000
1000
0010
0001
0010
2000
,  // measure 29
0000
0000
0000
3001
0100
0010
1000
0000
,  // measure 30
0101
1000
0100
1000
0010
1000
0100
1000
,  // measure 31
0010
0000
0000
0100
0000
0000
0001
0000
0000
0000
0010
0000
0100
0000
0000
0000
,  // measure 32
0010
0000
0000
0001
0000
0000
1000
0000
0000
0000
0001
0000
0100
0000
0000
0000
,  // measure 33
0010
0000
0000
1000
0000
0000
0100
0000
0000
0000
0010
0000
0110
0000
0000
0000
,  // measure 34
1000
0001
0100
0010
0100
0001
0100
0010
,  // measure 35
1000
0000
0000
0100
0000
0000
0010
0000
0000
0000
0001
0000
0000
0000
1000
0000
,  // measure 36
0000
0001
0000
1100
0000
1010
0000
1001
,  // measure 37
0000
0001
0010
1000
0000
1000
0010
0001
,  // measure 38
0200
0300
0220
0330
,  // measure 39
0001
1000
0000
1000
0001
0000
0010
0000
,  // measure 40
0220
0000
0330
0000
1000
0000
0001
1000
,  // measure 41
0100
0010
0000
1000
0010
0001
0000
0010
,  // measure 42
0200
0000
0300
0000
1100
0000
1000
0001
,  // measure 43
0100
0010
0000
1000
0000
0001
0000
0010
,  // measure 44
0000
0000
0000
0100
0000
0000
1000
0000
0000
0000
0000
0000
0001
0000
0000
0000
0000
0000
0010
0000
0100
0000
0010
0000
,  // measure 45
0001
0000
0000
1000
0100
0010
0100
0000
0000
1000
0000
0000
,  // measure 46
2100
0000
0001
0000
3010
1000
0001
0200
,  // measure 47
0000
0301
1000
0020
0000
0031
0010
2000
,  // measure 48
0000
3001
0100
0020
0000
1030
0100
0010
,  // measure 49
0001
0000
0000
1000
0000
0000
0100
0000
0110
0000
0000
0000
0011
0000
0000
0000
,  // measure 50
1002
0000
0100
0000
0013
0001
1000
0020
,  // measure 51
0000
1030
0100
0002
0000
0103
0010
0002
,  // measure 52
0000
1003
0010
0200
0000
0310
1000
0200
,  // measure 53
0000
0310
0000
1001
0000
0100
0010
0100
,  // measure 54
0000
0001
1000
0100
0000
0010
0001
2000
,  // measure 55
0000
3020
0000
0230
0000
0301
1000
0000
,  // measure 56
0001
0100
1000
0100
0001
0100
1000
0100
,  // measure 57
0010
1000
0000
0001
0000
0010
0110
0000
,  // measure 58
0010
0000
0000
0001
0000
0000
2002
0000
0000
0000
3003
0000
1010
0000
0000
0000
,  // measure 59
0010
0000
0000
0100
0000
0000
0202
0000
0000
0000
0303
0000
1001
0000
0000
0000
,  // measure 60
0100
0010
0001
1000
0010
1000
0001
0010
,  // measure 61
0001
1000
0000
0100
0000
0010
0000
0001
,  // measure 62
0000
1000
0000
0100
0000
0010
0000
0101
,  // measure 63
0000
0000
0010
1001
0000
0001
1100
0000
,  // measure 64
0100
1000
0001
1000
0100
1000
0001
1000
,  // measure 65
0010
1000
0001
1000
0010
1000
0001
1000
,  // measure 66
0200
0000
0000
0310
0000
0001
0100
0001
,  // measure 67
0000
1000
0010
0100
0000
0001
0000
1000
,  // measure 68
0000
0001
0010
0001
0100
0010
0100
0001
,  // measure 69
1000
0001
0100
0010
1000
0001
0010
0200
,  // measure 70
0000
0310
0000
0001
1000
0100
0010
0001
,  // measure 71
1000
0000
0010
0000
0100
0001
1000
0000
,  // measure 72
0102
0000
0013
0001
0100
0001
1000
0010
,  // measure 73
0100
0000
0000
0001
0000
0000
1000
0000
0100
0000
0000
0010
0000
0000
0001
0000
,  // measure 74
1000
0010
1000
0001
0000
0001
0010
0000
,  // measure 75
0001
0100
0001
1000
0000
0100
1000
0000
,  // measure 76
0001
0010
0100
1000
0001
0100
0010
1000
,  // measure 77
0001
1000
0100
0010
0001
1000
0010
0100
,  // measure 78
0001
1000
0100
0010
0000
0001
0000
1000
,  // measure 79
0000
0010
0100
0001
0000
1000
0100
0000
,  // measure 80
1100
0000
0001
0100
0001
0100
0001
1000
,  // measure 81
0001
0010
0100
1000
,  // measure 82
1100
0000
1000
0100
1000
0001
1000
0100
,  // measure 83
1000
0010
0100
0001
,  // measure 84
2001
3100
0012
0103
,  // measure 85
2002
0000
0000
0000
0000
3003
0000
0000
;
