#TITLE:What Are You Waiting For?;
#SUBTITLE:(Instrumental);
#ARTIST:MLCD [My Little Cheap Dictaphone];
#TITLETRANSLIT:;
#SUBTITLETRANSLIT:;
#ARTISTTRANSLIT:;
#GENRE:The Tragic Tale of a Genius;
#CREDIT:;
#BANNER:What Are You Waiting For (Instrumental)-bn.png;
#BACKGROUND:Black.png;
#LYRICSPATH:;
#CDTITLE:;
#MUSIC:What Are You Waiting For.mp3;
#OFFSET:-0.051000;
#SAMPLESTART:12.051000;
#SAMPLELENGTH:12.000000;
#SELECTABLE:YES;
#BPMS:0.000000=160.000000
;
#STOPS:
;
#BGCHANGES:0.000=What Are You Waiting For.avi=1.000=1=0=1===CrossFade==,
99999=-nosongbg-=1.000=0=0=0 // don't automatically add -songbackground-
;
#KEYSOUNDS:;
#ATTACKS:;

//---------------dance-single - Blank----------------
#NOTES:
     dance-single:
     :
     Hard:
     8:
     0.516159,0.581681,0.225820,0.327049,0.046721,393.000000,29.000000,42.000000,0.000000,0.000000,0.000000,0.516159,0.581681,0.225820,0.327049,0.046721,393.000000,29.000000,42.000000,0.000000,0.000000,0.000000:
// measure 0
0000
0000
0000
0000
,  // measure 1
0000
0000
0000
0000
,  // measure 2
0000
0000
0000
0000
,  // measure 3
0000
0000
0000
0000
,  // measure 4
2000
0000
0000
0000
,  // measure 5
3020
0000
0000
0000
,  // measure 6
0230
0000
0000
0000
,  // measure 7
0302
0000
0000
0000
,  // measure 8
1003
0000
1100
0000
0100
1000
0001
0100
,  // measure 9
0010
0000
0110
0000
0100
0010
0100
0000
,  // measure 10
0001
0000
0101
0000
0001
0100
0010
1000
,  // measure 11
0100
0000
0110
0000
0100
0010
0100
0000
,  // measure 12
0010
0000
1001
0000
0001
1000
0010
0100
,  // measure 13
0001
0101
1000
1100
,  // measure 14
0001
0000
0110
0000
0010
0100
1000
0001
,  // measure 15
0100
0000
0110
0000
0100
0010
0100
0000
,  // measure 16
0001
0001
0001
0001
,  // measure 17
1000
0000
1000
0000
1000
0000
1000
0100
,  // measure 18
0001
0001
0001
0001
,  // measure 19
1000
1000
0010
0010
,  // measure 20
0100
0100
0100
0100
,  // measure 21
0010
0000
0010
0000
0010
0000
1000
0010
,  // measure 22
0001
0010
0010
0010
,  // measure 23
0100
0100
0001
0001
,  // measure 24
1000
0000
0110
0000
0100
0010
0100
0010
,  // measure 25
0001
0000
0110
0000
0100
0010
0100
0010
,  // measure 26
1000
0000
0110
0000
1000
0001
1000
0001
,  // measure 27
0100
0000
1001
0000
0100
0001
1000
0001
,  // measure 28
1000
0100
0010
0000
0100
0000
0100
0000
,  // measure 29
1000
0001
0100
0000
0010
0000
0010
0000
,  // measure 30
0100
0001
1000
0000
0100
0000
0010
0000
,  // measure 31
0100
1000
0001
0000
0100
0000
0100
0000
,  // measure 32
0020
0000
1000
0000
1030
0010
0100
0000
,  // measure 33
0002
0000
0010
0000
0013
0100
1000
0000
,  // measure 34
0002
0000
0103
0010
0100
0000
0001
0000
,  // measure 35
0020
0000
0130
1000
0001
0000
0100
0000
,  // measure 36
0020
0000
1000
0000
1030
0001
0100
0000
,  // measure 37
0020
0000
0100
0000
0130
0001
1000
0000
,  // measure 38
0200
0000
0010
0000
0310
0100
1000
0001
,  // measure 39
2000
0001
3001
1001
,  // measure 40
0100
1001
0110
1001
,  // measure 41
2020
0000
0000
0030
,  // measure 42
0002
0000
0003
0200
0000
0300
3020
0000
,  // measure 43
0200
0000
0000
0030
,  // measure 44
0002
0300
0020
0003
,  // measure 45
0200
0000
0000
0030
,  // measure 46
2000
0000
0300
0020
0000
0030
3002
0000
,  // measure 47
0200
0000
0000
0003
,  // measure 48
0020
0000
0000
0300
,  // measure 49
1030
0000
1100
0000
1000
0001
0100
0001
,  // measure 50
1000
0000
0110
0000
0010
0100
0001
1000
,  // measure 51
0001
0000
0010
0100
1000
0000
0001
0000
,  // measure 52
0100
0000
0010
0100
0001
0000
1000
0000
,  // measure 53
0200
0000
0010
0000
0310
0100
1000
0001
,  // measure 54
2000
0000
0001
0000
3001
0100
0010
1000
,  // measure 55
0002
0000
0010
0000
0013
0100
1000
0001
,  // measure 56
0200
0010
0000
0310
,  // measure 57
1020
0130
1002
0103
,  // measure 58
0021
0130
2001
3100
,  // measure 59
1000
0100
0010
0001
0010
0100
1000
0000
,  // measure 60
0001
0010
0100
1000
0100
0010
0001
0000
,  // measure 61
0102
0013
2100
3001
,  // measure 62
1002
0013
0210
0310
,  // measure 63
1000
0010
0100
0001
0100
0010
1000
0000
,  // measure 64
0001
0100
0010
1000
0001
1000
0100
0000
,  // measure 65
0010
0100
0010
0000
0001
0000
0010
0000
0100
0000
1000
0000
0001
0000
1000
0000
,  // measure 66
0010
1000
0010
0000
0100
0000
0001
0000
1000
0000
0001
0000
0100
0000
0000
0000
,  // measure 67
0010
0100
0010
0000
1000
0000
0010
0000
0100
0000
0001
0000
1000
0000
0001
0000
,  // measure 68
0010
0100
0010
0000
0001
0000
1000
0000
0100
0000
0010
0000
0001
0000
1000
0000
,  // measure 69
0001
0100
0001
0000
1000
0000
0001
0000
1000
0000
0010
0000
1000
0000
0100
0000
,  // measure 70
1000
0001
1000
0000
0100
0000
0010
0000
0001
0000
0010
0000
0100
0000
1000
0000
,  // measure 71
0010
0100
0010
0100
0001
1000
0100
0000
,  // measure 72
0010
0100
0010
0100
1000
0010
0100
0001
,  // measure 73
1000
0100
1000
0000
0001
0000
0100
0000
0010
0000
0100
0000
0001
0000
1000
0000
,  // measure 74
0001
0100
0001
0000
0010
0000
0100
0000
1000
0000
0001
0000
0100
0000
0000
0000
,  // measure 75
0010
0100
0010
0000
1000
0000
0010
0000
0100
0000
0001
0000
1000
0000
0100
0000
,  // measure 76
0010
0100
0010
0000
0100
0000
1000
0000
0010
0000
0100
0000
0010
0000
1000
0000
,  // measure 77
0001
0100
0001
0000
1000
0000
0100
0000
0010
0000
0100
0000
1000
0000
0001
0000
,  // measure 78
0100
0010
0100
0000
0001
0000
1000
0000
0100
0000
0010
0000
0100
0000
1000
0000
,  // measure 79
0002
0000
0000
0000
,  // measure 80
2000
0000
0000
3003
,  // measure 81
2002
0000
0000
0000
,  // measure 82
0000
0000
0000
0000
,  // measure 83
3003
0000
0000
0000
;

//---------------dance-single - Blank----------------
#NOTES:
     dance-single:
     :
     Medium:
     6:
     0.305913,0.323156,0.062295,0.327049,0.000000,225.000000,8.000000,42.000000,0.000000,0.000000,0.000000,0.305913,0.323156,0.062295,0.327049,0.000000,225.000000,8.000000,42.000000,0.000000,0.000000,0.000000:
0000
0000
0000
0000
,
0000
0000
0000
0000
,
0000
0000
0000
0000
,
0000
0000
0000
0000
,
2000
0000
0000
0000
,
3020
0000
0000
0000
,
0230
0000
0000
0000
,
0302
0000
0000
0000
,
0023
0000
0000
0000
,
0230
0000
2300
0000
,
3002
0000
0000
0000
,
0203
0000
0000
0000
,
0320
0000
0000
0000
,
0230
0000
0302
0000
,
2003
0000
0000
0000
,
3002
0000
0000
0000
,
0013
0010
0010
0010
,
0100
0000
0100
0000
0100
0000
0100
1000
,
0100
1000
1000
1000
,
0001
0001
0100
0100
,
0010
0010
0010
0010
,
1000
0000
1000
0000
1000
0000
0001
0100
,
0001
0001
0001
0001
,
0010
0010
0100
0100
,
1000
1100
0000
1000
,
0001
0101
0000
0001
,
0010
0110
0000
0100
,
1000
1001
0000
1000
,
0001
0101
0000
0001
,
1000
1100
0000
1000
,
0010
0110
0000
0010
,
1000
1001
0000
1000
,
0020
0000
0230
0000
,
0302
0000
0023
0000
,
0230
0000
0000
0000
,
2300
0000
0000
0000
,
3020
0000
2030
0000
,
3200
0000
0320
0000
,
0032
0000
0000
0000
,
0103
0000
0000
0000
,
0010
0000
0000
0000
,
1000
1000
0100
0010
,
0001
0100
0010
1000
,
0100
0010
0100
0010
,
0001
1000
0001
0100
,
0010
1000
0100
0010
,
0001
1000
0001
0100
,
0010
1000
0100
0010
,
0001
0100
0010
1000
,
0200
0000
0320
0000
,
0032
0000
2003
0000
,
3020
0000
0000
0000
,
0230
0000
0000
0000
,
0302
0000
0023
0000
,
0230
0000
2300
0000
,
3020
0000
0000
0000
,
0230
0000
0000
0000
,
0301
0001
1000
1000
,
0100
0100
0010
0010
,
0100
0000
0000
1000
0000
0000
0001
0000
,
0100
0000
0001
0000
1000
0000
0001
1000
,
0100
0010
0100
0010
,
0001
0100
0010
1000
,
0100
0000
0000
0010
0000
0000
0100
0000
,
1000
0000
0001
0000
1000
0001
0100
0000
,
0010
0100
0001
0010
,
0100
0010
0100
0000
1000
0000
0010
0000
,
0100
0010
0100
0000
0001
0000
1000
0000
,
0100
0010
0100
0000
1000
0000
0010
0000
,
1000
0100
1000
0000
0001
0000
0100
0000
,
0010
0100
0001
0000
0010
0000
0001
0000
,
1000
0001
1000
0000
0010
0000
0100
0000
,
0002
0000
0000
0000
,
0013
0000
0100
0000
1000
0100
1000
0000
,
0001
0100
0001
0000
1000
0100
1000
0000
,
0010
1000
0100
0010
,
0002
0000
0000
0000
,
0103
0010
0100
0000
0001
0000
1000
0000
,
0001
1000
0001
0000
0010
0000
0100
0000
,
0020
0000
0000
0000
,
0230
0000
0000
0000
,
2300
0000
0000
0000
,
0000
0000
0000
0000
,
3000
0000
0000
0000
;

//---------------dance-single - Blank----------------
#NOTES:
     dance-single:
     :
     Easy:
     3:
     0.223595,0.258525,0.023361,0.560656,0.000000,126.000000,3.000000,72.000000,0.000000,0.000000,0.000000,0.223595,0.258525,0.023361,0.560656,0.000000,126.000000,3.000000,72.000000,0.000000,0.000000,0.000000:
0000
0000
0000
0000
,
0000
0000
0000
0000
,
0000
0000
0000
0000
,
0000
0000
0000
0000
,
2000
0000
0000
0000
,
3020
0000
0000
0000
,
0230
0000
0000
0000
,
0302
0000
0000
0000
,
2003
0000
0000
0000
,
3200
0000
0320
0000
,
0032
0000
0000
0000
,
0023
0000
0230
0000
,
2300
0000
0000
0000
,
3020
0000
0230
0000
,
0302
0000
0000
0000
,
0203
0000
0320
0000
,
1030
0000
0100
0000
,
0010
0000
0001
0000
,
0010
0000
0100
0000
,
0010
0000
0001
0000
,
1000
0000
0100
0000
,
1000
0000
0001
0000
,
0100
0000
0010
0000
,
0100
0000
0001
0000
,
1000
1000
0000
0000
,
0000
0010
0000
0000
,
0000
0100
0000
0000
,
0000
0001
0000
0000
,
0000
0010
0000
0000
,
0000
0100
0000
0000
,
0000
1000
0000
0000
,
0000
0001
0000
0000
,
0100
0100
0010
0010
,
0100
0100
0010
0010
,
0200
0000
0000
0000
,
0320
0000
0000
0000
,
1030
1000
0001
0001
,
1000
1000
0001
0001
,
2000
0000
0000
0000
,
3002
0000
0000
0000
,
0013
0000
0000
0000
,
0100
0000
0000
0000
,
1000
0000
0000
1000
0000
0000
1000
0000
,
0002
0000
0000
0000
,
0203
0000
0320
0000
,
0230
0000
0000
0000
,
0301
0000
0000
0001
0000
0000
0001
0000
,
0002
0000
0000
0000
,
2003
0000
0000
0000
,
3200
0000
0320
0000
,
0230
0000
2300
0000
,
3002
0000
0000
0000
,
0203
0000
0000
0000
,
0302
0000
2003
0000
,
3200
0000
2300
0000
,
3002
0000
0000
0000
,
0023
0000
0000
0000
,
0230
0000
2300
0000
,
3200
0000
2300
0000
,
3020
0000
0230
0000
,
0302
0000
0000
0000
,
0023
0000
0032
0000
,
0023
0000
0032
0000
,
2003
0000
3200
0000
,
0320
0000
0000
0000
,
0230
0000
2300
0000
,
3020
0000
2030
0000
,
3200
0000
0000
0000
,
0320
0000
0000
0000
,
0032
0000
0023
0000
,
0032
0000
0203
0000
,
0320
0000
0000
0000
,
2030
0000
0000
0000
,
3100
0000
0010
0000
,
0100
0000
0010
0000
,
0002
0000
0000
0000
,
2003
0000
0000
0000
,
3010
0000
0100
0000
,
0010
0000
0100
0000
,
2002
0000
0000
3003
,
0220
0000
0000
0330
,
2002
0000
0000
0000
,
0000
0000
0000
0000
,
3003
0000
0000
0000
;

//---------------dance-single - Blank----------------
#NOTES:
     dance-single:
     :
     Beginner:
     1:
     0.133490,0.190389,0.023361,0.015574,0.000000,115.000000,3.000000,2.000000,0.000000,0.000000,0.000000,0.133490,0.190389,0.023361,0.015574,0.000000,115.000000,3.000000,2.000000,0.000000,0.000000,0.000000:
0000
0000
0000
0000
,
0000
0000
0000
0000
,
0000
0000
0000
0000
,
0000
0000
0000
0000
,
1000
0000
0000
0000
,
0010
0000
0000
0000
,
0100
0000
0000
0000
,
0001
0000
0000
0000
,
1000
0000
0000
0000
,
0100
0000
0010
0000
,
0001
0000
0000
0000
,
0010
0000
0100
0000
,
1000
0000
0000
0000
,
0010
0000
0100
0000
,
0001
0000
0000
0000
,
0100
0000
0010
0000
,
1000
0000
0100
0000
,
0010
0000
0001
0000
,
0010
0000
0100
0000
,
0010
0000
0001
0000
,
1000
0000
0100
0000
,
1000
0000
0001
0000
,
0100
0000
0010
0000
,
0100
0000
0001
0000
,
0000
1000
0000
0000
,
0000
0010
0000
0000
,
0000
0100
0000
0000
,
0000
0001
0000
0000
,
0000
0010
0000
0000
,
0000
0100
0000
0000
,
0000
1000
0000
0000
,
0000
0001
0000
0000
,
0100
0000
0010
0000
,
0100
0000
0010
0000
,
0100
0000
0000
0000
,
0010
0000
0000
0000
,
1000
0000
0001
0000
,
1000
0000
0001
0000
,
1000
0000
0000
0000
,
0001
0000
0000
0000
,
0010
0000
0000
0000
,
0100
0000
0000
0000
,
1000
0000
1000
0000
,
0001
0000
0000
0000
,
0100
0000
0010
0000
,
0100
0000
0000
0000
,
0001
0000
0001
0000
,
0001
0000
0000
0000
,
1000
0000
0000
0000
,
0100
0000
0010
0000
,
0100
0000
1000
0000
,
0001
0000
0000
0000
,
0100
0000
0000
0000
,
0001
0000
1000
0000
,
0100
0000
1000
0000
,
0001
0000
0000
0000
,
0010
0000
0000
0000
,
0100
0000
1000
0000
,
0100
0000
1000
0000
,
0010
0000
0100
0000
,
0001
0000
0000
0000
,
0010
0000
0001
0000
,
0010
0000
0001
0000
,
1000
0000
0100
0000
,
0010
0000
0000
0000
,
0100
0000
1000
0000
,
0010
0000
1000
0000
,
0100
0000
0000
0000
,
0010
0000
0000
0000
,
0001
0000
0010
0000
,
0001
0000
0100
0000
,
0010
0000
0000
0000
,
1000
0000
0000
0000
,
0100
0000
0010
0000
,
0100
0000
0010
0000
,
0001
0000
0000
0000
,
1000
0000
0000
0000
,
0010
0000
0100
0000
,
0010
0000
0100
0000
,
1001
0000
0000
0000
,
0110
0000
0000
0000
,
2002
0000
3003
0000
;
