#VERSION:0.83;
#TITLE:We Sink;
#SUBTITLE:;
#ARTIST:CHVRCHΞS;
#TITLETRANSLIT:;
#SUBTITLETRANSLIT:;
#ARTISTTRANSLIT:CHVRCHES;
#GENRE:The Bones of What You Believe;
#ORIGIN:;
#CREDIT:;
#BANNER:We Sink-bn.png;
#BACKGROUND:We Sink-bg.png;
#PREVIEWVID:;
#JACKET:We Sink-jacket.png;
#CDIMAGE:;
#DISCIMAGE:;
#LYRICSPATH:;
#CDTITLE:;
#MUSIC:We Sink.mp3;
#OFFSET:-0.042644;
#SAMPLESTART:38.438652;
#SAMPLELENGTH:15.360001;
#SELECTABLE:YES;
#BPMS:0.000=125.000,
112.000=62.500,
144.000=125.000;
#STOPS:;
#DELAYS:;
#WARPS:;
#TIMESIGNATURES:0.000=4=4;
#TICKCOUNTS:0.000=4;
#COMBOS:0.000=1;
#SPEEDS:0.000=1.000=0.000=0;
#SCROLLS:0.000=1.000;
#FAKES:;
#LABELS:0.000=Song Start;
#LASTSECONDHINT:134.478653;
#BGCHANGES:;
#KEYSOUNDS:;
#ATTACKS:
;

//---------------dance-single - ----------------
#NOTEDATA:;
#CHARTNAME:;
#STEPSTYPE:dance-single;
#DESCRIPTION:;
#CHARTSTYLE:;
#DIFFICULTY:Challenge;
#METER:10;
#RADARVALUES:0.619327,0.729922,0.258053,0.191697,1.021153,588.000000,553.000000,35.000000,26.000000,0.000000,0.000000,0.000000,0.000000,0.000000,0.619327,0.729922,0.258053,0.191697,1.021153,588.000000,553.000000,35.000000,26.000000,0.000000,0.000000,0.000000,0.000000,0.000000;
#CREDIT:;
#NOTES:
0000
0000
0000
0000
,
0000
0000
0000
0000
,
0000
0000
0000
0000
,
0000
0000
0000
0000
0000
0000
0000
0000
0000
0000
0000
0000
0000
0000
0000
1000
,
0000
0010
0100
0001
0100
0001
0100
0001
0100
0001
0100
0001
0100
0001
0000
0010
,
0000
0100
1000
0100
1000
0100
1000
0100
1000
0100
1000
0100
1000
0100
0000
1000
,
0000
0010
0100
0001
0100
0001
0100
0001
0100
0001
0100
0001
0100
0001
0000
0010
,
0000
0100
1000
0100
1000
0100
1000
0100
1000
0100
1000
0100
1000
0100
0000
1000
,
0000
0001
0010
0001
0010
0001
0010
0001
0010
0001
0010
0001
0010
0001
0000
1000
,
0000
0010
0100
0010
0100
0010
0100
0010
0100
0010
0100
0010
0100
0010
0000
1000
,
0000
0001
0100
0001
0100
0001
0100
0001
0100
0001
0100
0001
0100
0001
0000
1000
,
0000
0100
0010
0100
0010
0100
0010
0100
0010
0100
0010
0100
0010
0100
0000
1000
,
0000
0010
0100
0001
0100
0010
0100
0001
0100
0010
0100
0001
0100
0010
0000
1000
,
0000
0100
0010
0100
1000
0100
0010
0100
1000
0100
0010
0100
1000
0100
0000
1000
,
0000
0010
0100
0001
0100
0010
0100
0001
0100
0010
0100
0001
0100
0010
0000
1000
,
0000
0001
0010
0100
1000
0001
0010
0100
1000
0001
0010
0100
1000
0001
0000
1000
,
0000
0001
0010
0100
1000
0010
0100
0001
0010
0100
1000
0010
0100
0001
0000
0010
,
0000
1000
0100
0010
0001
0010
0100
1000
0001
0010
0100
1000
0100
0010
0000
0001
,
0000
1000
0010
0100
0001
0010
0001
1000
0100
0010
0100
1000
0010
0100
0000
0001
,
0000
1000
0010
0100
0001
0010
0100
1000
0010
0100
0001
0010
0100
1000
0000
0100
,
0000
0000
0000
0001
0100
0000
0100
0010
0000
0010
1000
0000
1010
0000
0000
0000
,
0000
1001
1100
0101
,
0000
0000
1000
0000
0100
0000
0010
0001
0000
0001
0100
0000
0101
0000
0000
0000
,
0000
1001
0101
1100
,
0010
0000
0100
0000
0001
0010
0000
0100
0000
0000
1000
0000
1000
0010
0000
0100
,
0000
0000
0001
0000
0010
0001
0000
1000
0000
0000
0100
0000
1000
0010
0000
0100
,
0000
0001
0010
0001
0000
1000
0001
1000
0000
0001
0100
0001
0000
0100
0010
0100
,
0000
0010
1000
0100
0000
1000
0100
0010
0000
0100
1000
0001
0000
0100
0001
0100
,
0020
0000
0000
0000
1000
0000
0000
0200
0000
0000
0000
0000
0000
0000
0330
0002
,
2000
0000
0000
0003
0010
0010
0000
0020
3000
0200
0000
0000
0000
0000
0330
0000
,
0002
0000
0000
0000
0010
0100
0000
2000
0000
0000
0000
0003
0020
0000
3000
0200
,
0000
0000
0000
0000
0000
0000
0000
0000
0000
0000
0000
0000
0000
0000
0000
0000
0000
0000
0000
0000
0000
0000
0330
0000
0101
0000
0000
1001
0000
0000
2200
0000
,
0000
0000
0000
0000
0000
0000
3000
0000
0020
0000
0000
0000
0030
0000
2000
0000
0000
0000
0000
0000
0000
0000
3300
0000
1001
0000
0000
1100
0000
0000
0202
0000
,
0000
0000
0000
0000
0000
0000
0300
0000
0010
0000
0010
0000
0000
0000
0010
0000
2000
0000
0000
0000
3003
0000
0000
0000
0110
0000
0000
0101
0000
0000
2002
0000
,
0000
0000
0000
0000
0000
0000
3003
0000
2000
0000
0002
0000
3000
0000
0200
0000
0000
0000
0000
0000
0000
0000
0303
0000
1010
0000
0000
1100
0000
0000
1002
0000
,
0200
0000
0000
0000
0000
0000
0000
0000
0000
0000
0303
0000
0002
0000
0020
0000
0000
0000
0000
0000
0003
0000
0130
0000
0110
0000
0000
1100
0000
0000
1001
0000
,
0100
0001
0010
0001
0010
0001
0010
0001
0010
0001
0010
0001
0010
0100
0000
1000
,
0000
0010
1000
0010
0100
0010
0100
0010
0100
0010
0100
0010
0100
0010
0000
1000
,
0000
0001
0100
0010
1000
0010
0100
0010
1000
0100
0010
0100
1000
0100
0000
0001
,
0000
0100
0010
0001
0100
0010
0100
0001
1000
0010
0100
0010
1000
0001
0000
0100
,
0000
0000
0000
0010
1000
0000
1000
0001
0000
0001
0010
0000
0110
0000
0000
0000
,
0000
0000
0000
0000
1010
0000
0000
0000
1001
0000
1000
0100
0000
1000
0100
0000
,
0010
0000
0001
0000
0100
0000
0010
1000
0000
0001
0010
0000
0110
0000
0000
0000
,
1000
0010
0100
0001
0101
0000
1010
0000
,
0001
0000
1000
0000
0010
1000
0000
0100
0000
0000
1000
0000
0100
0001
0000
0100
,
0000
0000
0010
0000
0001
0010
0000
0001
0010
0000
1000
0010
0000
0001
0010
0000
,
0000
0000
0100
0000
1000
0010
0000
0100
0000
0000
0100
0000
0001
1000
0000
0010
,
0000
0000
0010
0000
0100
1000
0000
0100
0000
0000
0001
0000
0100
0001
0000
0010
,
0000
0000
0000
0100
1000
0000
0010
0100
0000
0001
0010
0000
0100
0000
0000
0000
,
0000
0000
0000
0000
1100
0000
0000
0000
0110
0000
0001
0100
0000
1000
0100
0000
,
0010
0000
0100
0000
0001
0000
0010
0100
0000
1000
0010
0000
0110
0000
0000
0000
,
0001
0011
1100
1001
,
0100
0000
0010
0000
1000
0100
0000
0010
0001
0000
0100
0000
0010
1000
0000
0001
,
0010
0000
0100
0000
1000
0001
0000
0100
0010
0000
1000
0010
0000
0001
0010
0000
,
0100
0000
0010
0000
0001
0100
0000
0010
1000
0000
0100
0000
0010
0001
0000
1000
,
0010
0000
0100
0000
0001
1000
0000
0010
1000
0000
1000
0100
0000
0100
0010
0000
,
0001
0000
0010
0000
0001
0100
0000
0100
0010
0000
1000
0000
0001
1000
0000
1000
,
0100
0000
0010
0000
0001
1000
0000
1000
0010
0000
0100
0010
0000
0100
0010
0000
,
0100
0000
0001
0000
1000
0100
0000
0100
0010
0000
0001
0000
1000
0010
0000
0010
,
0100
0000
0001
0000
0010
0100
0000
0100
1000
0000
0010
0000
0100
0001
0000
0001
,
1000
0000
0000
0000
;

//---------------dance-single - ----------------
#NOTEDATA:;
#CHARTNAME:;
#STEPSTYPE:dance-single;
#DESCRIPTION:;
#CHARTSTYLE:;
#DIFFICULTY:Hard;
#METER:7;
#RADARVALUES:0.366541,0.508733,0.199070,0.191697,0.350215,348.000000,321.000000,27.000000,26.000000,0.000000,0.000000,0.000000,0.000000,0.000000,0.366541,0.508733,0.199070,0.191697,0.350215,348.000000,321.000000,27.000000,26.000000,0.000000,0.000000,0.000000,0.000000,0.000000;
#CREDIT:;
#NOTES:
// measure 0
0000
0000
0000
0000
,  // measure 1
0000
0000
0000
0000
,  // measure 2
0000
0000
0000
0000
,  // measure 3
0000
0000
0000
0000
,  // measure 4
0010
0000
0000
0000
1000
0000
0000
0001
0010
0000
0000
0000
0100
0000
0000
0000
,  // measure 5
0100
0000
0000
0000
0010
0001
0000
0010
0000
0100
1000
0000
0010
0000
0000
0100
,  // measure 6
0000
0000
0000
0000
0001
0000
0000
1000
0100
0000
0000
0000
0010
0000
0000
0000
,  // measure 7
0001
0000
0000
0001
0100
0001
0000
0010
0000
0100
1000
0000
0100
0000
0000
0010
,  // measure 8
0000
0000
0000
0000
0001
0000
0000
0100
0010
0000
0000
0000
1000
0000
0000
0000
,  // measure 9
0001
0000
0000
0000
0010
0000
0000
0100
0000
0000
1000
0000
0000
0000
0010
0000
,  // measure 10
0100
0001
1000
0010
,  // measure 11
0001
0010
1000
0100
,  // measure 12
0010
0000
0000
0000
0001
0000
0000
1000
0100
0000
0000
0000
0100
0000
0000
0000
,  // measure 13
1000
0000
0000
0000
0010
1000
0000
0010
0000
1000
0100
0000
0010
0000
0000
0001
,  // measure 14
0100
0000
0000
0000
0010
0000
0000
1000
0001
0000
0000
0000
0100
0000
0000
0000
,  // measure 15
0001
0000
0000
0000
0100
0010
0000
0100
0000
0001
0010
0000
0100
0000
0000
1000
,  // measure 16
0000
0000
0000
0000
0010
0000
0000
1000
0100
0000
0000
0000
1000
0000
0000
0000
,  // measure 17
0001
0000
0000
0000
0100
0000
0000
0010
0000
0000
1000
0000
0000
0000
0001
0000
,  // measure 18
0010
0100
1000
0010
,  // measure 19
0100
0001
1000
0100
,  // measure 20
0010
0000
0000
0001
0010
0000
0010
0100
0000
0100
1000
0000
0001
0000
0000
0000
,  // measure 21
0000
1000
0010
0110
,  // measure 22
0000
0000
1000
0000
0010
0000
1000
0100
0000
0010
0001
0000
1000
0000
0000
0000
,  // measure 23
0000
0001
0010
0110
,  // measure 24
0000
0000
1000
0000
0010
0000
0000
0100
0000
0000
0100
0000
0001
0000
0000
0010
,  // measure 25
0000
0000
0010
0000
0100
0000
0000
1000
0000
0000
1000
0000
0010
0000
0000
1000
,  // measure 26
0000
0000
1000
0000
0001
0000
0000
0010
0000
0000
0010
0000
0100
0000
0000
1000
,  // measure 27
0000
0000
1000
0000
0001
0000
0000
0100
0000
0000
0100
0000
0010
0000
0000
0010
,  // measure 28
2000
0000
0000
0000
0100
0000
0000
0200
0000
0000
0000
0000
0000
0000
3300
2000
,  // measure 29
0002
0000
0000
3000
0100
0100
0000
0200
0003
0020
0000
0000
0000
0000
0330
0000
,  // measure 30
2000
0000
0000
0000
0100
0010
0000
0002
0000
0000
0000
3000
0200
0000
0003
0020
,  // measure 31
0000
0000
0000
0000
0000
0000
0000
0000
0000
0000
0000
0000
0000
0000
0000
0000
0000
0000
0000
0000
0000
0000
0330
0000
1010
0000
0000
1001
0000
0000
0022
0000
,  // measure 32
0000
0000
0000
0000
0000
0000
0003
0000
0200
0000
0000
0000
0300
0000
0002
0000
0000
0000
0000
0000
0000
0000
0033
0000
1001
0000
0000
0011
0000
0000
2020
0000
,  // measure 33
0000
0000
0000
0000
0000
0000
0030
0000
0100
0000
0100
0000
0000
0000
0100
0000
0002
0000
0000
0000
3003
0000
0000
0000
0110
0000
0000
1010
0000
0000
2002
0000
,  // measure 34
0000
0000
0000
0000
0000
0000
3003
0000
0002
0000
2000
0000
0003
0000
0020
0000
0000
0000
0000
0000
0000
0000
3030
0000
0101
0000
0000
0011
0000
0000
2001
0000
,  // measure 35
0020
0000
0000
0000
0000
0000
0000
0000
0000
0000
3030
0000
2000
0000
0200
0000
0000
0000
0000
0000
3000
0000
0310
0000
0110
0000
0000
0011
0000
0000
1001
0000
,  // measure 36
0100
0010
1000
0100
0010
0001
0100
0001
,  // measure 37
0010
0100
1000
0010
0100
0001
0010
0001
,  // measure 38
0100
0010
1000
0100
0010
0001
0100
0010
,  // measure 39
0100
0001
0010
0100
1000
0010
0100
0001
,  // measure 40
0010
0000
0000
0100
1000
0000
1000
0001
0000
0001
0100
0000
0010
0000
0000
0000
,  // measure 41
0000
1000
0100
1001
,  // measure 42
0000
0000
0010
0000
0001
0000
1000
0010
0000
0010
0100
0000
0001
0000
0000
0000
,  // measure 43
0000
1000
0010
0110
,  // measure 44
0000
0000
0010
0000
1000
0000
0000
0100
0000
0000
0100
0000
0010
0000
0000
0001
,  // measure 45
0000
0000
0001
0000
1000
0000
0000
0010
0000
0000
0100
0000
0001
0000
0000
0010
,  // measure 46
0000
0000
0100
0000
1000
0000
0000
0001
0000
0000
1000
0000
0010
0000
0000
1000
,  // measure 47
0000
0000
0001
0000
1000
0000
0000
0010
0000
0000
0100
0000
0001
0000
0000
0010
,  // measure 48
0100
0000
0000
1000
0010
0000
0010
1000
0000
1000
0100
0000
0010
0000
0000
0000
,  // measure 49
0000
0001
1000
0101
,  // measure 50
0000
0000
0010
0000
0100
0000
0001
0010
0000
0010
0100
0000
1000
0000
0000
0000
,  // measure 51
0000
0001
0010
0110
,  // measure 52
0000
0000
0100
0000
1000
0000
0000
0010
0000
0000
1000
0000
0001
0000
0000
0010
,  // measure 53
0000
0000
0001
0000
1000
0000
0000
0100
0000
0000
1000
0000
0010
0000
0000
0100
,  // measure 54
0000
0000
0001
0000
0010
0000
0000
0100
0000
0000
1000
0000
0010
0000
0000
1000
,  // measure 55
0000
0000
0001
0000
0010
0000
0100
0000
1100
0000
0000
0101
0000
0000
1001
0000
,  // measure 56
0000
0000
0010
0000
0100
0000
0000
0001
0000
0000
0010
0000
0100
0000
0000
1000
,  // measure 57
0000
0000
0010
0000
0100
0000
0001
0000
0101
0000
0000
1001
0000
0000
1100
0000
,  // measure 58
0000
0000
0100
0000
0010
0000
0000
0001
0000
0000
1000
0000
0010
0000
0000
0100
,  // measure 59
0000
0000
0001
0000
0010
0000
0000
0100
0000
0000
1000
0000
0010
0000
0000
0100
,  // measure 60
0001
0000
0000
0000
;

//---------------dance-single - ----------------
#NOTEDATA:;
#CHARTNAME:;
#STEPSTYPE:dance-single;
#DESCRIPTION:;
#CHARTSTYLE:;
#DIFFICULTY:Medium;
#METER:5;
#RADARVALUES:0.261213,0.309664,0.140086,0.265426,0.092162,248.000000,229.000000,19.000000,36.000000,0.000000,0.000000,0.000000,0.000000,0.000000,0.261213,0.309664,0.140086,0.265426,0.092162,248.000000,229.000000,19.000000,36.000000,0.000000,0.000000,0.000000,0.000000,0.000000;
#CREDIT:;
#NOTES:
0000
0000
0000
0000
,
0000
0000
0000
0000
,
0000
0000
0000
0000
,
0000
0000
0000
0000
,
0010
1010
0011
0010
,
0100
1000
0001
0100
,
0010
0110
1001
0100
,
0010
1000
0100
0010
,
0001
0011
1100
0100
,
1000
0010
0100
0001
,
1000
1000
0001
0001
,
1000
1000
0001
0001
,
0100
0101
1100
0100
,
0010
0001
1000
0010
,
0100
0110
0101
0001
,
0010
0100
1000
0010
,
0100
0110
1001
0100
,
0010
1000
0100
0010
,
0001
0001
1000
1000
,
0010
0010
0100
0100
,
0001
0000
0001
0100
1000
0000
1000
0000
,
1000
0010
0001
0010
,
1000
0000
1000
0010
0001
0000
0001
0000
,
0010
0001
0100
0100
,
0001
0101
1010
0010
,
0100
0000
0001
0100
1000
0000
0100
0000
,
0020
0030
0200
0300
,
2000
3000
0002
0003
,
2000
0000
0000
0000
0100
0000
0000
0200
0000
0000
0000
0000
0000
0000
3300
0000
,
0002
0000
0000
0000
0100
0100
0000
0200
0000
0000
0000
0000
0000
0000
0303
0000
,
2000
0000
0000
0000
0010
0010
0000
0020
0000
0000
0000
3030
0200
0000
0000
0020
,
0000
0000
0000
0000
0000
0000
0000
0000
0000
0000
0000
0000
0000
0000
0000
0000
0000
0000
0000
0000
0000
0000
0330
0000
1000
0000
0000
0001
0000
0000
0020
0000
,
0000
0000
0000
0000
0000
0000
0000
0000
0100
0000
0000
0000
0000
0000
0002
0000
0000
0000
0000
0000
0000
0000
0033
0000
0010
0000
0000
0001
0000
0000
2000
0000
,
0000
0000
0000
0000
0000
0000
0000
0000
0010
0000
0010
0000
0000
0000
0020
0000
0000
0000
0000
0000
3030
0000
0000
0000
0100
0000
0000
0001
0000
0000
2000
0000
,
0000
0000
0000
0000
0000
0000
3000
0000
0002
0000
2000
0000
0003
0000
0020
0000
0000
0000
0000
0000
0000
0000
3030
0000
0100
0000
0000
0001
0000
0000
0020
0000
,
0000
0000
0000
0000
0000
0000
0000
0000
0000
0000
0030
0000
0100
0000
2000
0000
0000
0000
0000
0000
0000
0000
3010
0000
0100
0000
0000
0001
0000
0000
0010
0000
,
0100
0000
1000
0000
0010
0000
1000
0010
,
1000
0000
0100
0000
0010
0000
0001
0100
,
0001
0000
0010
0000
0100
0000
1000
0010
,
1000
0000
0100
0000
0010
0000
0001
0100
,
0001
0000
0001
0100
1000
0000
1000
0000
,
1000
0010
0001
0010
,
1000
0000
1000
0010
0001
0000
0001
0000
,
0010
0001
0100
0100
,
0001
0101
1010
0010
,
0100
0000
0001
0100
1000
0000
0100
0000
,
0020
0030
0200
0300
,
2000
3000
0002
0003
,
1000
0000
1000
0010
0001
0000
0001
0000
,
0001
0100
1000
0100
,
0001
0000
0001
0100
1000
0000
1000
0000
,
0100
1000
0010
0010
,
1000
1100
0011
0100
,
0010
0000
0001
0010
1000
0000
0010
0000
,
0200
0300
0020
0030
,
2000
0000
0000
0000
3000
0000
0000
0000
0001
0000
0000
1000
0000
0000
0100
0000
,
2000
3000
0020
0030
,
0200
0000
0000
0000
0300
0000
0000
0000
0001
0000
0000
0010
0000
0000
0100
0000
,
2000
3000
0200
0300
,
0020
0030
0002
0003
,
1001
0000
0000
0000
;

//---------------dance-single - ----------------
#NOTEDATA:;
#CHARTNAME:;
#STEPSTYPE:dance-single;
#DESCRIPTION:;
#CHARTSTYLE:;
#DIFFICULTY:Easy;
#METER:3;
#RADARVALUES:0.185377,0.221188,0.014746,0.058984,0.000000,176.000000,174.000000,2.000000,8.000000,0.000000,0.000000,0.000000,0.000000,0.000000,0.185377,0.221188,0.014746,0.058984,0.000000,176.000000,174.000000,2.000000,8.000000,0.000000,0.000000,0.000000,0.000000,0.000000;
#CREDIT:;
#NOTES:
0000
0000
0000
0000
,
0000
0000
0000
0000
,
0000
0000
0000
0000
,
0000
0000
0000
0000
,
1000
0100
0010
0000
,
0001
1000
0001
0100
,
0001
0100
0010
0000
,
1000
0010
1000
0100
,
0010
0100
0010
0000
,
0001
0010
0100
0000
,
1000
0000
0001
0000
,
1000
0000
0001
0000
,
1000
0010
0100
0000
,
0001
1000
0001
0100
,
0001
0010
0100
0000
,
1000
0100
0010
0100
,
0010
0100
1000
0000
,
0010
1000
0010
0100
,
0001
0000
0010
0000
,
0100
0000
1000
0000
,
0001
1000
0010
0010
,
1000
0010
0100
0100
,
0001
0100
0001
0001
,
0010
0001
0010
0100
,
1000
1000
1000
0000
,
0001
0100
0001
0000
,
0010
0000
0100
0000
,
0010
0000
0100
0000
,
2000
0000
0000
3010
,
0200
0001
0301
0000
,
0020
0001
0001
0032
,
1003
0000
0000
1001
,
0020
0000
0000
0130
,
0002
0010
0013
0000
,
0200
1000
1000
2300
,
3001
0000
0000
1001
,
0010
0010
0010
0010
,
0100
0100
0100
0100
,
0001
0001
0001
0001
,
1000
1000
1000
1000
,
0001
1000
0010
0010
,
1000
0010
0100
0100
,
0001
0100
0001
0001
,
0010
0001
0010
0100
,
1000
1000
1000
0000
,
0001
0100
0001
0000
,
0010
0000
0100
0000
,
0010
0000
0100
0000
,
1000
0001
0100
0100
,
0001
0100
0010
0010
,
1000
0010
1000
1000
,
0100
1000
0100
0010
,
0001
0001
0001
0000
,
1000
0010
1000
0000
,
0100
0000
0010
0000
,
0100
0000
0010
0000
,
0001
0000
0100
0000
,
1000
0000
0100
0000
,
0010
0000
1000
0000
,
0100
0000
0010
0000
,
0001
0000
0000
0000
;

//---------------dance-single - ----------------
#NOTEDATA:;
#CHARTNAME:;
#STEPSTYPE:dance-single;
#DESCRIPTION:;
#CHARTSTYLE:;
#DIFFICULTY:Beginner;
#METER:1;
#RADARVALUES:0.109541,0.132713,0.007373,0.000000,0.000000,104.000000,103.000000,1.000000,0.000000,0.000000,0.000000,0.000000,0.000000,0.000000,0.109541,0.132713,0.007373,0.000000,0.000000,104.000000,103.000000,1.000000,0.000000,0.000000,0.000000,0.000000,0.000000,0.000000;
#CREDIT:;
#NOTES:
0000
0000
0000
0000
,
0000
0000
0000
0000
,
0000
0000
0000
0000
,
0000
0000
0000
0000
,
0010
0000
0000
0000
,
1000
0000
1000
0000
,
0100
0000
0000
0000
,
0010
0000
0001
0000
,
0001
0000
0000
0000
,
0100
0000
0010
0000
,
0010
0000
0000
0000
,
0100
0000
0000
0000
,
0010
0000
0000
0000
,
1000
0000
1000
0000
,
0001
0000
0000
0000
,
0010
0000
0001
0000
,
1000
0000
0000
0000
,
0100
0000
0010
0000
,
0001
0000
0000
0000
,
0010
0000
0100
0000
,
1000
1000
1000
0000
,
0010
0000
0100
0000
,
0001
0001
0001
0000
,
0010
0000
0100
0000
,
1000
0000
0100
0000
,
0001
0000
0100
0000
,
1000
0000
0100
0000
,
0001
0000
0100
0000
,
1000
0000
0000
0000
,
0010
0000
0000
0000
,
0100
0000
0000
0000
,
0001
0000
0000
0010
,
0010
0000
0000
0100
,
0100
0000
0000
1000
,
1000
0000
0000
0001
,
0001
0000
0000
0100
,
0100
0000
0000
0000
,
0000
0000
0010
0000
,
0010
0000
0000
0000
,
0000
0000
1000
0000
,
1000
1000
1000
0000
,
0100
0000
0010
0000
,
0001
0001
0001
0000
,
0010
0000
0100
0000
,
1000
0000
0100
0000
,
0001
0000
0100
0000
,
1000
0000
0100
0000
,
0001
0000
0100
0000
,
0001
0001
0001
0000
,
0100
0000
0010
0000
,
1000
1000
1000
0000
,
0010
0000
0100
0000
,
0001
0000
0100
0000
,
1000
0000
0100
0000
,
0001
0000
0100
0000
,
1000
0000
0100
0000
,
0001
0000
0001
0000
,
1000
0000
1000
0000
,
0001
0000
0001
0000
,
1000
0000
1000
0000
,
1001
0000
0000
0000
;
