#VERSION:0.83;
#TITLE:We Found Love;
#SUBTITLE:;
#ARTIST:Rihanna feat. Calvin Harris;
#TITLETRANSLIT:;
#SUBTITLETRANSLIT:;
#ARTISTTRANSLIT:;
#GENRE:Talk That Talk;
#ORIGIN:;
#CREDIT:;
#BANNER:We Found Love-bn.png;
#BACKGROUND:We Found Love-bg.png;
#PREVIEWVID:;
#JACKET:We Found Love-jacket.png;
#CDIMAGE:;
#DISCIMAGE:;
#LYRICSPATH:;
#CDTITLE:;
#MUSIC:We Found Love.mp3;
#OFFSET:-0.029000;
#SAMPLESTART:93.740997;
#SAMPLELENGTH:15.000000;
#SELECTABLE:YES;
#BPMS:0.000=128.000;
#STOPS:;
#DELAYS:;
#WARPS:;
#TIMESIGNATURES:0.000=4=4;
#TICKCOUNTS:0.000=4;
#COMBOS:0.000=1;
#SPEEDS:0.000=1.000=0.000=0;
#SCROLLS:0.000=1.000;
#FAKES:;
#LABELS:0.000=Song Start,
16.000=Steps Start,
48.000=Bass Enters,
80.000=We found love...,
96.000=Build up,
128.000=Instrumental Chorus,
160.000=Breakdown,
176.000=Breakdown 2,
192.000=Build up 2,
200.000=Chorus,
232.000=End;
#LASTSECONDHINT:109.719002;
#BGCHANGES:;
#KEYSOUNDS:;
#ATTACKS:
;

//---------------dance-single - ----------------
#NOTEDATA:;
#CHARTNAME:;
#STEPSTYPE:dance-single;
#DESCRIPTION:;
#CHARTSTYLE:;
#DIFFICULTY:Challenge;
#METER:10;
#RADARVALUES:0.645017,0.671356,0.580005,0.232002,0.673698,506.000000,441.000000,65.000000,26.000000,0.000000,0.000000,0.000000,0.000000,0.000000,0.645017,0.671356,0.580005,0.232002,0.673698,506.000000,441.000000,65.000000,26.000000,0.000000,0.000000,0.000000,0.000000,0.000000;
#CREDIT:;
#OFFSET:-0.029000;
#BPMS:0.000000=128.000000
;
#STOPS:;
#DELAYS:;
#WARPS:;
#TIMESIGNATURES:0.000000=4=4
;
#TICKCOUNTS:0.000000=4
;
#COMBOS:0.000000=1
;
#SPEEDS:0.000000=1.000000=0.000000=0
;
#SCROLLS:0.000000=1.000000
;
#FAKES:;
#LABELS:0.000000=Song Start
;
#NOTES:
// measure 0
0000
0000
0000
0000
,  // measure 1
0000
0000
0000
0000
,  // measure 2
0000
0000
0000
0000
,  // measure 3
0000
0000
0000
0000
,  // measure 4
1000
0000
0000
0001
0000
0000
1000
0000
0000
0100
0000
0000
0100
0000
0001
0000
,  // measure 5
1000
0000
0000
0001
0000
0000
1000
0000
0000
0010
0000
0000
0100
0000
1000
0000
,  // measure 6
0001
0000
0000
1000
0000
0000
0001
0000
0000
0100
0000
0000
0100
0000
1000
0000
,  // measure 7
0001
0000
0000
1000
0000
0000
0001
0000
0000
0010
0000
0000
0100
0000
0001
0000
,  // measure 8
1000
0000
0000
0010
0000
0000
0100
0000
0000
0001
0000
0000
0001
0000
0010
0000
,  // measure 9
0100
0000
0000
0010
0000
0000
0100
0000
0000
1000
0000
0000
0001
0000
1000
0000
,  // measure 10
0100
0000
0000
0010
0000
0000
0100
0000
0000
1000
0000
0000
1000
0000
0010
0000
,  // measure 11
0100
0000
0000
0010
0000
0000
0100
0000
0000
0001
0000
0000
1000
0000
0100
0000
,  // measure 12
1100
0000
0000
0100
1000
0000
0001
0000
0100
0001
0000
0000
0101
0000
0100
0000
,  // measure 13
1001
0000
0000
1000
0010
0000
1000
0000
0100
0010
0000
0000
0110
0000
0100
0000
,  // measure 14
1100
0000
0000
1000
0001
0000
1000
0000
0001
0100
0000
0000
0101
0000
0100
0000
,  // measure 15
1001
0000
0000
0001
1000
0000
0001
0000
0010
0001
0000
0000
0101
0000
1000
0000
,  // measure 16
1100
0000
0000
0100
0010
0000
0001
0000
1000
0001
0000
0000
1001
0000
0100
0000
,  // measure 17
0101
0000
0000
1000
0010
0000
1000
0000
0001
1000
0000
0000
1100
0000
0001
0000
,  // measure 18
0101
0000
0000
0100
0001
0000
1000
0000
0001
0100
0000
0000
0110
0000
0100
0000
,  // measure 19
1001
0000
0000
0001
1000
0000
0001
0000
0010
0100
0000
0000
1001
0000
0100
0000
,  // measure 20
1001
0000
0000
1000
0010
0000
1000
0000
0010
0100
0000
0000
0110
0000
1000
0000
,  // measure 21
0101
0000
0000
0001
0100
0000
0001
0000
1000
0010
0000
0000
1001
0000
0010
0000
,  // measure 22
1001
0000
0000
1000
0001
0000
1000
0000
0100
0010
0000
0000
0110
0000
0100
0000
,  // measure 23
1001
0000
0000
1000
0010
0000
1000
0000
0001
0100
0000
0000
0101
0000
0100
0000
,  // measure 24
0110
0000
0000
0010
0000
0000
1010
0000
1001
0000
0000
1000
0000
0000
1001
0000
,  // measure 25
1100
0000
0000
0100
0000
0000
0110
0000
0011
0000
0000
0010
0000
0000
0011
0000
,  // measure 26
1001
0000
0000
0001
0000
0000
1001
0000
0101
0000
0000
0100
0000
0000
0110
0000
,  // measure 27
1010
0000
0000
1000
0000
0000
1010
0000
1001
0000
0000
0100
0000
0000
1001
0000
,  // measure 28
0011
0000
0000
1001
0000
0000
0101
0000
1001
0000
0000
0101
0000
0000
0110
0000
,  // measure 29
0110
0000
0000
1010
0000
0000
1001
0000
1001
0000
0000
1100
0000
0000
1100
0000
,  // measure 30
0110
0000
0000
0110
0000
0000
0011
0000
1001
0000
0000
1001
0000
0000
0101
0000
,  // measure 31
0110
0000
0000
0000
0000
0000
1010
0000
0000
0000
0000
0000
1100
0000
0000
0000
0000
0000
0101
0000
0000
0000
0000
0000
2002
0000
0000
0000
0000
0000
0000
3003
,  // measure 32
1001
0000
0010
1000
0000
1000
0001
0000
1000
0100
0000
0100
0010
0000
0100
0000
,  // measure 33
1000
0000
1000
0001
0000
0001
0100
0000
0100
0010
0000
0010
1000
0000
0001
0000
,  // measure 34
1000
0000
1000
0010
0000
0010
0100
0000
0100
0001
0000
1000
0100
0000
0100
0000
,  // measure 35
0010
0000
0010
0001
0000
0001
1000
0000
0001
0100
0000
0010
1000
0000
0001
0000
,  // measure 36
1000
0000
0001
0100
0000
0100
0010
0000
1000
0100
0000
0100
0010
0000
0100
0000
,  // measure 37
1000
0000
0001
0100
0000
0100
0010
0000
1000
0001
0000
0001
1000
0000
0100
0000
,  // measure 38
0010
0000
0010
0001
0000
0001
1000
0000
0001
0100
0000
0100
0010
0000
1000
0000
,  // measure 39
0001
0000
0001
1000
0000
1000
0100
0000
0100
0010
0000
0010
0100
0000
1000
0000
,  // measure 40
0002
0000
0000
2000
0003
0000
0200
3000
0000
0020
0300
0000
2000
0030
3020
0000
,  // measure 41
0230
0000
0000
2000
0300
0000
0002
3000
0000
0200
0003
0000
0020
0300
0032
0000
,  // measure 42
0023
0000
0000
0200
0030
0000
0302
0000
0000
2000
0003
0000
0200
3000
0320
0000
,  // measure 43
0230
0000
0000
0002
0300
0000
2000
0003
0000
0020
3000
0000
0200
0030
2300
0000
,  // measure 44
3001
0000
0100
0001
0100
0000
0010
1000
0010
0000
1000
0100
1000
0000
0001
1000
,  // measure 45
0001
0000
0100
0010
0100
0000
0001
1000
0001
0000
0100
0010
0100
0000
0001
1000
,  // measure 46
0001
0000
0010
0001
0010
0000
0100
0010
0100
0000
1000
0100
1000
0000
0001
1000
,  // measure 47
0001
0000
0100
0010
0100
0000
0001
1000
0001
0000
0010
0100
0010
0000
0001
1000
,  // measure 48
0001
0000
0001
0100
0000
0100
0010
0000
0010
1000
0000
1000
0001
0000
0001
0000
,  // measure 49
0001
0000
0001
1000
0000
1000
0100
0000
0100
0010
0000
0000
1001
0000
0000
0000
,  // measure 50
1000
0000
0010
0100
0000
0001
0100
0000
0001
1000
0000
0001
0100
0000
0010
0000
,  // measure 51
1000
0000
0100
0010
0000
0001
0010
0000
0001
0100
0000
0010
0100
0000
0010
0000
,  // measure 52
1000
0000
0100
0010
0000
0100
1000
0000
0001
1000
0000
0010
1000
0000
0001
0000
,  // measure 53
1000
0000
0100
0010
0000
0100
1000
0000
0001
0100
0000
0010
0100
0000
0001
0000
,  // measure 54
1000
0000
0010
1000
0000
0001
1000
0000
0100
1000
0000
0001
0100
0000
0010
0000
,  // measure 55
0100
0000
0001
1000
0000
0001
0100
0000
0010
1000
0000
0100
1000
0000
0010
0000
,  // measure 56
0100
0000
0010
1000
0000
0001
1000
0000
0001
0100
0000
0010
0100
0000
0001
0000
,  // measure 57
1000
0000
0100
1000
0000
0100
0010
0000
0100
1000
0000
0001
1000
0000
0100
0000
;

//---------------dance-single - ----------------
#NOTEDATA:;
#CHARTNAME:;
#STEPSTYPE:dance-single;
#DESCRIPTION:;
#CHARTSTYLE:;
#DIFFICULTY:Hard;
#METER:7;
#RADARVALUES:0.387520,0.360718,0.008923,0.071385,0.374772,304.000000,303.000000,1.000000,8.000000,0.000000,0.000000,0.000000,0.000000,0.000000,0.387520,0.360718,0.008923,0.071385,0.374772,304.000000,303.000000,1.000000,8.000000,0.000000,0.000000,0.000000,0.000000,0.000000;
#CREDIT:;
#OFFSET:-0.029000;
#BPMS:0.000000=128.000000
;
#STOPS:;
#DELAYS:;
#WARPS:;
#TIMESIGNATURES:0.000000=4=4
;
#TICKCOUNTS:0.000000=4
;
#COMBOS:0.000000=1
;
#SPEEDS:0.000000=1.000000=0.000000=0
;
#SCROLLS:0.000000=1.000000
;
#FAKES:;
#LABELS:0.000000=Song Start
;
#NOTES:
// measure 0
0000
0000
0000
0000
,  // measure 1
0000
0000
0000
0000
,  // measure 2
0000
0000
0000
0000
,  // measure 3
0000
0000
0000
0000
,  // measure 4
1000
0000
0000
1000
0000
0000
1000
0000
0000
0100
0000
0000
0100
0000
0100
0000
,  // measure 5
0001
0000
0000
0001
0000
0000
0001
0000
0000
0100
0000
0000
0100
0000
0100
0000
,  // measure 6
1000
0000
0000
1000
0000
0000
1000
0000
0000
0100
0000
0000
0100
0000
0100
0000
,  // measure 7
0001
0000
0000
0001
0000
0000
0001
0000
0000
0100
0000
0000
0100
0000
0100
0000
,  // measure 8
1000
0000
0000
1000
0000
0000
1000
0000
0000
0100
0000
0000
0100
0000
0100
0000
,  // measure 9
0010
0000
0000
0010
0000
0000
0010
0000
0000
0100
0000
0000
0100
0000
0100
0000
,  // measure 10
0001
0000
0000
0001
0000
0000
0001
0000
0000
0100
0000
0000
0100
0000
0100
0000
,  // measure 11
0010
0000
0000
0010
0000
0000
0010
0000
0000
0100
0000
0000
0100
0000
0100
0000
,  // measure 12
1000
0000
0000
0100
0000
0000
1000
0000
0000
0001
0000
0000
0010
0000
0001
0000
,  // measure 13
0100
0000
0000
0001
0000
0000
1000
0000
0000
0001
0000
0000
0100
0000
0010
0000
,  // measure 14
0100
0000
0000
0001
0000
0000
0010
0000
0000
0001
0000
0000
1000
0000
0100
0000
,  // measure 15
0010
0000
0000
0100
0000
0000
1000
0000
0000
0001
0000
0000
1000
0000
0010
0000
,  // measure 16
0100
0000
0000
1000
0000
0000
0100
0000
0000
0001
0000
0000
1000
0000
0001
0000
,  // measure 17
0100
0000
0000
0010
0000
0000
1000
0000
0000
0001
0000
0000
1000
0000
0100
0000
,  // measure 18
0010
0000
0000
0100
0000
0000
1000
0000
0000
0001
0000
0000
0100
0000
0010
0000
,  // measure 19
0100
0000
0000
0001
0000
0000
1000
0000
0000
0001
0000
0000
0100
0000
0010
0000
,  // measure 20
0100
0001
1000
0001
0200
0000
0310
0100
,  // measure 21
0001
0000
1000
0100
0000
0010
0000
0000
,  // measure 22
0100
1000
0001
1000
0200
0000
0310
0001
,  // measure 23
2000
0000
0000
3002
0000
0000
0203
0000
,  // measure 24
0301
0000
0000
0001
0000
0000
0001
0000
1000
0000
0000
1000
0000
0000
1000
0000
,  // measure 25
0001
0000
0000
0001
0000
0000
0001
0000
0100
0000
0000
0100
0000
0000
0100
0000
,  // measure 26
1000
0000
0000
1000
0000
0000
1000
0000
0100
0000
0000
0100
0000
0000
0100
0000
,  // measure 27
0001
0000
0000
0001
0000
0000
0001
0000
1000
0000
0000
1000
0000
0000
0010
0000
,  // measure 28
0100
0000
0000
0100
0000
0000
0010
0000
1000
0000
0000
1000
0000
0000
0100
0000
,  // measure 29
0010
0000
0000
0010
0000
0000
0001
0000
1000
0000
0000
1000
0000
0000
0001
0000
,  // measure 30
0100
0000
0000
0100
0000
0000
0010
0000
1000
0000
0000
1000
0000
0000
0001
0000
,  // measure 31
0100
0000
0000
0010
0000
0000
1000
0000
0000
0001
0000
0000
2002
0000
0000
3003
,  // measure 32
0010
0000
0000
0001
0000
0000
1000
0000
0000
0001
0000
0000
0100
0000
0001
0000
,  // measure 33
1000
0000
0000
0010
0000
0000
1000
0000
0000
0100
0000
0000
0010
0000
0100
0000
,  // measure 34
1000
0000
0000
0001
0000
0000
0100
0000
0000
0010
0000
0000
1000
0000
0001
0000
,  // measure 35
0100
0000
0000
0010
0000
0000
0100
0000
0000
0001
0000
0000
1000
0000
0001
0000
,  // measure 36
1000
0000
0000
0010
0000
0000
1000
0000
0000
0100
0000
0000
0010
0000
0100
0000
,  // measure 37
1000
0000
0000
0001
0000
0000
0010
0000
0000
0001
0000
0000
0100
0000
0001
0000
,  // measure 38
1000
0000
0000
0010
0000
0000
0100
0000
0000
0001
0000
0000
0100
0000
0010
0000
,  // measure 39
0100
0000
0000
0001
0000
0000
1000
0000
0000
0010
0000
0000
0100
0000
0010
0000
,  // measure 40
1000
0001
0100
0100
,  // measure 41
0001
0010
0001
0100
,  // measure 42
0010
1000
0100
0100
,  // measure 43
1000
0010
1000
0001
,  // measure 44
0100
0010
0000
1000
0000
0001
0000
1000
,  // measure 45
0000
0100
0000
0010
0000
0100
0000
1000
,  // measure 46
0000
0001
0000
0100
0000
0010
0000
1000
,  // measure 47
0000
0001
0000
0010
0000
0100
0000
1000
,  // measure 48
0100
0000
0000
0100
0000
0000
0100
0000
0000
1000
0000
0000
0001
0000
1000
0000
,  // measure 49
0100
0000
0000
0100
0000
0000
0010
0000
0000
0001
0000
0000
2000
0000
0000
0000
,  // measure 50
3001
0000
0000
0100
0000
0000
0010
0000
0000
0001
0000
0000
0010
0000
0100
0000
,  // measure 51
0010
0000
0000
1000
0000
0000
0100
0000
0000
0010
0000
0000
1000
0000
0010
0000
,  // measure 52
0100
0000
0000
0010
0000
0000
0001
0000
0000
1000
0000
0000
0100
0000
0010
0000
,  // measure 53
0100
0000
0000
1000
0000
0000
0001
0000
0000
0100
0000
0000
0010
0000
0100
0000
,  // measure 54
0001
0000
0000
1000
0000
0000
0010
0000
0000
0100
0000
0000
0010
0000
1000
0000
,  // measure 55
0100
0000
0000
0010
0000
0000
0100
0000
0000
1000
0000
0000
0001
0000
0100
0000
,  // measure 56
0010
0000
0000
1000
0000
0000
0001
0000
0000
0100
0000
0000
0001
0000
1000
0000
,  // measure 57
0001
0000
0000
0010
0000
0000
0100
0000
0000
1000
0000
0000
0001
0000
0000
0000
;

//---------------dance-single - ----------------
#NOTEDATA:;
#CHARTNAME:;
#STEPSTYPE:dance-single;
#DESCRIPTION:;
#CHARTSTYLE:;
#DIFFICULTY:Medium;
#METER:6;
#RADARVALUES:0.336530,0.334953,0.089232,0.017846,0.071385,264.000000,254.000000,10.000000,2.000000,0.000000,0.000000,0.000000,0.000000,0.000000,0.336530,0.334953,0.089232,0.017846,0.071385,264.000000,254.000000,10.000000,2.000000,0.000000,0.000000,0.000000,0.000000,0.000000;
#CREDIT:;
#NOTES:
// measure 0
0000
0000
0000
0000
,  // measure 1
0000
0000
0000
0000
,  // measure 2
0000
0000
0000
0000
,  // measure 3
0000
0000
0000
0000
,  // measure 4
0000
0000
0001
1000
0001
0000
0100
0000
,  // measure 5
0010
0100
0001
0000
,  // measure 6
0000
0000
1000
0001
1000
0000
0100
0000
,  // measure 7
0010
0000
0000
0001
0000
0000
0100
0000
,  // measure 8
0000
0000
0001
1000
0001
0000
1000
0000
,  // measure 9
0010
1000
0100
0000
,  // measure 10
0000
0000
1000
0001
1000
0000
0001
0000
,  // measure 11
0100
0000
0000
0010
0000
0000
1000
0000
,  // measure 12
0001
0100
0001
1000
,  // measure 13
0001
0100
0001
1000
,  // measure 14
0010
1000
0001
1000
,  // measure 15
0010
1000
0100
0010
,  // measure 16
0001
1000
0001
0100
,  // measure 17
0001
1000
0001
0100
,  // measure 18
0010
1000
0100
0010
,  // measure 19
0100
1000
0001
1000
,  // measure 20
0100
1000
0100
1000
0001
0000
0100
0000
,  // measure 21
0010
0100
0001
0101
,  // measure 22
0001
1000
0001
1000
0100
0000
0010
0000
,  // measure 23
0001
0000
1000
0001
0100
0000
0010
0000
,  // measure 24
1000
0000
0000
0001
0000
0000
1000
0000
0001
0000
0000
1000
0000
0000
0001
0000
,  // measure 25
1000
0000
0000
0001
0000
0000
1000
0000
0001
0000
0000
1000
0000
0000
0001
0000
,  // measure 26
0100
0000
0000
0001
0000
0000
1000
0000
0001
0000
0000
1000
0000
0000
0100
0000
,  // measure 27
1000
0000
0000
0001
0000
0000
1000
0000
0100
0000
0000
1000
0000
0000
0001
0000
,  // measure 28
0100
0000
0000
0001
0000
0000
1000
0000
0010
0000
0000
1000
0000
0000
0001
0000
,  // measure 29
1000
0000
0000
0100
0000
0000
1000
0000
0001
0000
0000
1000
0000
0000
0001
0000
,  // measure 30
0010
0000
0000
0001
0000
0000
1000
0000
0100
0000
0000
0010
0000
0000
0001
0000
,  // measure 31
0100
0000
0000
0010
0000
0000
1000
0000
0000
0001
0000
0000
1000
0000
0000
0000
,  // measure 32
0001
0000
0001
0000
0001
0100
0010
0000
,  // measure 33
1000
0000
0001
0000
1000
0100
0010
0000
,  // measure 34
0001
0000
1000
0000
0010
1000
0001
0000
,  // measure 35
0100
0000
0010
0000
1000
0100
0001
0000
,  // measure 36
0100
0000
0100
0000
1000
0001
0100
0000
,  // measure 37
0010
0000
0010
0000
0001
0010
1000
0000
,  // measure 38
0001
0000
0001
0000
1000
0010
0100
0000
,  // measure 39
0001
0000
1000
0000
0001
0100
0001
0000
,  // measure 40
1000
1000
1000
0110
,  // measure 41
0100
0110
0010
0110
,  // measure 42
1000
0001
1000
1001
,  // measure 43
0100
0010
0100
1001
,  // measure 44
0001
0100
0001
0000
1000
0100
1000
0000
,  // measure 45
0001
1000
0010
0100
,  // measure 46
0001
1000
0001
0000
1000
0010
1000
0000
,  // measure 47
0001
1000
0100
0010
,  // measure 48
0001
0000
0001
0000
0001
0000
1000
0001
,  // measure 49
0100
0010
0100
1001
,  // measure 50
0010
1000
0010
1000
0001
0000
1000
0000
,  // measure 51
0100
0000
0010
0100
1000
0000
0001
0000
,  // measure 52
0100
0001
0100
0001
1000
0000
0010
0000
,  // measure 53
0200
0010
0310
1001
,  // measure 54
0001
1000
0001
1000
0010
0000
0100
0000
,  // measure 55
0001
1000
0010
0110
,  // measure 56
1000
0001
1000
0001
0100
0000
0001
0000
,  // measure 57
0020
0100
0130
1001
;

//---------------dance-single - ----------------
#NOTEDATA:;
#CHARTNAME:;
#STEPSTYPE:dance-single;
#DESCRIPTION:;
#CHARTSTYLE:;
#DIFFICULTY:Easy;
#METER:3;
#RADARVALUES:0.178463,0.257656,0.008923,0.000000,0.000000,140.000000,139.000000,1.000000,0.000000,0.000000,0.000000,0.000000,0.000000,0.000000,0.178463,0.257656,0.008923,0.000000,0.000000,140.000000,139.000000,1.000000,0.000000,0.000000,0.000000,0.000000,0.000000,0.000000;
#CREDIT:;
#NOTES:
// measure 0
0000
0000
0000
0000
,  // measure 1
0000
0000
0000
0000
,  // measure 2
0000
0000
0000
0000
,  // measure 3
0000
0000
0000
0000
,  // measure 4
1000
0000
0000
0000
,  // measure 5
0001
0000
0000
0000
,  // measure 6
0100
0000
0000
0000
,  // measure 7
0010
0000
0000
0000
,  // measure 8
1000
0000
0000
0000
,  // measure 9
0100
0000
0000
0000
,  // measure 10
0010
0000
0000
0000
,  // measure 11
0001
0000
0000
0000
,  // measure 12
0100
0000
0010
0000
,  // measure 13
1000
0000
0001
0000
,  // measure 14
0010
0000
0100
0000
,  // measure 15
1000
0000
0010
0000
,  // measure 16
1000
0000
0100
0000
,  // measure 17
0010
0000
0001
0000
,  // measure 18
1000
0000
0001
0000
,  // measure 19
0100
0000
0010
0000
,  // measure 20
1000
0100
0010
0000
,  // measure 21
0001
1000
0001
0000
,  // measure 22
0100
0001
1000
0000
,  // measure 23
0010
1000
0100
0000
,  // measure 24
1000
0000
0001
0000
,  // measure 25
0100
0000
0010
0000
,  // measure 26
1000
0000
0001
0000
,  // measure 27
0010
0000
0100
0000
,  // measure 28
1000
0000
0010
0000
,  // measure 29
0100
0000
0001
0000
,  // measure 30
0010
0000
0100
0000
,  // measure 31
1000
0000
0001
1001
,  // measure 32
1000
0100
1000
0001
,  // measure 33
1000
0100
1000
0001
,  // measure 34
0100
0001
1000
0001
,  // measure 35
0100
0001
1000
0001
,  // measure 36
0010
0001
1000
0001
,  // measure 37
0010
0001
1000
0010
,  // measure 38
1000
0001
1000
0010
,  // measure 39
1000
0001
1000
0010
,  // measure 40
0100
0000
0100
0000
,  // measure 41
0001
0000
1000
0000
,  // measure 42
0001
0000
0001
0000
,  // measure 43
1000
0000
0010
0000
,  // measure 44
0100
0010
0000
0010
,  // measure 45
1000
0001
0000
0001
,  // measure 46
1000
0100
0000
0100
,  // measure 47
0010
0001
0000
1000
,  // measure 48
0010
0000
0000
0000
,  // measure 49
0100
0000
0000
0000
,  // measure 50
0001
1000
0001
0100
,  // measure 51
0001
1000
0001
0100
,  // measure 52
0001
1000
0001
1000
,  // measure 53
0100
1000
0001
1000
,  // measure 54
0100
1000
0001
0010
,  // measure 55
0001
1000
0001
0010
,  // measure 56
0001
1000
0010
1000
,  // measure 57
0001
1000
0010
1000
;

//---------------dance-single - ----------------
#NOTEDATA:;
#CHARTNAME:;
#STEPSTYPE:dance-single;
#DESCRIPTION:;
#CHARTSTYLE:;
#DIFFICULTY:Beginner;
#METER:1;
#RADARVALUES:0.128748,0.155263,0.017846,0.000000,0.000000,101.000000,99.000000,2.000000,0.000000,0.000000,0.000000,0.000000,0.000000,0.000000,0.128748,0.155263,0.017846,0.000000,0.000000,101.000000,99.000000,2.000000,0.000000,0.000000,0.000000,0.000000,0.000000,0.000000;
#CREDIT:;
#NOTES:
// measure 0
0000
0000
0000
0000
,  // measure 1
0000
0000
0000
0000
,  // measure 2
0000
0000
0000
0000
,  // measure 3
0000
0000
0000
0000
,  // measure 4
0010
0000
0000
0000
,  // measure 5
0100
0000
0000
0000
,  // measure 6
0001
0000
0000
0000
,  // measure 7
1000
0000
0000
0000
,  // measure 8
0100
0000
0000
0000
,  // measure 9
0010
0000
0000
0000
,  // measure 10
0001
0000
0000
0000
,  // measure 11
1000
0000
0000
0000
,  // measure 12
0010
0000
0010
0000
,  // measure 13
0100
0000
0100
0000
,  // measure 14
0001
0000
0001
0000
,  // measure 15
1000
0000
1000
0000
,  // measure 16
0100
0000
0100
0000
,  // measure 17
0010
0000
0010
0000
,  // measure 18
0001
0000
0001
0000
,  // measure 19
1000
0000
1000
0000
,  // measure 20
0010
0000
1000
0000
,  // measure 21
0100
0000
0010
0000
,  // measure 22
0001
0000
1000
0000
,  // measure 23
0100
0000
0010
0000
,  // measure 24
0100
0000
0100
0000
,  // measure 25
1000
0000
1000
0000
,  // measure 26
0001
0000
0001
0000
,  // measure 27
0100
0000
0100
0000
,  // measure 28
0010
0000
1000
0000
,  // measure 29
0010
0000
1000
0000
,  // measure 30
0001
0000
0100
0000
,  // measure 31
0001
0000
1000
0000
,  // measure 32
1001
0000
0010
0000
,  // measure 33
1000
0000
0010
0000
,  // measure 34
0001
0000
0010
0000
,  // measure 35
1000
0000
0010
0000
,  // measure 36
0001
0000
0100
0000
,  // measure 37
1000
0000
0100
0000
,  // measure 38
0001
0000
0100
0000
,  // measure 39
1000
0000
0100
0000
,  // measure 40
0001
0000
0001
0000
,  // measure 41
1000
0000
1000
0000
,  // measure 42
0010
0000
0010
0000
,  // measure 43
0100
0000
0100
0000
,  // measure 44
0001
0000
1000
0000
,  // measure 45
0100
0000
1000
0000
,  // measure 46
0001
0000
0100
0000
,  // measure 47
0001
0000
1000
0000
,  // measure 48
0001
0000
0000
0000
,  // measure 49
1000
0000
0000
0000
,  // measure 50
1001
0000
0010
0000
,  // measure 51
1000
0000
0100
0000
,  // measure 52
1000
0000
0010
0000
,  // measure 53
0100
0000
0001
0000
,  // measure 54
0010
0000
0001
0000
,  // measure 55
0100
0000
0001
0000
,  // measure 56
1000
0000
0010
0000
,  // measure 57
0100
0000
0001
0000
,  // measure 58
1000
0000
0000
0000
;
