#TITLE:We Don't Talk About Bruno;
#SUBTITLE:;
#ARTIST:Carolina Gaitan, Mauro Castillo, Adassa, Rhenzy Feliz, Diane Guerrero, Stephanie Beatriz;
#TITLETRANSLIT:;
#SUBTITLETRANSLIT:;
#ARTISTTRANSLIT:;
#GENRE:Encanto;
#CREDIT:;
#BANNER:We Don't Talk About Bruno-bn.png;
#BACKGROUND:Black.png;
#LYRICSPATH:;
#CDTITLE:;
#MUSIC:We Don't Talk About Bruno.mp3;
#OFFSET:1.137994;
#SAMPLESTART:0.561517;
#SAMPLELENGTH:28.543688;
#LASTBEATHINT:358.000000;
#SELECTABLE:YES;
#BPMS:0.000000=103.000000
;
#STOPS:
;
#BGCHANGES:1.250=We Don't Talk About Bruno.avi=1.000=0=0=0=StretchNoLoop====,
99999=-nosongbg-=1.000=0=0=0 // don't automatically add -songbackground-
;
#KEYSOUNDS:;
#ATTACKS:;

//---------------dance-single - ----------------
#NOTES:
     dance-single:
     :
     Challenge:
     9:
     0.466557,0.653891,0.208562,0.322324,0.208562,689.000000,645.000000,44.000000,68.000000,13.000000,2.000000,0.466557,0.653891,0.208562,0.322324,0.208562,689.000000,645.000000,44.000000,68.000000,13.000000,2.000000:
// measure 0
0000
0000
0000
0000
,  // measure 1
0000
0000
0010
0100
0001
0100
0010
0200
,  // measure 2
0000
1000
0000
0010
0000
0001
0000
0310
,  // measure 3
0000
0000
1000
0100
0010
0100
0001
0200
,  // measure 4
0000
0010
0010
0010
0010
0010
0010
0310
,  // measure 5
0001
0000
0000
0000
1000
0001
0100
0000
0010
0000
0010
0000
0100
0001
1000
0000
,  // measure 6
0001
0000
0001
0000
1000
0100
0010
0001
0100
0000
0010
0000
1000
0000
0010
0000
,  // measure 7
0100
0001
1000
0200
0000
0310
1000
0010
,  // measure 8
0001
1000
0100
0020
0000
0031
0010
1000
,  // measure 9
0001
0100
1000
0200
0000
1300
0001
0200
,  // measure 10
0000
0310
0001
0010
0000
0110
0000
1001
,  // measure 11
0000
0000
0010
0000
0100
0001
1000
0000
0010
0000
0100
0001
0000
1000
0200
0000
,  // measure 12
0000
0000
0310
0000
0001
1000
0100
1000
0001
0100
0002
0000
0000
0000
0003
0000
,  // measure 13
1001
0000
1000
0000
0010
0000
0001
0000
0010
0000
0010
0100
0000
0100
0001
0000
,  // measure 14
0000
0000
0000
0000
1000
0010
1000
0000
0010
0000
0200
0000
0000
0000
0310
0000
,  // measure 15
1000
0000
0100
0000
0010
0000
0001
0000
1000
0000
1000
0001
0000
0001
0100
0000
,  // measure 16
0000
0001
1000
0100
1000
0001
1000
0000
0100
0000
0010
0000
0001
0000
1000
0000
,  // measure 17
0010
0000
0100
0000
1000
0000
0100
0000
0010
0000
0010
1000
0000
1000
0002
0000
,  // measure 18
0000
0000
0013
0100
0010
0000
0001
0000
1000
0000
0001
0000
0100
0000
0010
0000
,  // measure 19
1000
0000
0101
1000
0001
1000
0001
2100
,  // measure 20
0100
3002
0100
2003
0100
3002
0100
2003
,  // measure 21
0000
3000
0010
1000
0001
1000
0001
1010
,  // measure 22
0000
0021
0200
0000
0330
0000
1001
0000
,  // measure 23
0001
0100
0010
1000
0100
0000
1000
0001
0100
0010
1000
0001
0010
0100
0010
0000
,  // measure 24
0001
1000
0010
1000
0001
0100
0010
0100
0001
0010
0100
1000
1000
0001
0100
0000
,  // measure 25
0001
1000
0010
0100
0001
1000
0100
0010
0100
0000
0001
0000
1000
0000
0010
0000
,  // measure 26
0002
0000
0100
0L00
0100
0L00
0100
0L03
,  // measure 27
0100
0010
1000
0100
1000
0000
0001
0010
0100
0000
1000
0000
1100
0000
1100
0000
,  // measure 28
1000
0010
0100
0001
0010
0100
0010
0001
1000
0100
1000
0000
0001
0000
0101
0000
,  // measure 29
0001
0010
0100
1000
0010
1000
0001
1000
0010
0000
0100
0000
0001
0000
1000
0000
,  // measure 30
0100
0000
0000
0000
0010
0000
0001
1000
0001
0000
0100
0000
0110
0000
0000
0000
,  // measure 31
1002
0000
0100
0000
2003
0000
0000
0000
3001
0000
0000
M00M
0100
0000
2002
0000
,  // measure 32
0000
3003
0100
0000
0010
0000
1000
0000
0001
0000
0000
0000
1000
0000
0010
0000
,  // measure 33
2000
0000
0000
0000
0100
0000
0000
0000
3001
0000
0000
0MMM
1000
0000
0200
0000
,  // measure 34
0000
0020
0300
0001
0130
0000
1000
0001
,  // measure 35
0200
0000
1000
0000
0010
0000
0301
0102
,  // measure 36
0000
0010
0000
1000
0203
0000
0320
0000
,  // measure 37
1030
0000
1100
0001
1000
0001
1000
0102
,  // measure 38
0100
2003
0100
3002
0100
2003
0100
3002
,  // measure 39
0000
0013
0100
1000
0001
1000
0001
1000
,  // measure 40
0010
0001
0010
2000
0000
0001
3100
0000
,  // measure 41
1100
0000
1100
0000
0000
MMMM
0000
0000
0011
0000
0011
0000
0000
MMMM
0000
0000
,  // measure 42
0000
0000
0000
2001
0000
3100
0010
0002
,  // measure 43
0000
0000
1003
0000
0010
0000
0100
0001
0100
0000
0001
1000
0000
0000
0001
0000
,  // measure 44
0010
0100
1000
0020
0000
1030
0100
0001
,  // measure 45
0100
0010
0001
0010
1000
0010
0001
0010
,  // measure 46
0100
1000
0001
0200
0000
0310
0000
0110
,  // measure 47
0000
1000
0010
0001
1000
0100
0001
2000
,  // measure 48
0000
3001
0010
1000
0001
0100
1000
0100
,  // measure 49
1000
0000
0000
0000
,  // measure 50
0000
0000
0000
0000
,  // measure 51
0000
0000
0000
0000
,  // measure 52
0000
0000
0000
0000
,  // measure 53
1000
0000
0001
0000
0100
0010
1000
0002
,  // measure 54
0000
0013
0100
0020
0000
0130
1000
0200
,  // measure 55
0000
2300
0000
3020
0000
1030
0001
2000
,  // measure 56
0000
0000
0010
0000
3010
0000
0100
0010
0100
0000
0001
0000
1000
0000
0001
0000
,  // measure 57
0201
0000
1300
0000
0110
0010
1000
0001
,  // measure 58
0010
0100
0010
0001
0010
0100
0010
0001
,  // measure 59
1000
0100
0010
0100
1000
0100
0010
0100
,  // measure 60
1000
0000
0000
0001
1000
0000
0001
0000
0100
0000
0001
0000
1000
0000
0001
0000
,  // measure 61
0100
0010
1000
0010
0100
0001
0100
0010
,  // measure 62
1000
0001
1000
0001
1000
0100
0010
0002
,  // measure 63
0000
0013
0100
2000
0000
3100
0010
0002
,  // measure 64
0000
0000
1003
0000
0100
0000
0010
0100
0010
0000
0001
0000
1000
0000
0001
0000
,  // measure 65
1002
0100
0103
0002
0103
0000
0101
0000
,  // measure 66
0000
0000
2001
0000
0100
0000
3100
0000
2000
0000
3100
0000
1100
0000
0000
1000
,  // measure 67
0001
0100
0001
1000
0001
1000
0020
0000
0100
0000
0130
0000
0000
0001
1000
0001
,  // measure 68
0010
0000
0100
1000
0001
0000
0010
0000
0200
0000
0010
0000
0310
0000
0001
0000
,  // measure 69
1000
0000
0000
0010
0000
0000
0100
0000
0001
0000
0000
0010
0000
0000
0100
0000
,  // measure 70
1000
2000
0000
3001
0100
0200
0000
0300
,  // measure 71
1001
0000
0010
0000
0100
0001
1000
0000
0010
0000
1000
0000
0100
0010
0001
0000
,  // measure 72
1000
0000
0001
0000
0100
0001
1000
0001
0100
0000
0010
0000
0100
0000
0001
0000
,  // measure 73
1000
0100
0010
0001
0100
0001
0010
0100
,  // measure 74
1000
0010
0100
0010
0001
0010
0100
0010
,  // measure 75
1000
0001
0100
0010
1000
0100
0010
0001
,  // measure 76
0000
1000
0100
0010
0001
1010
0001
1001
,  // measure 77
0000
0000
0010
0000
0100
0001
1000
0000
0010
0000
0100
0001
0000
0010
0002
0000
,  // measure 78
0000
0000
1003
0000
0010
0000
0100
0001
1000
0000
0010
0000
0100
0000
0001
0000
,  // measure 79
1001
0000
0001
0000
0010
0000
0100
0000
1000
0000
0010
0100
0001
0000
2000
0000
,  // measure 80
0000
0000
3001
0000
0100
0010
0100
0000
0001
0000
0010
0000
0001
0000
1000
0000
,  // measure 81
0010
0000
0100
0000
0001
0000
1000
0000
0100
0000
0010
0001
1000
0000
0100
1000
,  // measure 82
0001
0100
0001
1000
0001
0100
0001
0000
1000
0000
0010
0000
0001
0000
0010
0000
,  // measure 83
1000
0000
0001
0000
0100
0000
0001
0000
1000
0000
0010
1000
0001
0000
0200
0000
,  // measure 84
0000
0000
0301
0010
0100
0000
1000
0000
0010
0000
0200
0000
0000
0000
0302
0000
,  // measure 85
2000
3003
1001
0000
0110
1001
0110
1001
,  // measure 86
0000
1000
0010
0001
0010
1000
0010
0200
,  // measure 87
0000
0301
1001
0101
1001
1100
1001
0110
,  // measure 88
0001
0100
0010
1000
0100
0000
0010
0000
0001
0000
2000
0000
0200
0000
0020
0000
,  // measure 89
3331
0000
0000
0000
;

//---------------dance-single - ----------------
#NOTES:
     dance-single:
     :
     Hard:
     7:
     0.343315,0.358585,0.127981,0.218043,0.109021,507.000000,480.000000,27.000000,46.000000,99.000000,0.000000,0.343315,0.358585,0.127981,0.218043,0.109021,507.000000,480.000000,27.000000,46.000000,99.000000,0.000000:
// measure 0
0000
0000
0000
0000
,  // measure 1
0000
0000
1000
0001
1000
0100
2000
0001
,  // measure 2
0000
0010
0000
0001
0000
0100
0000
3001
,  // measure 3
0000
0000
0010
0001
0100
0001
0010
0002
,  // measure 4
0000
1000
1000
1000
1000
1000
1003
0000
,  // measure 5
0010
0000
1000
0001
0100
0000
0001
0010
,  // measure 6
1000
0000
0010
0100
1000
0100
0010
0000
,  // measure 7
0001
0000
1000
0100
0001
0000
0001
0100
,  // measure 8
1000
0000
0001
0010
0100
1000
0010
0000
,  // measure 9
1000
0100
1000
0001
1000
0010
0100
0001
,  // measure 10
0000
0010
0100
0010
0000
1001
0000
1001
,  // measure 11
0000
0010
0100
1000
0010
1000
0100
0010
,  // measure 12
0000
0001
1000
0001
0100
0002
0000
0000
,  // measure 13
1003
0000
0010
0000
1000
0000
0010
0000
0100
0000
0000
0010
0000
0000
1000
0000
,  // measure 14
0000
0000
0000
0000
0100
0010
0100
0000
,  // measure 15
1000
0000
0001
0000
0100
0000
0001
0000
1000
0000
0000
0001
0000
0000
0010
0000
,  // measure 16
0000
0100
0010
0100
0010
0001
1000
0000
,  // measure 17
0001
0000
0100
0000
0010
0000
1000
0000
0100
0000
0000
0010
0000
0000
0001
0000
,  // measure 18
0000
1000
0010
1000
0001
0010
0100
1000
,  // measure 19
0100
0000
1100
1000
0100
1000
0200
0001
,  // measure 20
0000
1000
0000
0001
0000
1000
0000
0310
,  // measure 21
0000
0000
0001
1000
0001
1000
0001
0200
,  // measure 22
0000
0020
0000
0000
0030
0000
0301
0000
,  // measure 23
1000
1000
0001
0001
1000
0010
0100
0010
,  // measure 24
1000
1000
0001
0001
1000
0100
0010
0100
,  // measure 25
1000
0001
0100
0001
1000
0010
0100
0001
,  // measure 26
0020
0100
0100
0130
,  // measure 27
1000
0001
0100
0010
0100
0100
0010
0010
,  // measure 28
1000
0100
0010
0001
0100
0100
0010
0010
,  // measure 29
0100
0001
1000
0001
0010
0010
0100
1000
,  // measure 30
0020
0000
0030
1000
0001
0000
1001
0000
,  // measure 31
M010
0000
000M
0100
M000
0000
001M
0000
M000
0000
000M
0000
M110
0000
000M
0000
M000
0000
010M
0000
M000
0010
000M
0000
,  // measure 32
M000
0000
000M
0100
M000
0000
001M
0000
M000
0100
000M
0000
M010
0000
000M
0000
0000
0000
1M00
0000
00M0
0001
0M00
0000
,  // measure 33
10M0
0000
0M00
0000
00M0
0000
0M01
0000
00M0
0000
0M00
0000
10M1
0000
0M00
0000
00M0
0000
0M01
0000
00M0
1000
0M00
0000
,  // measure 34
00M0
0000
0M00
1001
00M0
0000
0M00
0000
00M0
1000
0M00
0000
00M1
0000
0000
0000
0000
0000
10M0
0000
000M
0100
00M0
0000
,  // measure 35
100M
0000
00M0
0000
000M
0000
11M0
0000
000M
0000
00M0
0000
110M
0000
00M0
0000
0000
0000
1000
0000
0000
0001
0000
0000
,  // measure 36
0M00
0000
M000
0010
0M00
0000
M000
0000
0M00
0001
M000
0000
0M10
0000
M000
0000
0M00
0000
0011
0000
0000
0000
0000
0000
,  // measure 37
1001
0000
00M1
01M0
10M0
01M0
00M1
02M0
,  // measure 38
0000
1000
0000
0010
0000
0001
0000
0310
,  // measure 39
0000
0000
1M00
0M10
0M01
0M10
1M0M
0M2M
,  // measure 40
000M
M20M
M00M
M00M
0000
M00M
0330
0000
,  // measure 41
0002
1000
0003
0000
2000
0001
3000
0000
,  // measure 42
MMMM
0000
0000
1001
0000
M01M
M00M
M10M
,  // measure 43
0120
0100
0030
0000
2001
0001
3000
0000
,  // measure 44
MMMM
0000
0000
0011
0000
1000
0010
1000
,  // measure 45
0100
0100
0010
0000
0001
0001
1000
0000
,  // measure 46
0001
0100
0010
2000
0000
0001
0000
3001
,  // measure 47
0000
0100
0010
0100
0010
0100
0010
2000
,  // measure 48
0000
0001
0001
0001
0001
0001
0001
3001
,  // measure 49
0000
0000
0000
0000
,  // measure 50
0000
0000
0000
0000
,  // measure 51
0000
0000
0000
0000
,  // measure 52
0000
0000
0000
0000
,  // measure 53
0001
0000
0010
0000
0001
0000
0000
1000
,  // measure 54
0000
0100
0000
0010
0000
0100
1000
0001
,  // measure 55
0100
0000
0010
0000
1000
0000
0000
0001
,  // measure 56
0000
0010
0100
1000
0001
0100
0010
0100
,  // measure 57
0002
0000
2003
0000
3010
1000
0001
0200
,  // measure 58
0000
0310
0100
0002
0000
0013
0100
0020
,  // measure 59
0000
0130
1000
0020
0000
1030
0000
0001
,  // measure 60
0010
0000
0000
0100
1000
0000
0001
0000
0200
0000
0000
0000
0310
0000
0000
0000
,  // measure 61
1000
0001
0010
0100
0010
0001
0100
0020
,  // measure 62
0000
0000
0000
0000
0000
0000
1030
0001
,  // measure 63
0000
0010
0100
0020
0000
0130
1000
0200
,  // measure 64
0000
0000
0000
1300
0001
1000
0000
0010
,  // measure 65
0220
0000
0330
2002
0000
3003
0010
0000
,  // measure 66
1000
0001
1000
0002
0000
0000
0013
0000
,  // measure 67
0220
0000
0330
2002
0000
3003
0001
0000
,  // measure 68
1000
0100
1000
0200
0000
0000
0310
0001
,  // measure 69
0100
0000
0001
0000
1000
0010
0000
0110
,  // measure 70
0000
1000
0100
0010
0001
1000
0100
0010
,  // measure 71
0002
0000
0013
0010
0100
1000
0010
0200
,  // measure 72
0000
1000
0010
1000
0310
0000
0100
0001
,  // measure 73
2000
0000
3010
0000
0100
0001
0010
0200
,  // measure 74
0000
1000
0010
1000
0000
0010
0010
0310
,  // measure 75
0100
1000
0100
0020
0000
0001
0100
0001
,  // measure 76
0000
0100
0100
0130
0000
0110
0000
1001
,  // measure 77
0000
0000
1000
0000
0100
0000
0010
0000
0001
0000
0000
1000
0000
0000
0020
0000
,  // measure 78
0000
0100
0000
1000
0000
0130
0001
0000
,  // measure 79
1001
0000
0010
0001
1000
0010
0100
0010
,  // measure 80
0000
0010
1000
0010
0000
0010
0001
0010
,  // measure 81
0000
0100
1000
0100
0000
0100
0001
0010
,  // measure 82
0100
0010
0001
1000
0010
0000
1010
0000
,  // measure 83
0100
0010
0100
0001
0010
0000
0100
0000
,  // measure 84
1000
0001
0100
0010
0100
0010
1000
0002
,  // measure 85
2000
3003
1001
0000
0110
0010
0100
0020
,  // measure 86
0000
0100
0100
0100
0100
0100
0100
0130
,  // measure 87
0000
0000
1001
0100
0010
0100
0010
1000
,  // measure 88
0001
1000
0001
0000
1000
0000
0001
0000
0010
0000
0100
0000
1000
0000
0001
0000
,  // measure 89
0100
0000
0000
0000
;

//---------------dance-single - ----------------
#NOTES:
     dance-single:
     :
     Medium:
     6:
     0.266120,0.316399,0.080581,0.265443,0.000000,393.000000,376.000000,17.000000,56.000000,0.000000,0.000000,0.266120,0.316399,0.080581,0.265443,0.000000,393.000000,376.000000,17.000000,56.000000,0.000000,0.000000:
// measure 0
0000
0000
0000
0000
0000
0000
1000
0001
,  // measure 1
0100
0000
0002
0000
0000
0000
1003
0100
,  // measure 2
0000
0010
0000
0200
0000
0000
0310
0001
,  // measure 3
0100
0000
0020
0000
0000
1030
0000
0100
,  // measure 4
0000
1000
0001
1000
0001
1000
0001
1000
,  // measure 5
0001
0000
0010
0100
0000
0010
0000
0100
,  // measure 6
0000
1000
0000
0100
0000
1000
0000
0001
,  // measure 7
1000
0000
0001
0100
0000
0001
0000
1000
,  // measure 8
0000
0001
0000
0100
0000
0001
0000
1000
,  // measure 9
0100
0000
0010
0100
0000
0010
0000
0001
,  // measure 10
0000
1000
0000
0001
0000
0010
0000
0100
,  // measure 11
1000
0000
0000
0100
0000
1000
0000
0001
,  // measure 12
0000
0000
0000
0000
,  // measure 13
0100
0000
0010
2000
0000
0001
0000
0010
,  // measure 14
0000
0001
0000
0100
0000
3010
0000
1000
,  // measure 15
0100
0000
0010
0002
0000
1000
0000
0010
,  // measure 16
0000
1000
0000
0100
0000
1003
0000
0010
,  // measure 17
0100
0000
0020
0100
0000
0001
0000
0100
,  // measure 18
0000
1000
0000
0100
0000
0031
0000
0010
,  // measure 19
0100
0000
0010
0100
0010
0100
0010
0100
,  // measure 20
0000
0010
0000
0100
0000
0010
0000
0100
,  // measure 21
0000
0000
1000
0001
1000
0001
1000
0002
,  // measure 22
0000
2000
0000
0000
3003
0000
1001
0000
,  // measure 23
2000
0000
3002
0000
1003
0100
1000
0000
,  // measure 24
0002
0000
2003
0000
3001
0100
0001
0000
,  // measure 25
1000
0001
1000
0001
0100
0000
0010
0000
,  // measure 26
0200
0010
0010
0310
,  // measure 27
1000
0010
1000
0000
0100
0010
0100
0000
,  // measure 28
0010
0001
0100
0001
0010
0000
0100
0000
,  // measure 29
0010
0001
1000
0000
0010
0100
0002
0000
,  // measure 30
1003
0000
0000
0100
0010
0000
0100
0000
,  // measure 31
0010
0010
0010
0000
1001
0000
0000
0100
,  // measure 32
0000
0001
0001
0001
0001
0000
1000
1000
,  // measure 33
1000
0000
0100
0000
1000
0000
0010
0010
,  // measure 34
0000
0010
0000
0010
0100
0000
0100
0100
,  // measure 35
0100
0000
0001
0000
0010
0000
0100
0010
,  // measure 36
0000
0100
0000
0100
0200
0000
0000
0000
,  // measure 37
0300
0000
1000
1000
1000
1000
1000
1000
,  // measure 38
0000
0001
0000
1000
0000
0001
0000
2000
,  // measure 39
0000
0000
3001
0001
0001
0001
0001
0001
,  // measure 40
0000
0020
0000
0000
0000
0000
0030
0000
,  // measure 41
0100
0200
0000
0300
0010
0020
0000
0030
,  // measure 42
0000
0000
0000
2002
0000
0000
3003
0000
,  // measure 43
0001
0002
0000
0003
1000
2000
0000
3000
,  // measure 44
0000
0000
0000
2002
0000
0000
3003
0000
,  // measure 45
0100
0200
0000
0300
0010
0020
0000
0030
,  // measure 46
0000
0000
0000
2002
0000
0000
3003
0000
,  // measure 47
0100
0000
0001
0000
0010
0000
0100
1000
,  // measure 48
0000
0001
1000
0001
1000
0001
1000
0001
,  // measure 49
0000
0000
0000
0000
,  // measure 50
0000
0000
0000
0000
,  // measure 51
0000
0000
0000
0000
,  // measure 52
0000
0000
0000
0000
,  // measure 53
2000
0000
0000
3000
,  // measure 54
0002
0000
0000
0003
,  // measure 55
0200
0000
0000
0300
,  // measure 56
0020
0000
0100
0000
0100
0100
0130
0000
,  // measure 57
0002
0000
2003
0000
3100
0000
2000
0010
,  // measure 58
0000
0001
0000
0010
0000
3001
0000
1000
,  // measure 59
0000
0001
0000
1000
0000
0001
0000
1000
,  // measure 60
0100
0000
1000
0100
0020
0000
0030
0000
,  // measure 61
0100
0010
0100
0000
1000
0000
0010
0020
,  // measure 62
0000
0000
0030
0000
0000
0000
0100
0100
,  // measure 63
0000
0001
0001
0001
0000
1000
1000
1000
,  // measure 64
0000
0000
0100
0100
,  // measure 65
0220
0000
0330
0220
0000
0330
0000
0000
,  // measure 66
1000
0000
0001
0000
0100
0010
0100
0000
,  // measure 67
2002
0000
3003
2002
0000
3003
0000
0000
,  // measure 68
0010
0000
0100
0000
0010
0010
0010
0000
,  // measure 69
1000
0000
0100
0000
0001
0010
0000
0100
,  // measure 70
0000
0010
0100
0010
0100
0010
0100
0010
,  // measure 71
0100
0000
1000
0000
0001
0100
1000
0100
,  // measure 72
0000
0010
0100
0010
0000
1000
0000
0001
,  // measure 73
0010
0000
0100
0000
1000
0001
2000
0001
,  // measure 74
0000
0010
0000
0001
0000
3100
0000
0010
,  // measure 75
0100
0000
0001
0000
1000
0100
1000
0100
,  // measure 76
0000
0010
0000
0100
0000
0110
0000
0110
,  // measure 77
0000
1000
1000
0001
0001
0000
0010
0000
,  // measure 78
0100
0010
0100
0000
0110
0000
1001
0000
,  // measure 79
0001
1000
0002
0000
0010
0000
0013
0000
,  // measure 80
0100
1000
0100
0000
0010
0010
0010
0000
,  // measure 81
0100
1000
0001
0000
1000
0010
1000
0000
,  // measure 82
0020
0000
0130
0010
2000
0000
3001
1001
,  // measure 83
0000
0010
0000
2001
0000
3010
0000
1002
,  // measure 84
0000
0103
0000
0001
0100
1000
0100
0002
,  // measure 85
2000
3003
1001
0000
1000
0001
1000
0002
,  // measure 86
0000
2000
0000
0000
0000
0000
0000
0000
,  // measure 87
3003
0000
1000
0001
1000
0001
1000
0001
,  // measure 88
0100
0010
0100
0010
0100
0010
0100
0010
,  // measure 89
0100
0000
0000
0000
;

//---------------dance-single - ----------------
#NOTES:
     dance-single:
     :
     Easy:
     4:
     0.174705,0.210932,0.004740,0.232263,0.000000,258.000000,257.000000,1.000000,49.000000,0.000000,0.000000,0.174705,0.210932,0.004740,0.232263,0.000000,258.000000,257.000000,1.000000,49.000000,0.000000,0.000000:
// measure 0
0000
0000
0000
0000
,  // measure 1
0100
0100
0000
0001
,  // measure 2
1000
0001
1000
0000
,  // measure 3
0010
0010
0000
1000
,  // measure 4
0001
1000
0001
1000
,  // measure 5
0001
0010
0001
0010
,  // measure 6
0100
0010
0100
0010
,  // measure 7
0100
1000
0001
1000
,  // measure 8
0200
0000
0300
0000
,  // measure 9
0010
0100
0010
0100
,  // measure 10
1000
0001
1000
0001
,  // measure 11
0100
0010
1000
0001
,  // measure 12
0200
0000
0300
0000
,  // measure 13
0001
1000
0100
1000
,  // measure 14
0002
0000
0003
0000
,  // measure 15
0010
0001
0100
0001
,  // measure 16
0020
0000
0030
0000
,  // measure 17
0100
1000
0010
1000
,  // measure 18
0200
0000
0300
0000
,  // measure 19
2000
0001
0001
3001
,  // measure 20
0002
1000
1000
1003
,  // measure 21
0200
0010
0010
0310
,  // measure 22
0020
0100
0100
0130
,  // measure 23
1000
0100
1000
0100
,  // measure 24
0010
0100
0010
0100
,  // measure 25
0010
0001
0010
0100
,  // measure 26
2000
0001
0001
3001
,  // measure 27
1000
0001
0100
0001
,  // measure 28
1000
0001
1000
0001
,  // measure 29
0010
0100
1000
0001
,  // measure 30
0200
0000
0300
0000
,  // measure 31
0020
0030
2000
3000
,  // measure 32
0001
0010
0002
0003
,  // measure 33
0020
0030
0200
0300
,  // measure 34
1000
0100
2000
3000
,  // measure 35
0002
0003
2000
3000
,  // measure 36
0001
0100
0002
0003
,  // measure 37
1000
0100
1000
0100
,  // measure 38
0020
0100
0100
0130
,  // measure 39
0010
0001
0010
0002
,  // measure 40
0100
0100
0100
0100
,  // measure 41
0203
0300
0020
0030
,  // measure 42
0000
0000
0000
1000
,  // measure 43
0002
0003
0020
0030
,  // measure 44
0000
0000
0000
0100
,  // measure 45
2000
3000
0002
0003
,  // measure 46
0100
0100
0000
0000
,  // measure 47
0010
0010
0010
0010
,  // measure 48
0100
0100
0100
0100
,  // measure 49
0100
0000
0000
0000
,  // measure 50
0000
0000
0000
0000
,  // measure 51
0000
0000
0000
0000
,  // measure 52
0000
0000
0000
0000
,  // measure 53
0002
0000
0000
0003
,  // measure 54
2000
0000
0000
3000
,  // measure 55
0002
0000
0000
0003
,  // measure 56
2000
0000
0000
3000
,  // measure 57
0010
0010
0010
0010
,  // measure 58
0010
0100
0100
0100
,  // measure 59
0100
0001
0001
0001
,  // measure 60
0001
0010
0010
0010
,  // measure 61
0010
0100
0100
0100
,  // measure 62
1000
1000
1000
1000
,  // measure 63
0001
0001
1000
1000
,  // measure 64
0010
0010
0100
0100
,  // measure 65
0002
0000
1003
0000
,  // measure 66
2000
0000
3001
0000
,  // measure 67
0200
0000
0310
0000
,  // measure 68
0020
0000
0130
0000
,  // measure 69
0010
0010
0100
0100
,  // measure 70
1000
0100
0010
0001
,  // measure 71
1000
1000
2000
3000
,  // measure 72
0001
0010
0001
0100
,  // measure 73
0010
0100
0020
0030
,  // measure 74
0100
0001
0010
0001
,  // measure 75
0100
0010
2000
3000
,  // measure 76
0001
1000
0100
0010
,  // measure 77
0001
0001
1000
1000
,  // measure 78
0002
1000
1000
1003
,  // measure 79
2002
3003
0001
1000
,  // measure 80
0002
1003
1000
0100
,  // measure 81
2000
3000
0002
0003
,  // measure 82
0100
0010
0100
0010
,  // measure 83
0200
0300
0020
0030
,  // measure 84
1000
0000
0000
0000
0000
0000
0000
0001
,  // measure 85
1000
0010
0100
0010
,  // measure 86
0200
0000
0000
0000
,  // measure 87
0300
0001
1000
0001
,  // measure 88
2000
0000
0000
0000
,  // measure 89
3100
0000
0000
0000
;

//---------------dance-single - ----------------
#NOTES:
     dance-single:
     :
     Beginner:
     2:
     0.113084,0.232026,0.071101,0.071101,0.000000,167.000000,152.000000,15.000000,15.000000,0.000000,0.000000,0.113084,0.232026,0.071101,0.071101,0.000000,167.000000,152.000000,15.000000,15.000000,0.000000,0.000000:
// measure 0
0000
0000
0000
0000
,  // measure 1
1000
0000
0000
0000
,  // measure 2
0001
0000
0000
0000
,  // measure 3
1000
0000
0000
0000
,  // measure 4
0001
0000
0000
0000
,  // measure 5
0100
0000
0010
0000
,  // measure 6
1000
0000
0001
0000
,  // measure 7
0100
0000
0100
0000
,  // measure 8
0100
0000
0000
0000
,  // measure 9
0001
0000
0010
0000
,  // measure 10
0100
0000
1000
0000
,  // measure 11
1000
0000
0001
0000
,  // measure 12
1000
0000
0000
0000
,  // measure 13
0001
0000
0100
0000
,  // measure 14
0010
0000
0000
0000
,  // measure 15
1000
0000
0100
0000
,  // measure 16
0010
0000
0000
0000
,  // measure 17
0010
0000
0001
0000
,  // measure 18
1000
0000
0000
0000
,  // measure 19
0000
0100
0100
0100
,  // measure 20
0100
0000
0000
0000
,  // measure 21
0000
0010
0010
0010
,  // measure 22
0010
0000
0000
0000
,  // measure 23
0001
0000
1000
0000
,  // measure 24
0200
0300
0200
0300
,  // measure 25
0010
0000
0100
0100
,  // measure 26
0200
0000
0300
0000
,  // measure 27
1000
0000
0001
0000
,  // measure 28
0010
0010
0010
0000
,  // measure 29
0002
0003
2000
3000
,  // measure 30
0100
0000
0000
0000
,  // measure 31
0010
0010
0020
0030
,  // measure 32
0002
0003
2000
3000
,  // measure 33
0200
0300
0020
0030
,  // measure 34
0001
0001
0001
0000
,  // measure 35
1000
0000
0010
0000
,  // measure 36
0100
0100
0200
0300
,  // measure 37
0000
0010
0010
0010
,  // measure 38
0010
0000
0000
0000
,  // measure 39
0000
0100
0100
0100
,  // measure 40
0100
0000
0000
0000
,  // measure 41
1000
0000
0001
0000
,  // measure 42
0000
0000
1001
0000
,  // measure 43
1000
0000
0100
0000
,  // measure 44
0000
0000
0110
0000
,  // measure 45
0010
0000
0100
0000
,  // measure 46
0000
0000
1001
0000
,  // measure 47
0010
0010
0010
0000
,  // measure 48
0100
0100
0100
0000
,  // measure 49
0000
0000
0000
0000
,  // measure 50
0000
0000
0000
0000
,  // measure 51
0000
0000
0000
0000
,  // measure 52
0000
0000
0000
0000
,  // measure 53
0002
0000
0000
0000
,  // measure 54
0003
0000
0000
0000
,  // measure 55
2000
0000
0000
0000
,  // measure 56
3000
0000
0000
0000
,  // measure 57
0100
0000
1000
0000
,  // measure 58
0001
0000
1000
0000
,  // measure 59
0010
0000
0100
0000
,  // measure 60
0001
0000
0010
0000
,  // measure 61
0100
0000
1000
0000
,  // measure 62
0001
0000
1000
0000
,  // measure 63
0001
0000
0100
0000
,  // measure 64
0010
0000
1000
0000
,  // measure 65
0100
0100
0000
0000
,  // measure 66
0200
0000
0300
0000
,  // measure 67
0001
0001
0000
0000
,  // measure 68
2000
0000
3000
0000
,  // measure 69
0010
0000
0100
0000
,  // measure 70
0010
0000
0000
0000
,  // measure 71
1001
0000
0001
0000
,  // measure 72
1000
0000
1000
0000
,  // measure 73
0100
0000
0010
0000
,  // measure 74
0010
0000
0001
0000
,  // measure 75
1000
0000
0010
0000
,  // measure 76
1000
0000
0100
0000
,  // measure 77
0010
0000
0010
0000
,  // measure 78
0110
0000
0000
0000
,  // measure 79
0001
0000
0001
0000
,  // measure 80
1000
0000
0100
0000
,  // measure 81
1000
0000
0010
0000
,  // measure 82
0100
0000
0001
0000
,  // measure 83
0010
0000
0010
0000
,  // measure 84
0010
0000
0110
0000
,  // measure 85
0000
1001
1001
1001
,  // measure 86
1001
0000
0000
0000
,  // measure 87
0000
0110
0110
0110
,  // measure 88
0110
0000
0000
0000
,  // measure 89
1001
0000
0000
0000
;
