#TITLE:Waves;
#SUBTITLE:;
#ARTIST:Dance With The Dead;
#TITLETRANSLIT:;
#SUBTITLETRANSLIT:;
#ARTISTTRANSLIT:;
#GENRE:Near Dark;
#CREDIT:;
#BANNER:Waves-bn.png;
#BACKGROUND:Waves-bg.png;
#LYRICSPATH:;
#CDTITLE:;
#MUSIC:Waves.mp3;
#OFFSET:-0.022000;
#SAMPLESTART:53.762383;
#SAMPLELENGTH:15.360004;
#LASTBEATHINT:238.062347;
#SELECTABLE:YES;
#DISPLAYBPM:125.000000;
#BPMS:0.000000=124.999992
,171.500000=69.459999
,174.000000=124.999992
;
#STOPS:
;
#BGCHANGES:;
#KEYSOUNDS:;
#ATTACKS:;

//---------------dance-single - ----------------
#NOTES:
     dance-single:
     :
     Hard:
     8:
     0.473424,0.489657,0.537177,0.256192,0.000000,401.000000,336.000000,65.000000,31.000000,0.000000,0.000000,0.473424,0.489657,0.537177,0.256192,0.000000,401.000000,336.000000,65.000000,31.000000,0.000000,0.000000:
0000
0000
0000
0000
,
0000
0000
0000
0000
,
0000
0000
0000
0000
,
0000
0000
0000
0000
,
2000
0000
3002
0000
0103
1000
0100
0002
,
0000
0013
0200
0000
0310
0000
1001
0000
,
0200
0000
0302
0000
1003
0010
0001
0020
,
0000
1030
0001
0000
1000
0000
0110
0000
,
0200
0000
0320
0000
1030
0100
0001
0200
,
0000
0310
0002
0000
1003
0000
1001
0000
,
0002
0000
2003
0000
3010
0001
0010
2000
,
0000
3001
0010
0000
0100
0000
1001
0000
,
0100
0001
0010
0100
0001
0100
1000
0010
,
0100
0001
0010
0100
0001
0100
2000
0002
,
3000
0013
0100
1000
0010
0100
1000
0100
,
0001
0010
0100
1000
0010
0100
1000
0100
,
0001
0010
1000
0001
0100
1000
0100
0010
,
0001
0010
1000
0001
0100
1000
0002
0200
,
0003
0310
0001
0010
0100
1000
0100
0010
,
0001
0010
0100
1000
0100
0010
1000
0001
,
1000
0100
0010
0100
0001
1000
0010
0100
,
1000
0100
0010
0100
1000
0001
0020
0200
,
0030
1300
0010
0001
1000
0100
0010
1000
,
0001
1000
0010
0001
1000
0100
0010
1000
,
0001
0010
0001
1000
0010
0001
1000
0100
,
0001
0010
0001
1000
0010
0001
2000
0200
,
3000
0301
0010
1000
0100
0001
0100
1000
,
0010
0001
0010
1000
0100
0001
0100
1000
,
0110
0000
1001
0000
0010
1000
0100
2000
,
0000
3001
0010
0000
0011
0000
1100
0000
,
0001
0000
1001
0000
0100
0010
0100
0002
,
0000
1003
0010
0000
0100
0000
0110
0000
,
0001
0000
1001
0000
1000
0010
1000
0200
,
0000
0310
0100
0000
1000
0000
0101
0000
,
0010
0000
0110
0000
1000
0001
0100
0002
,
0000
1003
0100
0000
0010
0000
0110
0000
,
0001
0100
0010
1000
0001
0100
0001
0100
,
0010
1000
0001
0100
0010
1000
0010
1000
,
0001
0100
0010
1000
0001
0100
0001
0100
,
0010
1000
0001
0100
0010
1000
0010
1000
,
0100
1000
0010
1000
0100
1000
0010
1000
,
0100
0001
0100
1000
0100
0001
0100
1000
,
0100
0001
0010
0001
0100
0001
0010
0001
,
0000
0000
1100
0011
,
0001
0100
1000
0200
0000
0310
2000
0000
,
3001
1001
1010
0101
,
0001
0010
1000
0020
0000
0031
0100
0000
,
1010
0101
1001
1100
,
0001
0010
1000
0020
0000
0031
0100
0000
,
0110
0101
1001
1010
,
1000
0100
0001
0200
0000
0310
0001
0000
,
1100
0011
1001
0110
,
0011
0000
1001
0101
0000
0110
1010
0000
,
1001
1100
0110
0011
,
1001
0000
1010
0110
0000
0101
1001
0000
,
0011
0110
1100
1010
,
0101
0000
0110
1001
0000
0011
1100
0000
,
1010
1001
1100
0101
,
0011
0000
1001
0101
0000
0011
0101
0000
,
1001
1010
0000
0000
;

//---------------dance-single - ----------------
#NOTES:
     dance-single:
     :
     Medium:
     6:
     0.298694,0.318277,0.157021,0.132228,0.000000,253.000000,234.000000,19.000000,16.000000,0.000000,0.000000,0.298694,0.318277,0.157021,0.132228,0.000000,253.000000,234.000000,19.000000,16.000000,0.000000,0.000000:
0000
0000
0000
0000
,
0000
0000
0000
0000
,
0000
0000
0000
0000
,
0000
0000
0000
0000
,
1000
0000
0001
0000
0010
0000
0001
1000
,
0000
1000
0001
0000
1000
0000
0010
0000
,
1000
0000
0001
0000
1000
0000
0001
0100
,
0000
0010
0100
0000
0001
0000
1000
0000
,
0100
0000
1000
0000
0001
0000
1000
0100
,
0000
0010
0100
0000
1000
0000
0001
0000
,
0100
0000
0001
0000
1000
0000
0001
1000
,
0000
0010
0100
0000
0001
0000
1000
0000
,
0001
0010
1000
0010
,
0001
0101
1000
1100
,
0010
0100
0010
1000
,
0001
1010
1000
0011
,
0010
0100
0010
0001
,
1000
0110
0001
0110
,
1000
0001
1000
0100
,
0001
1001
0010
0110
,
2000
0000
3002
0000
1003
0001
0100
0000
,
0002
0000
2003
0000
3001
1000
0010
0000
,
0200
0000
0320
0000
1030
0010
0100
0000
,
0020
0000
0230
0000
0301
0010
0100
0000
,
2000
0000
3020
0000
1030
0001
0100
0000
,
0002
0000
0023
0000
0031
1000
0100
0000
,
0020
0000
0230
0000
1300
0001
0100
0000
,
0020
0000
0230
0000
0301
1000
0010
0000
,
1001
0000
0010
0000
1000
0000
0001
0010
,
0000
0100
1000
0000
0001
0000
1000
0000
,
0010
0000
0100
0000
0001
0000
0010
0100
,
0000
0010
0100
0000
1000
0000
0001
0000
,
1010
0000
0010
0000
1000
0000
0001
0010
,
0000
0010
0001
0000
1000
0000
0001
0000
,
1100
0000
0001
0000
0100
0000
0001
1000
,
0000
0010
0100
0000
0001
0000
1000
0000
,
0101
0000
0000
0000
,
0000
0000
0000
0000
,
0000
0000
0000
0000
,
0000
0000
0000
0000
,
0001
0000
0010
0000
1000
0010
1000
0000
,
0001
0100
0001
0000
1000
0100
1000
0000
,
0010
0001
0010
0000
0100
0001
0100
0000
,
0000
0000
1001
0010
,
1000
0000
0001
1000
0000
0010
0100
0000
,
0001
1000
0100
1000
,
0001
0000
0010
0100
0000
0010
0100
0000
,
1000
0001
1001
0100
,
0010
0000
1000
0001
0000
0010
0100
0000
,
0010
0001
1000
0001
,
1000
0000
0010
0100
0000
0010
1000
0000
,
0001
0100
1001
0010
,
1000
0000
0001
0010
0000
0100
0010
0000
,
0001
1000
1001
0100
,
0010
0000
0001
1000
0000
0010
0100
0000
,
0010
1000
0001
0010
,
0100
0000
1000
0001
0000
0010
0100
0000
,
0010
1001
0100
0001
,
1000
0000
0010
0100
0000
0001
1000
0000
,
0110
1001
0000
0000
;

//---------------dance-single - ----------------
#NOTES:
     dance-single:
     :
     Easy:
     3:
     0.210148,0.220346,0.008264,0.132228,0.000000,178.000000,177.000000,1.000000,16.000000,0.000000,0.000000,0.210148,0.220346,0.008264,0.132228,0.000000,178.000000,177.000000,1.000000,16.000000,0.000000,0.000000:
// measure 0
0000
0000
0000
0000
,  // measure 1
0000
0000
0000
0000
,  // measure 2
0000
0000
0000
0000
,  // measure 3
0000
0000
0000
0000
,  // measure 4
1000
0100
1000
0000
,  // measure 5
0001
0010
0001
0000
,  // measure 6
1000
0001
0100
0000
,  // measure 7
0001
1000
0010
0000
,  // measure 8
1000
0100
1000
0001
,  // measure 9
1000
0100
1000
0001
,  // measure 10
0100
0001
1000
0001
,  // measure 11
0100
0001
1000
0001
,  // measure 12
0200
0300
0010
1000
,  // measure 13
0002
0003
0010
0001
,  // measure 14
0020
0030
0100
1000
,  // measure 15
0002
0003
1000
0010
,  // measure 16
0200
0300
0010
0100
,  // measure 17
0002
0003
1000
0001
,  // measure 18
0200
0300
0010
1000
,  // measure 19
0200
0300
1000
0001
,  // measure 20
0200
0300
0001
0010
,  // measure 21
0200
0300
1000
0100
,  // measure 22
2000
3000
0001
1000
,  // measure 23
0002
0003
0100
0001
,  // measure 24
0200
0300
0010
1000
,  // measure 25
0020
0030
1000
0001
,  // measure 26
2000
3000
0100
0010
,  // measure 27
0200
0300
1000
0001
,  // measure 28
1001
0000
0010
0000
,  // measure 29
0001
1000
0010
0100
,  // measure 30
0001
0000
1000
0000
,  // measure 31
0100
1000
0001
0010
,  // measure 32
0100
0000
1000
0000
,  // measure 33
0001
1000
0010
0100
,  // measure 34
0001
0000
1000
0000
,  // measure 35
0010
1000
0001
0010
,  // measure 36
0100
0000
0000
0000
,  // measure 37
0000
0000
0000
0000
,  // measure 38
0000
0000
0000
0000
,  // measure 39
0000
0000
0000
0000
,  // measure 40
0001
0001
1000
1000
,  // measure 41
0001
0001
1000
1000
,  // measure 42
0010
0010
0100
0100
,  // measure 43
0000
0000
0001
0100
,  // measure 44
0001
1000
0001
0100
,  // measure 45
0001
1000
0100
1000
,  // measure 46
0001
1000
0100
1000
,  // measure 47
0001
1000
0100
0010
,  // measure 48
0001
0010
0100
0010
,  // measure 49
0001
0010
0100
0010
,  // measure 50
0001
0010
0100
0010
,  // measure 51
0001
0010
0100
1000
,  // measure 52
0010
1000
0100
1000
,  // measure 53
0010
1000
0001
1000
,  // measure 54
0010
0100
0001
1000
,  // measure 55
0010
0100
0001
1000
,  // measure 56
0001
0010
0001
1000
,  // measure 57
0001
0010
0100
1000
,  // measure 58
0001
0010
0100
1000
,  // measure 59
0001
0010
0000
0000
;

//---------------dance-single - ----------------
#NOTES:
     dance-single:
     :
     Beginner:
     1:
     0.139312,0.146277,0.024793,0.000000,0.000000,118.000000,115.000000,3.000000,0.000000,0.000000,0.000000,0.139312,0.146277,0.024793,0.000000,0.000000,118.000000,115.000000,3.000000,0.000000,0.000000,0.000000:
// measure 0
0000
0000
0000
0000
,  // measure 1
0000
0000
0000
0000
,  // measure 2
0000
0000
0000
0000
,  // measure 3
0000
0000
0000
0000
,  // measure 4
1000
0000
0001
0000
,  // measure 5
1000
0000
0001
0000
,  // measure 6
1000
0000
0001
0000
,  // measure 7
1000
0000
0001
0000
,  // measure 8
1000
0000
0001
0000
,  // measure 9
1000
0000
0001
0000
,  // measure 10
1000
0000
0001
0000
,  // measure 11
1000
0000
0001
0000
,  // measure 12
1001
0000
0100
0000
,  // measure 13
0001
0000
0100
0100
,  // measure 14
0000
0100
0100
0000
,  // measure 15
0001
0000
1000
0000
,  // measure 16
0001
0000
1000
0000
,  // measure 17
0001
0000
0100
0100
,  // measure 18
0000
0100
0100
0000
,  // measure 19
0010
0000
0100
0000
,  // measure 20
0001
0000
1000
0000
,  // measure 21
0001
0000
1000
1000
,  // measure 22
0000
0100
0100
0000
,  // measure 23
0010
0000
0001
0000
,  // measure 24
1000
0000
0001
0000
,  // measure 25
1000
0000
0010
0010
,  // measure 26
0000
0010
0010
0000
,  // measure 27
0100
0000
0001
0000
,  // measure 28
1001
0000
0001
0000
,  // measure 29
1000
0000
0001
0000
,  // measure 30
0100
0000
0001
0000
,  // measure 31
1000
0000
0100
0000
,  // measure 32
0010
0000
0100
0000
,  // measure 33
1000
0000
0001
0000
,  // measure 34
0100
0000
0010
0000
,  // measure 35
1000
0000
0001
0000
,  // measure 36
1001
0000
0000
0000
,  // measure 37
0000
0000
0000
0000
,  // measure 38
0000
0000
0000
0000
,  // measure 39
0000
0000
0000
0000
,  // measure 40
0001
0000
0001
0000
,  // measure 41
1000
0000
1000
0000
,  // measure 42
0010
0000
0100
0000
,  // measure 43
0000
0000
0001
0001
,  // measure 44
0001
0000
1000
0000
,  // measure 45
0100
0000
1000
1000
,  // measure 46
1000
0000
0010
0000
,  // measure 47
0100
0000
0001
0001
,  // measure 48
0001
0000
0010
0000
,  // measure 49
0100
0000
1000
1000
,  // measure 50
1000
0000
0001
0000
,  // measure 51
0100
0000
0001
0001
,  // measure 52
0001
0000
1000
0000
,  // measure 53
0010
0000
0100
0100
,  // measure 54
0100
0000
0001
0000
,  // measure 55
1000
0000
0100
0100
,  // measure 56
0100
0000
1000
0000
,  // measure 57
0010
0000
0100
0100
,  // measure 58
0100
0000
0001
0000
,  // measure 59
0010
0000
0000
0000
;
