#TITLE:Wave Your Flag;
#SUBTITLE:;
#ARTIST:Afrojack feat. Luis Fonsi;
#TITLETRANSLIT:;
#SUBTITLETRANSLIT:;
#ARTISTTRANSLIT:;
#GENRE:Wave Your Flag;
#CREDIT:;
#BANNER:Wave Your Flag-bn.png;
#BACKGROUND:Wave Your Flag-bg.png;
#LYRICSPATH:;
#CDTITLE:;
#MUSIC:Wave Your Flag.mp3;
#OFFSET:-0.015530;
#SAMPLESTART:44.573166;
#SAMPLELENGTH:19.428577;
#LASTBEATHINT:182.000000;
#SELECTABLE:YES;
#BPMS:0.000000=105.000000
;
#STOPS:
;
#BGCHANGES:0.000=Wave Your Flag-video.avi=1.000=1=0=0=StretchNoLoop==CrossFade==,
99999=-nosongbg-=1.000=0=0=0 // don't automatically add -songbackground-
;
#KEYSOUNDS:;
#ATTACKS:;

//---------------dance-single - ----------------
#NOTES:
     dance-single:
     :
     Hard:
     9:
     0.392737,0.464385,0.421042,0.156859,0.280695,333.000000,282.000000,51.000000,19.000000,0.000000,0.000000,0.392737,0.464385,0.421042,0.156859,0.280695,333.000000,282.000000,51.000000,19.000000,0.000000,0.000000:
0000
0000
0000
0000
,
0000
0000
0000
0000
,
0000
0000
0000
0000
,
0000
0000
0000
0000
,
0000
0000
0001
0100
0001
0000
1000
0010
1000
0000
0100
0010
0100
0000
0100
0000
,
0000
0000
1000
0010
0000
0100
0000
0001
0100
0000
0000
0000
0000
0000
0000
0000
,
0000
0000
0010
1000
0010
0000
1000
0001
1000
0000
0100
1000
0100
0000
0100
0000
,
0000
0000
0010
0001
0000
0100
0000
0010
1000
0000
0000
0000
0000
0000
0000
0000
,
0000
0000
0010
0000
0001
1000
0001
0000
1000
0010
1000
0000
0020
0000
0000
0000
,
0030
0000
0100
0001
0100
0000
0010
1000
0010
0000
0100
0000
0010
0000
0000
0000
,
0000
0000
1000
0100
1000
0000
0001
0010
0001
0000
1000
0100
1000
0000
0100
0000
,
0000
0000
1000
0001
1000
0000
0010
0000
0100
0000
0001
0000
0100
0000
0000
0000
,
0000
0000
0001
0010
0001
0000
0010
0000
0001
0000
0010
0000
0200
0000
0000
0000
,
0300
0000
1000
0100
1000
0000
0100
0000
1000
0000
0000
0100
0020
0000
0000
0000
,
0030
0000
0001
1000
0001
0000
0100
0000
0010
0000
1000
0000
0100
0000
0000
0010
,
0200
0000
0300
1000
0001
0100
0010
1000
,
0000
0000
0100
1000
0100
0000
0010
0000
0001
0000
0100
0000
0010
0000
1000
0000
,
0000
0000
0001
0100
0001
0000
0010
0001
0010
0000
0100
0000
0010
0000
0001
0000
,
0000
0000
1000
0010
0001
1000
0100
0002
,
0000
0003
0101
1001
,
2010
0001
3010
1010
,
1010
0000
2020
0000
0000
0000
0000
0000
3030
0000
0001
1000
0001
0000
0010
0000
,
1001
0000
1000
0001
1000
0000
0010
0000
1001
0000
0000
1000
0010
0000
0010
0100
,
0000
0100
0001
0000
0000
0000
0000
0000
1100
0000
0000
0000
1001
0000
0000
0000
,
0012
1000
0013
0011
,
0011
0000
0022
0000
0000
0000
0000
0000
0033
0000
1000
0001
1000
0000
0010
0000
,
1001
0000
0001
1000
0001
0000
0010
0000
1001
0000
0000
0001
0010
0000
0010
0100
,
0000
0100
1000
0000
0000
0000
0000
0000
0000
0000
0001
0100
0001
0000
1000
0000
,
0101
0000
0000
1000
0100
0000
1000
0000
0101
0000
0000
1000
0100
0000
1000
0000
,
0101
0000
0000
1000
0100
0000
1000
0000
0101
0000
0000
0000
1001
0000
0100
0000
,
1100
0000
0000
0001
0100
0000
0001
0000
1100
0000
0000
0001
0100
0000
0001
0000
,
1100
0000
0000
0001
0100
0000
0001
0000
1100
0000
0000
0000
1001
0000
0100
0000
,
0101
0000
0000
0001
1000
0001
0100
0000
0101
0000
0000
0001
1000
0001
0100
0000
,
0101
0000
0000
0001
1000
0001
0100
0000
0101
0000
0000
0000
1001
0000
0100
0000
,
1100
0000
0000
1000
0001
1000
0100
0000
1100
0000
0000
1000
0001
1000
0100
0000
,
1100
0000
0000
1000
0001
1000
0100
0000
1100
0000
0000
0000
1001
0000
0000
0000
,
0012
1000
0013
0011
,
0011
0000
0022
0000
0000
0000
0000
0000
0033
0000
1000
0001
1000
0000
0010
0000
,
1001
0000
0001
1000
0001
0000
0010
0000
1001
0000
0000
0001
0010
0000
0010
0100
,
0000
0100
1000
0000
0000
0000
0000
0000
0101
0000
0000
0000
1001
0000
0000
0000
,
2010
0001
3010
1010
,
1010
0000
2020
0000
0000
0000
0000
0000
3030
0000
0001
1000
0001
0000
0010
0000
,
1001
0000
1000
0001
1000
0000
0010
0000
1001
0000
0000
1000
0010
0000
0010
0100
,
0000
0100
0001
0000
0000
0000
0000
0000
0000
0000
1000
0010
1000
0000
0001
0000
,
2002
0000
0000
0000
,
3003
0000
0000
0000
;

//---------------dance-single - ----------------
#NOTES:
     dance-single:
     :
     Medium:
     6:
     0.238237,0.260056,0.099069,0.231160,0.000000,202.000000,190.000000,12.000000,28.000000,0.000000,0.000000,0.238237,0.260056,0.099069,0.231160,0.000000,202.000000,190.000000,12.000000,28.000000,0.000000,0.000000:
0000
0000
0000
0000
,
0000
0000
0000
0000
,
0000
0000
0000
0000
,
0000
0000
0000
0000
,
0001
0000
0010
0000
1000
0000
0010
0001
,
0100
1000
0100
0000
,
0001
0000
0100
0000
1000
0000
0100
1000
,
0010
1000
0010
0000
,
1000
0000
0010
0000
0001
0010
1000
0000
,
0001
0000
0100
0000
1000
0100
0001
0000
,
0100
0000
1000
0000
0100
0001
0100
0000
,
0100
1000
0100
0000
0001
1000
0001
0000
,
0100
0000
0100
0000
0100
0010
1000
0000
,
0010
0000
0010
0000
0010
0100
0001
0000
,
0010
0100
1000
0100
,
0010
0000
0001
0000
1000
0001
0100
0010
,
1000
0000
1000
0000
0100
0010
0100
0010
,
0100
0000
0100
0000
1000
0001
1000
0001
,
1000
0010
0100
0001
,
0010
0010
1100
0101
,
2002
0000
0003
0010
,
0001
0002
0000
0000
3003
0000
0100
0010
,
0100
0000
0001
1000
0001
0000
0010
0000
,
0100
1000
0100
0000
0101
0000
1100
0000
,
2002
0000
3000
0010
,
1000
2000
0000
0000
3003
0000
0100
0010
,
0100
0000
1000
0001
1000
0000
0010
0000
,
0100
0001
0100
0000
0000
0001
1000
0001
,
2000
0000
3010
0100
0002
0000
0013
0100
,
2000
0000
3010
0100
0002
0000
1003
0001
,
0200
0000
0301
1000
0020
0000
1030
0001
,
0200
0000
0301
1000
0020
0000
1030
0001
,
0200
0000
0310
1000
0200
0000
0310
0001
,
0200
0000
0310
1000
0200
0000
1300
0001
,
2000
0000
3100
0010
0002
0000
0013
0100
,
2000
3100
0101
1100
,
2002
0000
3000
0010
,
1000
2000
0000
0000
3003
0000
0100
0010
,
0100
0000
1000
0001
1000
0000
0010
0000
,
0100
0001
0100
0000
1100
0000
0101
0000
,
2002
0000
0003
0010
,
0001
0002
0000
0000
3003
0000
0100
0010
,
0100
0000
0001
1000
0001
0000
0010
0000
,
0100
1000
0100
0000
0000
1000
0001
1000
,
0002
0000
0000
0000
,
0003
0000
0000
0000
;

//---------------dance-single - ----------------
#NOTES:
     dance-single:
     :
     Easy:
     4:
     0.174550,0.222905,0.107325,0.280695,0.000000,148.000000,135.000000,13.000000,34.000000,0.000000,0.000000,0.174550,0.222905,0.107325,0.280695,0.000000,148.000000,135.000000,13.000000,34.000000,0.000000,0.000000:
// measure 0
0000
0000
0000
0000
,  // measure 1
0000
0000
0000
0000
,  // measure 2
0000
0000
0000
0000
,  // measure 3
0000
0000
0000
0000
,  // measure 4
0001
0010
0100
1000
,  // measure 5
0100
0010
0100
0000
,  // measure 6
1000
0010
0100
0001
,  // measure 7
1000
0001
1000
0000
,  // measure 8
0010
1000
0100
0010
,  // measure 9
0001
0100
0010
1000
,  // measure 10
0001
0100
0001
0100
,  // measure 11
0010
1000
0010
1000
,  // measure 12
0100
0100
0100
0000
,  // measure 13
0010
0001
0010
0000
,  // measure 14
0001
0100
0001
0000
,  // measure 15
1000
0000
0010
0000
,  // measure 16
1000
0100
0010
0000
,  // measure 17
0001
0100
0010
0000
,  // measure 18
1000
0010
1000
0000
,  // measure 19
0001
0000
1001
0110
,  // measure 20
2002
0000
0003
0010
,  // measure 21
0001
0002
0000
0000
3003
0000
0010
0000
,  // measure 22
0002
0103
2000
3010
,  // measure 23
0100
0001
1001
0110
,  // measure 24
2002
0000
3000
0010
,  // measure 25
1000
2000
0000
0000
3003
0000
0100
0000
,  // measure 26
0002
0013
2000
3100
,  // measure 27
0010
0010
0000
0001
,  // measure 28
2000
3100
0002
0103
,  // measure 29
2000
3100
0001
1000
,  // measure 30
0002
0013
2000
3010
,  // measure 31
0002
0013
1000
0001
,  // measure 32
0200
0310
2000
3001
,  // measure 33
0200
0310
1000
0001
,  // measure 34
0020
0130
2000
3001
,  // measure 35
0020
0130
1001
0110
,  // measure 36
2002
0000
3000
0010
,  // measure 37
1000
2000
0000
0000
3003
0000
0010
0000
,  // measure 38
2000
3100
0002
0013
,  // measure 39
0100
1000
1001
0110
,  // measure 40
2002
0000
0003
0010
,  // measure 41
0001
0002
0000
0000
3003
0000
0100
0000
,  // measure 42
2000
3010
0002
0103
,  // measure 43
0010
0010
0000
0000
,  // measure 44
2002
0000
0000
0000
,  // measure 45
3003
0000
0000
0000
;

//---------------dance-single - ----------------
#NOTES:
     dance-single:
     :
     Beginner:
     1:
     0.112042,0.130028,0.008256,0.247672,0.000000,95.000000,94.000000,1.000000,30.000000,0.000000,0.000000,0.112042,0.130028,0.008256,0.247672,0.000000,95.000000,94.000000,1.000000,30.000000,0.000000,0.000000:
0000
0000
0000
0000
,
0000
0000
0000
0000
,
0000
0000
0000
0000
,
0000
0000
0000
0000
,
0010
0000
1000
0000
,
0100
0100
0100
0000
,
0010
0000
0001
0000
,
0100
0100
0100
0000
,
0010
0000
1000
0000
,
0001
0000
0010
0000
,
0100
0000
1000
0000
,
0001
0000
0100
0000
,
0010
0010
0010
0000
,
0100
0100
0100
0000
,
0001
0000
0010
0000
,
0100
0000
1000
1000
,
1000
0000
0010
0000
,
0100
0000
0001
0000
,
0000
0010
0010
0010
,
0010
0000
0100
0100
,
0200
0000
0300
0010
,
0020
0000
0030
0001
,
0002
0003
2000
3000
,
0100
0000
0010
0010
,
0020
0000
0030
0100
,
0200
0000
0300
1000
,
2000
3000
0002
0003
,
0100
0000
0010
0000
,
2000
3000
2000
3000
,
2000
3000
0001
0001
,
0002
0003
0002
0003
,
0002
0003
0100
0100
,
0200
0300
0200
0300
,
0200
0300
0010
0010
,
0020
0030
0020
0030
,
0020
0030
0100
0100
,
0200
0000
0300
0010
,
0020
0000
0030
1000
,
2000
3000
0002
0003
,
0100
0000
0010
0010
,
0020
0000
0030
0100
,
0200
0000
0300
0001
,
0002
0003
2000
3000
,
0100
0000
0010
0000
,
2002
0000
0000
0000
,
3003
0000
0000
0000
;
