#VERSION:0.83;
#TITLE:Walking on a Dream;
#SUBTITLE:;
#ARTIST:Empire of the Sun;
#TITLETRANSLIT:;
#SUBTITLETRANSLIT:;
#ARTISTTRANSLIT:;
#GENRE:Walking on a Dream;
#ORIGIN:;
#CREDIT:[Ness];
#BANNER:Walking on a Dream.png;
#BACKGROUND:Black.png;
#PREVIEWVID:Walking on a Dream-preview.avi;
#JACKET:Walking on a Dream-jacket.png;
#CDIMAGE:;
#DISCIMAGE:Walking on a Dream-bg.png;
#LYRICSPATH:;
#CDTITLE:;
#MUSIC:Walking on a Dream.mp3;
#OFFSET:0.000000;
#SAMPLESTART:45.365696;
#SAMPLELENGTH:15.118111;
#SELECTABLE:YES;
#BPMS:0.000=127.000;
#STOPS:;
#DELAYS:;
#WARPS:;
#TIMESIGNATURES:0.000=4=4;
#TICKCOUNTS:0.000=2;
#COMBOS:0.000=1;
#SPEEDS:0.000=1.000=0.000=0;
#SCROLLS:0.000=1.000;
#FAKES:;
#LABELS:0.000=Song Start;
#BGCHANGES:0.000=Walking on a Dream-video.avi=1.000=0=0=1=====,
99999=-nosongbg-=1.000=0=0=0 // don't automatically add -songbackground-
;
#KEYSOUNDS:;
#ATTACKS:
;

//---------------dance-single - [Ness]----------------
#NOTEDATA:;
#CHARTNAME:[Ness];
#STEPSTYPE:dance-single;
#DESCRIPTION:[Ness];
#CHARTSTYLE:;
#DIFFICULTY:Easy;
#METER:3;
#RADARVALUES:0.167646,0.208259,0.016529,0.000000,0.000000,142.000000,140.000000,2.000000,0.000000,0.000000,0.000000,0.000000,0.000000,0.000000,0.167646,0.208259,0.016529,0.000000,0.000000,142.000000,140.000000,2.000000,0.000000,0.000000,0.000000,0.000000,0.000000,0.000000;
#CREDIT:[Ness];
#NOTES:
0000
0000
0000
0000
,
0000
0000
0000
0000
,
0000
0000
0000
0000
,
0000
0000
0000
0000
,
0000
0000
0000
0000
,
0000
0000
0000
0000
,
0000
0000
0000
0000
,
0000
0000
0000
0000
,
0010
1000
0100
0000
,
1000
0000
1000
0000
,
0001
0010
0100
0000
,
0010
0000
0100
0000
,
0010
0001
1000
0000
,
0001
0000
1000
0000
,
0001
0100
0010
0000
,
0100
0000
0010
0000
,
1000
0001
1000
0000
,
0100
0000
0100
0000
,
0010
0100
0010
0000
,
0001
0000
1000
0000
,
0001
0100
0001
0000
,
1000
0000
0001
0000
,
1000
0010
1000
0000
,
0001
0000
1000
0000
,
0001
1000
0001
1000
,
0001
1000
0001
1000
,
0001
1000
0001
1000
,
0001
1000
0001
1000
,
0001
0100
0001
1000
,
0001
1000
0001
1000
,
0001
0100
0001
1000
,
0001
1000
0001
1000
,
0100
0000
0000
0000
,
0010
0000
0100
0000
,
0010
0000
0000
0000
,
0001
0000
1000
0000
,
0001
0000
0100
0000
,
1000
0000
0100
0000
,
0001
0000
0010
0000
,
0100
0000
1001
1001
,
0000
1000
1000
0000
,
0000
0001
0100
1000
,
0000
0001
0001
0000
,
0000
1000
0010
0001
,
0000
0100
0010
0000
,
0000
0100
0001
1000
,
0100
0000
0010
0000
,
0001
1000
0010
0000
,
1000
0001
1000
0001
,
1000
0001
1000
0001
,
1000
0001
1000
0001
,
1000
0001
1000
0001
,
1000
0100
1000
0001
,
1000
0001
1000
0001
,
1000
0100
1000
0001
,
1000
0001
1000
0001
,
1000
0000
0000
0000
;

//---------------dance-single - [Ness]----------------
#NOTEDATA:;
#CHARTNAME:[Ness];
#STEPSTYPE:dance-single;
#DESCRIPTION:[Ness];
#CHARTSTYLE:;
#DIFFICULTY:Medium;
#METER:5;
#RADARVALUES:0.242025,0.300819,0.090907,0.578498,0.000000,205.000000,194.000000,11.000000,70.000000,0.000000,0.000000,0.000000,0.000000,0.000000,0.242025,0.300819,0.090907,0.578498,0.000000,205.000000,194.000000,11.000000,70.000000,0.000000,0.000000,0.000000,0.000000,0.000000;
#CREDIT:[Ness];
#NOTES:
0000
0000
0000
0000
,
0000
0000
0000
0000
,
0000
0000
0000
0000
,
0000
0000
0000
0000
,
0000
0000
0000
0000
,
0000
0000
0000
0000
,
0000
0000
0000
0000
,
0000
0000
0000
0000
,
0001
1000
0010
0100
,
0001
0010
0100
1000
,
0100
0010
0100
1000
,
0001
0010
0001
1000
,
0001
0100
0010
1000
,
0100
0010
0100
1000
,
0001
0010
0100
1000
,
0001
1000
1001
1001
,
1000
0100
1000
0000
0001
0000
1000
0000
,
0020
0130
0020
0130
,
0001
1000
0001
0000
0010
0100
0010
0000
,
0100
1000
0002
1003
,
0001
0100
1000
0100
,
0001
0100
0001
0000
1000
0100
1000
0000
,
0001
1000
0010
0100
,
0001
1000
0020
0130
,
0002
2003
3002
2003
,
3002
2003
3002
2003
,
3002
2003
3002
2003
,
3020
0032
0203
2300
,
3002
2003
3002
2003
,
3002
2003
3002
2003
,
3002
2003
3002
2003
,
3002
0023
2030
3200
,
0301
0000
0000
0000
,
1000
0001
0100
0000
0001
0000
0001
0000
,
2000
3000
0002
0003
,
0100
0010
1000
1000
,
0001
1001
0010
0001
,
1000
1001
0010
1000
,
0100
1001
0100
0001
,
0010
1001
0110
1001
,
0000
0000
0001
1000
0010
0000
0000
0000
,
0000
0000
0010
0100
0001
0000
1001
0000
,
0000
0000
1000
0010
1000
0000
0000
0000
,
0000
0000
0001
0100
0010
0000
1001
0000
,
0000
0000
0010
0001
0010
0000
0000
0000
,
0000
0000
0001
1000
0100
0000
1001
0000
,
1000
0100
1000
0000
0001
0000
1000
0000
,
0001
0100
0010
0000
1000
0001
0100
0000
,
0002
2003
3002
2003
,
3002
2003
3002
2003
,
3002
2003
3002
2003
,
3020
0032
0203
2300
,
3002
2003
3002
2003
,
3002
2003
3002
2003
,
3002
2003
3002
2003
,
3002
0023
2030
3200
,
0301
0000
0000
0000
;

//---------------dance-single - [Ness]----------------
#NOTEDATA:;
#CHARTNAME:[Ness];
#STEPSTYPE:dance-single;
#DESCRIPTION:[Ness];
#CHARTSTYLE:;
#DIFFICULTY:Hard;
#METER:6;
#RADARVALUES:0.316403,0.345549,0.140492,0.223135,0.000000,268.000000,251.000000,17.000000,27.000000,0.000000,0.000000,0.000000,0.000000,0.000000,0.316403,0.345549,0.140492,0.223135,0.000000,268.000000,251.000000,17.000000,27.000000,0.000000,0.000000,0.000000,0.000000,0.000000;
#CREDIT:[Ness];
#NOTES:
// measure 0
0000
0000
0000
0000
,  // measure 1
0000
0000
0000
0000
,  // measure 2
0000
0000
0000
0000
,  // measure 3
0000
0000
0000
0000
,  // measure 4
0000
0000
0000
0000
,  // measure 5
0000
0000
0000
0000
,  // measure 6
0000
0000
0000
0000
,  // measure 7
0000
0000
0000
0000
,  // measure 8
0001
0100
0010
1000
0100
0000
0010
0000
,  // measure 9
0100
1000
0001
1000
,  // measure 10
0001
0010
0001
1000
0001
0000
0100
0000
,  // measure 11
0010
1000
0001
1000
,  // measure 12
0100
0010
0001
1000
0001
0000
0010
0000
,  // measure 13
0100
1000
0010
1000
,  // measure 14
0100
0010
0100
0010
0001
0000
1000
0000
,  // measure 15
0100
0010
1001
1001
,  // measure 16
0001
0100
0001
0000
1000
0000
0010
0000
,  // measure 17
1000
0100
0001
0000
0001
0100
1000
0000
,  // measure 18
0010
1000
0010
0000
0100
0000
0001
0000
,  // measure 19
1000
0100
0001
0000
0001
0100
1000
0000
,  // measure 20
0001
1000
0001
1000
0001
0100
0001
0000
,  // measure 21
1000
0010
0001
0000
0001
0010
1000
0000
,  // measure 22
0010
0100
0010
0100
0010
1000
0100
0000
,  // measure 23
1000
0100
1000
0000
0001
0010
0001
0000
,  // measure 24
2000
3002
2003
3002
,  // measure 25
2003
0000
3002
0000
1003
0100
0001
0000
,  // measure 26
0001
0100
1000
0000
1000
0100
0001
0000
,  // measure 27
0001
0100
1000
0000
1000
0100
0001
0000
,  // measure 28
2000
0100
3001
0000
0002
0100
1003
0000
,  // measure 29
2000
0100
3001
0000
0002
0100
1003
0000
,  // measure 30
2000
0010
3001
0000
0002
0010
1003
0000
,  // measure 31
2000
0010
3001
0000
1001
0000
0110
0000
,  // measure 32
1001
0000
0000
0000
,  // measure 33
1000
0100
1000
0000
0001
0000
0010
0000
,  // measure 34
0100
1000
0010
0001
,  // measure 35
1000
0100
0001
0100
,  // measure 36
1000
1100
0001
0101
,  // measure 37
1000
0000
1100
0000
0001
1000
0010
0000
,  // measure 38
0001
0011
1000
1010
,  // measure 39
0001
0011
1001
1001
,  // measure 40
0001
0000
0010
0100
0010
0000
0001
0000
,  // measure 41
1000
0000
0100
0010
0001
1000
0100
0000
,  // measure 42
1000
0110
0110
0001
,  // measure 43
1000
0000
0010
1000
0001
0100
0010
0000
,  // measure 44
1000
1001
1001
0100
,  // measure 45
0010
0000
1000
0100
0010
0001
0100
0000
,  // measure 46
0010
0100
0010
0000
1000
0001
1000
0000
,  // measure 47
0001
0010
0100
0000
1000
0001
0100
0000
,  // measure 48
0002
2003
3002
2003
,  // measure 49
3002
0000
2003
0000
3010
0001
0010
0000
,  // measure 50
1000
0001
1000
0000
0010
1000
0010
0000
,  // measure 51
0001
1000
0001
0000
0010
0001
0010
0000
,  // measure 52
2000
0001
3010
0000
0002
1000
0013
0000
,  // measure 53
2000
0001
3010
0000
0002
1000
0013
0000
,  // measure 54
2000
0001
3100
0000
0002
1000
0103
0000
,  // measure 55
2000
0001
3100
0000
0002
1000
0103
0000
;

//---------------dance-single - [Ness]----------------
#NOTEDATA:;
#CHARTNAME:[Ness];
#STEPSTYPE:dance-single;
#DESCRIPTION:[Ness];
#CHARTSTYLE:;
#DIFFICULTY:Challenge;
#METER:8;
#RADARVALUES:0.469882,0.509078,0.206606,0.000000,0.082643,398.000000,373.000000,25.000000,0.000000,0.000000,0.000000,0.000000,0.000000,0.000000,0.469882,0.509078,0.206606,0.000000,0.082643,398.000000,373.000000,25.000000,0.000000,0.000000,0.000000,0.000000,0.000000,0.000000;
#CREDIT:[Ness];
#NOTES:
0000
0000
0000
0000
,
0000
0000
0000
0000
,
0000
0000
0000
0000
,
0000
0000
0000
0000
,
0000
0000
0000
0000
,
0000
0000
0000
0000
,
0000
0000
0000
0000
,
0000
0000
0000
0000
,
1000
0001
0100
0001
1000
0000
1001
0000
,
0010
0100
0001
0000
0010
0100
1001
0000
,
0001
1000
0100
1000
0001
0000
1001
0000
,
0010
0001
1000
0000
0001
1000
1100
0000
,
1000
0100
0010
0001
0100
0000
0110
0000
,
0001
1000
0010
0000
1000
0001
0110
0000
,
0001
1000
0100
0010
0001
0000
1001
0000
,
0010
0000
0100
0000
0001
0000
0000
0000
1000
0010
0000
0000
1000
0001
0000
0000
,
1000
0100
0010
0001
0100
0010
0100
0001
,
0010
0100
1001
0000
0010
0100
1001
0000
,
0001
0100
1000
0100
0001
0010
0100
1000
,
0010
0100
0001
1000
0010
0100
1001
0000
,
1000
0100
1000
0100
1000
0100
0001
0100
,
0010
0001
0100
0000
0010
1000
1010
0000
,
1000
0001
0010
1000
0010
0001
1000
0001
,
0100
0010
1000
0001
0100
0010
1001
0000
,
1000
0000
0010
0000
1000
0000
0010
0000
1000
0000
0100
1000
0100
0000
0010
0000
,
0001
0000
0010
0000
0001
0000
0010
0000
0001
0000
0100
0001
0100
0000
0010
0000
,
1000
0000
0001
0000
1000
0000
0001
0000
1000
0000
0010
0100
0010
0000
1000
0000
,
0001
0000
1000
0000
0001
0000
1000
0000
0001
0000
0100
0010
0100
0000
0001
0000
,
0010
0000
0100
0000
1000
0000
0001
0000
0100
0000
0010
1000
0001
0000
0010
0000
,
0100
0000
1000
0000
0010
0000
0100
0000
0001
0000
1000
0100
0010
0000
0001
0000
,
1000
0000
0001
0000
0100
0000
0010
0000
1000
0000
0001
0100
0010
0000
1000
0000
,
0100
0000
0010
0000
0001
0000
1000
0000
0100
0000
0010
0100
1000
0000
0001
0000
,
0100
0001
0100
0001
0100
0001
0100
0001
,
1000
0010
0100
0001
1000
0001
1000
0001
,
1000
0010
1000
0010
1000
0010
1000
0010
,
1000
0001
1000
0001
1000
0001
1000
0001
,
1000
0100
1001
0100
1000
0100
1001
0100
,
1000
0100
1001
0100
0001
0100
1001
0100
,
0001
0010
1001
0010
0001
0010
1001
0010
,
1000
0000
0010
0000
1001
0000
0010
0000
1000
0001
0000
0000
0001
1000
0000
0000
,
0100
1000
0001
0100
0001
1000
0101
0000
,
0010
1000
0100
0010
0100
1000
0110
0000
,
0010
0001
1000
0001
0100
0010
1100
0000
,
0010
1000
0001
1000
0100
0010
0101
0000
,
0001
0010
0100
1000
0010
0100
1001
0000
,
0100
0001
1000
0100
0010
0100
1001
0000
,
0010
0001
0010
1000
0010
0001
1000
0001
,
0100
0010
1000
0001
0100
0010
0100
0000
,
0001
0000
1000
0000
0100
0000
0010
0000
0001
0000
1000
0010
0100
0000
0001
0000
,
1000
0000
0010
0000
0100
0000
0001
0000
0010
0000
0100
1000
0001
0000
0100
0000
,
0010
0000
1000
0000
0100
0000
0010
0000
0001
0000
1000
0001
0100
0000
0010
0000
,
1000
0000
0100
0000
0010
0000
0001
0000
0100
0000
0001
1000
0100
0000
0010
0000
,
0001
0000
0100
0000
0010
0000
1000
0000
0100
0000
0010
0100
1000
0000
0001
0000
,
0100
0000
0010
0000
1000
0000
0001
0000
0010
0000
0100
1000
0010
0000
0100
0000
,
0001
0000
1000
0000
0010
0000
0100
0000
0001
0000
0010
0100
1000
0000
0001
0000
,
0100
0000
0010
0000
0100
0000
0001
0000
1000
0000
0010
0100
0001
0000
1000
0000
,
0100
0000
0000
0000
;

//---------------dance-single - [Ness]----------------
#NOTEDATA:;
#CHARTNAME:[Ness];
#STEPSTYPE:dance-single;
#DESCRIPTION:[Ness];
#CHARTSTYLE:;
#DIFFICULTY:Beginner;
#METER:2;
#RADARVALUES:0.132228,0.208259,0.000000,0.000000,0.000000,112.000000,112.000000,0.000000,0.000000,0.000000,0.000000,0.000000,0.000000,0.000000,0.132228,0.208259,0.000000,0.000000,0.000000,112.000000,112.000000,0.000000,0.000000,0.000000,0.000000,0.000000,0.000000,0.000000;
#CREDIT:[Ness];
#NOTES:
0000
0000
0000
0000
,
0000
0000
0000
0000
,
0000
0000
0000
0000
,
0000
0000
0000
0000
,
0000
0000
0000
0000
,
0000
0000
0000
0000
,
0000
0000
0000
0000
,
0000
0000
0000
0000
,
0001
0000
0001
0000
,
0000
0000
0000
0000
,
1000
0000
1000
0000
,
0000
0000
0000
0000
,
0010
0000
0010
0000
,
0000
0000
0000
0000
,
0100
0000
0100
0000
,
0000
0000
0000
0000
,
0001
0000
0001
0000
,
1000
0000
1000
0000
,
0010
0000
0010
0000
,
0100
0000
0100
0000
,
0001
0000
0001
0000
,
1000
0000
1000
0000
,
0100
0000
0100
0000
,
0010
0000
0010
0000
,
0001
0001
0001
0001
,
0001
0001
0001
0001
,
0001
0001
0001
0001
,
0001
0001
0001
0001
,
0001
0001
0001
0001
,
0001
0001
0001
0001
,
0001
0001
0001
0001
,
0001
0001
0001
0001
,
0001
0000
0000
0000
,
0100
0000
0100
0000
,
1000
0000
0000
0000
,
1000
0000
0000
0000
,
0010
0000
0000
0000
,
1000
1000
1000
0000
,
0001
0000
0000
0000
,
0100
0000
0010
0010
,
0000
1000
0000
0000
,
0000
0001
0000
0000
,
0000
0100
0000
0000
,
0000
0010
0000
0000
,
0000
1000
0000
0000
,
0000
0100
0000
0000
,
0010
0000
0010
0000
,
0001
0000
0001
0000
,
1000
1000
1000
1000
,
1000
1000
1000
1000
,
1000
1000
1000
1000
,
1000
1000
1000
1000
,
1000
1000
1000
1000
,
1000
1000
1000
1000
,
1000
1000
1000
1000
,
1000
1000
1000
1000
,
1000
0000
0000
0000
;
