#VERSION:0.83;
#TITLE:Untouched;
#SUBTITLE:;
#ARTIST:The Veronicas;
#TITLETRANSLIT:;
#SUBTITLETRANSLIT:;
#ARTISTTRANSLIT:;
#GENRE:Hook Me Up;
#ORIGIN:;
#CREDIT:;
#BANNER:Untouched-bn.png;
#BACKGROUND:Black.png;
#PREVIEWVID:Untouched-preview.avi;
#JACKET:Untouched-jacket.png;
#CDIMAGE:;
#DISCIMAGE:Untouched-bg.png;
#LYRICSPATH:;
#CDTITLE:;
#MUSIC:Untouched.mp3;
#OFFSET:-0.017000;
#SAMPLESTART:66.449615;
#SAMPLELENGTH:10.847458;
#SELECTABLE:YES;
#BPMS:0.000=177.000;
#STOPS:;
#DELAYS:;
#WARPS:;
#TIMESIGNATURES:0.000=4=4;
#TICKCOUNTS:0.000=2;
#COMBOS:0.000=1;
#SPEEDS:0.000=1.000=0.000=0;
#SCROLLS:0.000=1.000;
#FAKES:;
#LABELS:0.000=Song Start;
#LASTSECONDHINT:143.777740;
#BGCHANGES:-0.500=Untouched-video.avi=1.000=0=0=0=StretchNoLoop====,
99999=-nosongbg-=1.000=0=0=0 // don't automatically add -songbackground-
;
#KEYSOUNDS:;
#ATTACKS:
;

//---------------dance-single - ----------------
#NOTEDATA:;
#CHARTNAME:;
#STEPSTYPE:dance-single;
#DESCRIPTION:;
#CHARTSTYLE:;
#DIFFICULTY:Hard;
#METER:9;
#RADARVALUES:0.598437,0.613459,0.392724,0.668320,0.096459,608.000000,551.000000,57.000000,97.000000,0.000000,0.000000,0.000000,0.000000,0.000000,0.598437,0.613459,0.392724,0.668320,0.096459,608.000000,551.000000,57.000000,97.000000,0.000000,0.000000,0.000000,0.000000,0.000000;
#CREDIT:;
#NOTES:
// measure 0
0000
0000
0000
0000
,  // measure 1
0000
0000
0000
0000
,  // measure 2
0000
0000
0000
0000
,  // measure 3
0000
0000
0000
0000
,  // measure 4
0000
0000
0000
0000
,  // measure 5
0000
0000
0000
0000
,  // measure 6
0000
0000
0000
0000
,  // measure 7
0000
0000
0000
0000
,  // measure 8
0000
0000
0000
0000
,  // measure 9
0010
1010
0001
1001
,  // measure 10
0100
0000
1100
0000
0200
0320
0230
0320
,  // measure 11
0032
0003
0101
0000
0100
0000
1100
0000
,  // measure 12
0010
0000
1010
0000
2000
3020
2030
3020
,  // measure 13
0032
0003
0011
0000
0010
0000
1100
0000
,  // measure 14
0100
0000
1001
0000
0200
0320
0230
0320
,  // measure 15
2030
3000
1100
0000
0100
0000
1001
0000
,  // measure 16
0100
0000
0011
0000
2000
3020
0230
0301
,  // measure 17
1002
0000
1003
0001
1000
0001
0100
0001
,  // measure 18
0100
0001
1000
0001
0020
0230
2300
3002
,  // measure 19
0203
0000
0301
0100
0001
0100
0010
1000
,  // measure 20
0010
1000
0100
1000
0002
0023
0230
2300
,  // measure 21
3020
0000
1030
0010
1000
0010
0100
0001
,  // measure 22
0100
0001
1000
0100
0020
0032
2003
3002
,  // measure 23
0203
0300
0100
0020
2030
3000
1000
0002
,  // measure 24
0203
0300
0100
0002
0023
0030
0220
0330
,  // measure 25
1001
1000
0200
0000
1000
0000
1300
0000
,  // measure 26
0010
1000
0001
0000
0022
0033
0022
0033
,  // measure 27
0010
0000
0001
1000
0001
0020
0000
0000
,  // measure 28
0031
1000
0001
0020
0000
0000
0031
1000
,  // measure 29
0100
0000
1100
0000
0100
0000
1100
0100
,  // measure 30
0000
0100
1000
0100
0001
0100
1000
0100
,  // measure 31
0010
0100
1000
0000
0001
0000
1001
0000
,  // measure 32
0001
0001
1000
1000
0010
0010
0100
0100
,  // measure 33
0001
0010
0100
1000
0001
0010
1000
0001
,  // measure 34
0100
0000
1100
0000
0001
1000
0100
0000
,  // measure 35
1100
0000
0101
0000
1001
0000
0100
0010
,  // measure 36
0000
0001
0100
0000
0110
0000
1001
0000
,  // measure 37
0000
0001
0100
1000
0100
0010
0100
0001
,  // measure 38
1000
0000
0010
0100
0000
0010
1000
0001
,  // measure 39
0010
0001
0010
1000
0010
0100
0010
0001
,  // measure 40
1000
0010
0100
0001
1000
0100
1000
0001
,  // measure 41
0020
0100
0130
0000
2000
0001
3001
0000
,  // measure 42
0200
0010
0310
0000
1000
0001
0100
0010
,  // measure 43
1000
0100
0010
0001
0200
0010
0310
1000
,  // measure 44
0001
0100
0010
1000
0002
0100
0103
0000
,  // measure 45
0001
0010
0100
1000
0001
0000
1000
0010
,  // measure 46
0100
0001
0100
1000
0100
0010
0100
0001
,  // measure 47
1000
0010
0200
0000
0000
0000
0000
0000
,  // measure 48
0300
0000
0000
0000
,  // measure 49
0001
0000
1100
0000
0001
0000
1100
0200
,  // measure 50
0000
0000
1300
0000
0001
0000
0000
0000
0100
0001
0000
0000
1000
0100
0000
0000
,  // measure 51
0010
0000
0011
0000
1000
0000
0011
0020
,  // measure 52
0000
0000
0031
0000
1000
0000
0000
0000
0010
1000
0000
0000
0001
0010
0000
0000
,  // measure 53
0100
0000
1100
0000
0100
0000
1001
0002
,  // measure 54
0000
0000
0103
0000
0010
0000
0000
0000
1000
0010
0000
0000
0100
0001
0000
0000
,  // measure 55
1000
0100
1000
0001
0100
0000
0010
0100
,  // measure 56
0000
0000
0001
0000
1000
0000
0000
0000
0001
0100
0000
0000
0100
0010
0000
0000
,  // measure 57
2010
0000
3002
0000
1003
0000
0110
0200
,  // measure 58
0000
0000
0301
0000
0010
0000
0100
0000
1000
0100
0000
0000
0001
0010
0000
0000
,  // measure 59
0012
0000
2003
0000
3001
0000
0110
0200
,  // measure 60
0000
0000
0310
0000
1000
0000
0001
0000
0010
0100
0000
0000
1000
0001
0000
0000
,  // measure 61
0102
0000
2003
0000
3100
0000
0110
0020
,  // measure 62
0000
0000
0031
0000
0100
0000
0010
0000
1000
0010
0000
0000
0100
0001
0000
0000
,  // measure 63
1000
0010
0200
0000
0301
1000
0100
0010
,  // measure 64
0001
1000
0010
0200
0000
0010
0310
0000
,  // measure 65
0110
1000
0000
0100
0000
0001
0000
0100
,  // measure 66
0000
2000
0000
0010
0000
3001
0100
0010
,  // measure 67
1000
0100
0000
0010
0000
0001
0000
1000
,  // measure 68
0000
0200
0000
0001
0000
0310
0100
1000
,  // measure 69
0001
0200
0000
1000
0000
0010
0000
0301
,  // measure 70
0000
1000
0010
1000
0001
0100
0001
1000
,  // measure 71
0100
0020
0000
0001
0000
1000
0000
0130
,  // measure 72
0010
0001
1000
0001
0100
0010
1000
0001
,  // measure 73
0100
0101
1000
1100
,  // measure 74
0001
0000
1001
0000
0010
1000
0001
0000
,  // measure 75
0010
0011
1000
1001
,  // measure 76
0010
0000
1010
0000
0100
1000
0001
0000
,  // measure 77
0100
0110
1000
1001
,  // measure 78
0010
0001
1000
0000
0010
1000
0001
0000
,  // measure 79
0010
0001
0010
0001
1000
0010
1000
0010
,  // measure 80
0100
0001
1000
0200
0000
0010
0310
0000
,  // measure 81
1000
0100
0001
0100
1000
0000
0101
0200
,  // measure 82
0000
0000
0310
0000
1000
0000
0000
0000
0100
1000
0000
0000
0001
0100
0000
0000
,  // measure 83
0010
0001
0100
0001
1000
0000
0110
0020
,  // measure 84
0000
0000
1030
0000
0100
0000
0000
0000
0010
0001
0000
0000
1000
0010
0000
0000
,  // measure 85
0100
0001
1000
0100
0010
0000
1001
2000
,  // measure 86
0000
0000
3001
0000
0100
0000
0000
0000
0001
0010
0000
0000
0100
1000
0000
0000
,  // measure 87
0001
0010
0100
1000
0001
0000
0010
0100
,  // measure 88
0000
0000
1000
0000
0001
0000
0000
0000
1000
0100
0000
0000
0100
0010
0000
0000
,  // measure 89
0012
0000
2003
0000
3001
0000
0110
0200
,  // measure 90
0000
0000
1300
0000
0010
0000
0100
0000
0001
0100
0000
0000
0010
1000
0000
0000
,  // measure 91
2010
0000
3002
0000
1003
0000
0110
0200
,  // measure 92
0000
0000
0310
0000
1000
0000
0001
0000
0010
0100
0000
0000
1000
0001
0000
0000
,  // measure 93
2100
0000
3002
0000
0103
0000
0110
0020
,  // measure 94
0000
0000
1030
0000
0100
0000
0010
0000
0001
0010
0000
0000
0100
1000
0000
0000
,  // measure 95
0001
0010
0200
0000
1300
0001
0100
0010
,  // measure 96
1000
0001
0010
0200
0000
0010
0310
0000
,  // measure 97
0011
0000
2000
0000
,  // measure 98
0002
0000
3000
0000
1003
0100
1000
0100
,  // measure 99
0010
0000
0002
0000
,  // measure 100
0203
0000
0000
0000
0310
1000
0010
1000
,  // measure 101
0100
0000
0020
0000
,  // measure 102
0230
0000
0000
0000
1300
0001
1000
0001
,  // measure 103
0200
0000
0300
0100
0020
0000
0030
0010
,  // measure 104
2000
0000
3000
1000
0001
0000
0100
0000
;

//---------------dance-single - ----------------
#NOTEDATA:;
#CHARTNAME:;
#STEPSTYPE:dance-single;
#DESCRIPTION:;
#CHARTSTYLE:;
#DIFFICULTY:Medium;
#METER:6;
#RADARVALUES:0.428158,0.505202,0.303156,0.268706,0.000000,435.000000,391.000000,44.000000,39.000000,0.000000,0.000000,0.000000,0.000000,0.000000,0.428158,0.505202,0.303156,0.268706,0.000000,435.000000,391.000000,44.000000,39.000000,0.000000,0.000000,0.000000,0.000000,0.000000;
#CREDIT:;
#NOTES:
// measure 0
0000
0000
0000
0000
,  // measure 1
0000
0000
0000
0000
,  // measure 2
0000
0000
0000
0000
,  // measure 3
0000
0000
0000
0000
,  // measure 4
0000
0000
0000
0000
,  // measure 5
0000
0000
0000
0000
,  // measure 6
0000
0000
0000
0000
,  // measure 7
0000
0000
0000
0000
,  // measure 8
0000
0000
0000
0000
,  // measure 9
0010
1000
0100
0010
,  // measure 10
0001
0000
0100
0000
0010
0100
0010
0100
,  // measure 11
0001
1000
0010
0100
,  // measure 12
0001
0000
0010
0000
0100
1000
0100
1000
,  // measure 13
0001
1000
0100
0010
,  // measure 14
0001
0000
1000
0000
0010
0100
0010
0100
,  // measure 15
0010
1000
0001
0100
,  // measure 16
0010
0000
1000
0000
0001
1000
0001
1000
,  // measure 17
0001
0010
0100
1000
,  // measure 18
0010
0000
0100
0000
0001
1000
0010
0100
,  // measure 19
0001
0010
0100
1000
,  // measure 20
0001
0000
1000
0000
0100
0010
0001
1000
,  // measure 21
0100
0010
0001
1000
,  // measure 22
0010
0000
0100
0000
0001
1000
0010
0100
,  // measure 23
0001
0000
0000
0001
1000
0000
0000
1000
,  // measure 24
0001
0000
0000
0001
1000
0000
1001
0000
,  // measure 25
0000
0010
0100
0000
0010
0000
0010
0000
,  // measure 26
0100
0010
0110
0110
,  // measure 27
0000
0000
2000
0000
3001
1000
0000
0000
,  // measure 28
0002
0000
0103
0001
0000
0000
1000
0010
,  // measure 29
1000
0000
1010
0000
1010
0000
1000
0001
,  // measure 30
0000
1000
0000
0001
0100
0000
0010
0000
,  // measure 31
1000
0100
0010
0001
,  // measure 32
1000
0100
1000
0000
0001
0000
1000
0000
,  // measure 33
0001
0100
0001
0000
0100
0000
0010
0000
,  // measure 34
0110
0000
0110
0000
1000
0001
1000
0000
,  // measure 35
0100
0000
0010
0000
0001
0000
1000
0001
,  // measure 36
0000
0100
0001
0000
0101
0000
0101
0000
,  // measure 37
0000
0010
0100
0000
0001
0000
1000
0000
,  // measure 38
0001
0000
0010
0001
0000
0000
1000
0000
,  // measure 39
0010
0100
0010
1000
,  // measure 40
0100
0010
0001
1000
,  // measure 41
0001
0100
0001
0000
1000
0010
1000
0000
,  // measure 42
0100
0010
0100
0000
0010
0001
0010
0000
,  // measure 43
0001
1000
0001
0000
0100
0001
0100
0000
,  // measure 44
0010
1000
0010
0000
1000
0001
1000
0000
,  // measure 45
0100
0010
0001
1000
,  // measure 46
0010
0000
0100
0000
0001
1000
0010
0100
,  // measure 47
0001
0000
0000
0001
1000
0000
0000
1000
,  // measure 48
0100
0000
0000
0100
0010
0000
0010
0000
,  // measure 49
2002
0000
3003
0000
0200
0000
0300
0010
,  // measure 50
0000
1000
0001
0100
,  // measure 51
2002
0000
3003
0000
0002
0000
0003
0010
,  // measure 52
0000
0100
1000
0001
,  // measure 53
0220
0000
0330
0000
2000
0000
3000
0100
,  // measure 54
0000
0010
0001
1000
,  // measure 55
0001
0000
0100
0010
0100
0000
0010
1000
,  // measure 56
0000
0001
0010
0000
0100
0000
0100
0000
,  // measure 57
1000
1100
0001
0101
,  // measure 58
1000
1100
0001
0101
,  // measure 59
1000
1001
0100
0110
,  // measure 60
0001
1001
0010
0110
,  // measure 61
1000
1010
0001
0011
,  // measure 62
1000
1010
0001
0011
,  // measure 63
1000
0010
0100
0001
,  // measure 64
1000
0010
0100
0001
0000
1000
0000
0000
,  // measure 65
2002
0000
3003
0000
0020
0000
0030
0001
,  // measure 66
0000
1000
0100
0010
,  // measure 67
0022
0000
0033
0000
0200
0000
0300
0010
,  // measure 68
0000
1000
0100
0010
,  // measure 69
0220
0000
0330
0000
0020
0000
0030
0001
,  // measure 70
0000
1000
0010
0100
,  // measure 71
0000
0000
0001
1000
0001
0000
0010
0100
,  // measure 72
0000
0100
1000
0000
0010
0000
0100
0000
,  // measure 73
0002
0100
0000
0103
,  // measure 74
0020
0100
0000
0130
,  // measure 75
2000
0100
0000
3100
,  // measure 76
0020
0100
0000
0130
,  // measure 77
0002
0010
0000
0013
,  // measure 78
0200
0010
0000
0310
,  // measure 79
2000
0010
0000
3010
,  // measure 80
0100
0010
0100
0010
0100
0010
0100
0000
,  // measure 81
0001
0101
0001
0101
,  // measure 82
1000
1010
1000
1010
,  // measure 83
0010
0110
1000
1001
,  // measure 84
0100
0110
0001
1001
,  // measure 85
1000
1100
0010
1100
,  // measure 86
0001
1100
0010
1100
,  // measure 87
1000
0101
0010
0101
,  // measure 88
1000
0101
0010
0101
,  // measure 89
2002
0000
3003
0000
0200
0000
0300
0010
,  // measure 90
0000
1000
0001
1000
,  // measure 91
0100
1000
0100
1000
0200
0000
0300
0010
,  // measure 92
0000
0001
1000
0001
,  // measure 93
0100
0001
0100
0001
2000
0000
3000
0010
,  // measure 94
0000
0100
0001
1000
,  // measure 95
0100
0010
0100
0000
0010
0000
0001
0000
,  // measure 96
1000
0100
0010
0001
0000
1000
0000
0000
,  // measure 97
0000
0000
0002
0000
,  // measure 98
2003
0000
3002
0000
,  // measure 99
0003
0000
0200
0000
,  // measure 100
0320
0000
0130
0000
,  // measure 101
0000
0000
0002
0000
,  // measure 102
2003
0000
0000
0000
3100
0010
0100
0010
,  // measure 103
0100
0000
0000
0100
1000
0000
0000
1000
,  // measure 104
0001
0000
0000
0001
0100
0000
0100
0000
;

//---------------dance-single - ----------------
#NOTEDATA:;
#CHARTNAME:;
#STEPSTYPE:dance-single;
#DESCRIPTION:;
#CHARTSTYLE:;
#DIFFICULTY:Easy;
#METER:4;
#RADARVALUES:0.292329,0.354830,0.041339,0.330715,0.000000,297.000000,291.000000,6.000000,48.000000,0.000000,0.000000,0.000000,0.000000,0.000000,0.292329,0.354830,0.041339,0.330715,0.000000,297.000000,291.000000,6.000000,48.000000,0.000000,0.000000,0.000000,0.000000,0.000000;
#CREDIT:;
#NOTES:
// measure 0
0000
0000
0000
0000
,  // measure 1
0000
0000
0000
0000
,  // measure 2
0000
0000
0000
0000
,  // measure 3
0000
0000
0000
0000
,  // measure 4
0000
0000
0000
0000
,  // measure 5
0000
0000
0000
0000
,  // measure 6
0000
0000
0000
0000
,  // measure 7
0000
0000
0000
0000
,  // measure 8
0000
0000
0010
0001
,  // measure 9
0200
0000
0310
0000
,  // measure 10
1000
0000
0001
1000
,  // measure 11
0200
0000
0310
0000
,  // measure 12
0001
0000
1000
0010
,  // measure 13
0200
0000
0310
0000
,  // measure 14
1000
0000
0001
0010
,  // measure 15
0200
0000
0310
0000
,  // measure 16
0001
0000
1000
0001
,  // measure 17
0200
0000
0310
1000
,  // measure 18
0010
1000
0020
0000
,  // measure 19
0230
0000
0301
0100
,  // measure 20
0001
0100
0002
0000
,  // measure 21
2003
0000
3100
1000
,  // measure 22
0100
1000
0200
0000
,  // measure 23
0320
0000
0032
0000
,  // measure 24
2003
0000
3020
0000
,  // measure 25
0130
0100
0010
0010
,  // measure 26
1000
1000
1001
1001
,  // measure 27
0000
0002
2000
3003
,  // measure 28
2000
0002
3003
1000
,  // measure 29
0001
1000
0001
1000
,  // measure 30
0001
1000
0001
1000
,  // measure 31
0001
1000
0001
1000
,  // measure 32
0001
0100
0010
1000
,  // measure 33
0001
0001
1000
1000
,  // measure 34
0001
0001
1000
1000
,  // measure 35
0010
0001
0010
0001
,  // measure 36
0010
1000
0010
1000
,  // measure 37
0001
1000
0001
1000
,  // measure 38
0001
1000
0001
1000
,  // measure 39
0100
0001
0100
1000
,  // measure 40
0010
0001
0100
1000
,  // measure 41
0001
1000
0001
1000
,  // measure 42
0001
0100
0010
1000
,  // measure 43
0001
1000
0001
1000
,  // measure 44
0001
0010
0100
1000
,  // measure 45
0010
0100
0001
1000
,  // measure 46
0100
0010
0100
0010
,  // measure 47
0002
0000
2003
0000
,  // measure 48
3100
0000
0000
0000
,  // measure 49
0020
0000
0032
0000
,  // measure 50
1003
0100
0010
0001
,  // measure 51
2000
0000
3002
0000
,  // measure 52
0103
0010
1000
0001
,  // measure 53
0020
0000
0230
0000
,  // measure 54
1300
0100
0010
0001
,  // measure 55
2000
0000
3002
0000
,  // measure 56
0103
0010
1000
0100
,  // measure 57
1000
0010
1000
0001
,  // measure 58
1000
0010
1000
0001
,  // measure 59
1000
0100
1000
0001
,  // measure 60
1000
0100
1000
0001
,  // measure 61
0010
0001
1000
0001
,  // measure 62
0100
0001
1000
0001
,  // measure 63
0010
0001
1000
0001
,  // measure 64
0100
0001
1000
0001
,  // measure 65
0010
0000
0010
0000
,  // measure 66
0100
0000
1000
0100
,  // measure 67
0010
0000
0001
0000
,  // measure 68
1000
0000
0001
0100
,  // measure 69
0010
0000
1000
0000
,  // measure 70
0001
0000
0010
0100
,  // measure 71
1000
0000
0001
0000
,  // measure 72
0100
0000
0010
0000
,  // measure 73
2010
0000
3001
0000
,  // measure 74
0012
0000
1003
0000
,  // measure 75
2100
0000
3001
0000
,  // measure 76
0102
0000
1003
0000
,  // measure 77
0010
1000
0100
0000
,  // measure 78
0010
0001
0100
0000
,  // measure 79
0010
0100
0010
0000
,  // measure 80
1000
0001
0100
0000
,  // measure 81
0002
0000
2003
0000
,  // measure 82
3100
0010
0001
1000
,  // measure 83
0020
0000
0230
0000
,  // measure 84
0301
1000
0100
0010
,  // measure 85
0200
0000
2300
0000
,  // measure 86
3001
0100
1000
0100
,  // measure 87
0002
0000
0023
0000
,  // measure 88
0130
1000
0010
0100
,  // measure 89
0010
1000
0010
0100
,  // measure 90
0010
0001
0010
0100
,  // measure 91
1000
0100
0010
0100
,  // measure 92
0001
0100
0010
0100
,  // measure 93
0001
1000
0010
0100
,  // measure 94
0001
0010
0100
1000
,  // measure 95
0001
1000
0010
0100
,  // measure 96
0001
0010
0100
1000
,  // measure 97
0000
0000
0002
0000
,  // measure 98
2003
0000
3002
0000
,  // measure 99
0003
0000
0200
0000
,  // measure 100
0320
0000
0030
0000
,  // measure 101
0000
0000
0002
0000
,  // measure 102
2003
0000
3200
0000
,  // measure 103
0300
0000
0000
0000
;

//---------------dance-single - ----------------
#NOTEDATA:;
#CHARTNAME:;
#STEPSTYPE:dance-single;
#DESCRIPTION:;
#CHARTSTYLE:;
#DIFFICULTY:Beginner;
#METER:2;
#RADARVALUES:0.159452,0.180429,0.000000,0.165358,0.000000,162.000000,162.000000,0.000000,24.000000,0.000000,0.000000,0.000000,0.000000,0.000000,0.159452,0.180429,0.000000,0.165358,0.000000,162.000000,162.000000,0.000000,24.000000,0.000000,0.000000,0.000000,0.000000,0.000000;
#CREDIT:;
#NOTES:
// measure 0
0000
0000
0000
0000
,  // measure 1
0000
0000
0000
0000
,  // measure 2
0000
0000
0000
0000
,  // measure 3
0000
0000
0000
0000
,  // measure 4
0000
0000
0000
0000
,  // measure 5
0000
0000
0000
0000
,  // measure 6
0000
0000
0000
0000
,  // measure 7
0000
0000
0000
0000
,  // measure 8
0000
0000
0000
0000
,  // measure 9
0100
0000
0100
0000
,  // measure 10
0100
0000
0001
0000
,  // measure 11
1000
0000
1000
0000
,  // measure 12
1000
0000
0100
0000
,  // measure 13
0010
0000
0010
0000
,  // measure 14
0010
0000
0001
0000
,  // measure 15
0100
0000
0100
0000
,  // measure 16
0100
0000
0010
0000
,  // measure 17
1000
0000
1000
0000
,  // measure 18
1000
0000
0100
0000
,  // measure 19
0010
0000
0010
0000
,  // measure 20
0010
0000
0001
0000
,  // measure 21
1000
0000
1000
0000
,  // measure 22
1000
0000
0001
0000
,  // measure 23
0100
0000
0010
0000
,  // measure 24
1000
0000
0001
0000
,  // measure 25
0200
0000
0300
0000
,  // measure 26
0020
0000
0030
0000
,  // measure 27
2000
0000
3000
0000
,  // measure 28
0002
0000
0003
0000
,  // measure 29
0010
0000
0010
0000
,  // measure 30
0010
0000
0010
0000
,  // measure 31
0010
0000
0010
0000
,  // measure 32
0100
0000
0100
0000
,  // measure 33
2000
0000
3000
0000
,  // measure 34
0002
0000
0003
0000
,  // measure 35
0200
0000
0300
0000
,  // measure 36
0020
0000
0030
0000
,  // measure 37
2000
0000
3000
0000
,  // measure 38
0002
0000
0003
0000
,  // measure 39
0020
0000
0030
0000
,  // measure 40
0200
0000
0300
0000
,  // measure 41
1000
0000
1000
0000
,  // measure 42
1000
0000
1000
0000
,  // measure 43
0100
0000
0100
0000
,  // measure 44
0100
0000
0100
0000
,  // measure 45
0001
0000
0001
0000
,  // measure 46
0001
0000
0001
0000
,  // measure 47
0002
0000
0003
0000
,  // measure 48
0000
0000
0000
0000
,  // measure 49
0010
0000
0010
0000
,  // measure 50
0010
0000
0001
0000
,  // measure 51
0100
0000
0100
0000
,  // measure 52
0100
0000
0100
0000
,  // measure 53
1000
0000
1000
0000
,  // measure 54
1000
0000
1000
0000
,  // measure 55
0100
0000
0100
0000
,  // measure 56
0010
0000
0010
0000
,  // measure 57
0001
0000
1000
0000
,  // measure 58
0001
0000
0001
0000
,  // measure 59
1000
0000
0001
0000
,  // measure 60
1000
0000
1000
0000
,  // measure 61
0010
0000
0100
0000
,  // measure 62
0010
0000
0100
0000
,  // measure 63
0001
0000
0010
0000
,  // measure 64
0100
0000
1000
0000
,  // measure 65
0200
0000
0000
0000
,  // measure 66
0300
0000
1000
0000
,  // measure 67
0020
0000
0000
0000
,  // measure 68
0030
0000
0100
0000
,  // measure 69
0002
0000
0000
0000
,  // measure 70
0003
0000
0010
0000
,  // measure 71
0200
0000
0000
0000
,  // measure 72
0300
0000
0000
0000
,  // measure 73
0000
1000
0000
1000
,  // measure 74
0000
1000
0000
1000
,  // measure 75
0000
0001
0000
0001
,  // measure 76
0000
0001
0000
0001
,  // measure 77
0000
0100
0000
0100
,  // measure 78
0000
0100
0000
0100
,  // measure 79
0000
0010
0000
0010
,  // measure 80
0000
0010
0000
0010
,  // measure 81
0010
0000
0010
0000
,  // measure 82
1000
0000
0001
0000
,  // measure 83
0010
0000
0010
0000
,  // measure 84
0001
0000
1000
0000
,  // measure 85
0100
0000
0001
0000
,  // measure 86
0100
0000
1000
0000
,  // measure 87
0001
0000
1000
0000
,  // measure 88
0001
0000
1000
0000
,  // measure 89
0010
0000
0100
0000
,  // measure 90
0001
0000
0010
0000
,  // measure 91
0001
0000
0100
0000
,  // measure 92
0010
0000
1000
0000
,  // measure 93
0100
0000
1000
0000
,  // measure 94
0010
0000
0100
0000
,  // measure 95
0010
0000
1000
0000
,  // measure 96
0001
0000
0010
0000
,  // measure 97
0200
0000
0300
0000
,  // measure 98
0000
0000
1000
0000
,  // measure 99
2000
0000
3000
0000
,  // measure 100
0000
0000
0001
0000
,  // measure 101
0002
0000
0003
0000
,  // measure 102
0000
0000
0100
0000
,  // measure 103
0200
0300
0200
0300
,  // measure 104
0200
0300
0200
0300
;
