#TITLE:Ultraviolence;
#SUBTITLE:(Hook & Sling Remix);
#ARTIST:Lana Del Rey;
#TITLETRANSLIT:;
#SUBTITLETRANSLIT:;
#ARTISTTRANSLIT:;
#GENRE:Ultraviolence;
#CREDIT:;
#BANNER:Ultraviolence (Hook & Sling Remix)-bn.png;
#BACKGROUND:Ultraviolence (Hook & Sling Remix)-bg.png;
#LYRICSPATH:;
#CDTITLE:;
#MUSIC:Ultraviolence (Hook & Sling Remix).mp3;
#OFFSET:-0.017000;
#SAMPLESTART:52.513000;
#SAMPLELENGTH:15.000008;
#LASTBEATHINT:248.159363;
#SELECTABLE:YES;
#BPMS:0.000000=128.000000
;
#STOPS:
;
#BGCHANGES:0.000=Ultraviolence (Hook & Sling Remix)-video.avi=1.000=0=0=0=StretchNoLoop====,
99999=-nosongbg-=1.000=0=0=0 // don't automatically add -songbackground-
;
#KEYSOUNDS:;
#ATTACKS:;

//---------------dance-single - ----------------
#NOTES:
     dance-single:
     :
     Challenge:
     10:
     0.590924,0.799674,0.013153,0.013153,0.282779,625.000000,2.000000,2.000000,0.000000,0.000000,0.000000,0.590924,0.799674,0.013153,0.013153,0.282779,625.000000,2.000000,2.000000,0.000000,0.000000,0.000000:
// measure 0
0000
0000
0000
0000
,  // measure 1
0000
0000
0000
0000
,  // measure 2
0000
0000
0000
0000
,  // measure 3
0000
0000
0000
0000
,  // measure 4
1000
0010
0100
0001
0100
0001
0100
0001
,  // measure 5
1000
0010
0100
0001
0100
0001
0100
0001
,  // measure 6
0010
0100
1000
0001
1000
0001
1000
0001
,  // measure 7
0010
0100
1000
0001
1000
0001
1000
0001
,  // measure 8
0100
0010
1000
0001
1000
0001
1000
0001
,  // measure 9
0100
0010
1000
0001
1000
0001
1000
0001
,  // measure 10
0100
1000
0100
0001
0100
0001
0100
0001
,  // measure 11
0100
1000
0100
0001
0100
0001
0100
0001
,  // measure 12
1000
0010
0100
1000
0100
0001
0010
0100
,  // measure 13
0001
0100
1000
0010
1000
0100
0010
0100
,  // measure 14
1000
0010
0001
0010
0100
0001
0010
0100
,  // measure 15
0010
0001
1000
0010
0100
1000
0100
0001
,  // measure 16
0010
0001
1000
0010
1000
0100
0010
0100
,  // measure 17
1000
0010
0100
1000
0100
0001
0010
0100
,  // measure 18
0010
0001
0100
1000
0100
0010
1000
0001
,  // measure 19
0010
0100
0010
0001
0100
0010
1000
0001
,  // measure 20
0100
0010
0100
0001
0100
0010
0100
1000
,  // measure 21
0100
0010
0100
0001
0010
0100
0010
0001
,  // measure 22
1000
0010
0100
0010
1000
0010
0100
0010
,  // measure 23
1000
0000
0010
0000
0100
0000
0001
0000
1000
0000
0100
0000
0010
0000
0001
1000
,  // measure 24
0010
0100
0010
1000
0010
0100
0010
1000
0100
0010
0100
1000
0100
0010
0100
1000
,  // measure 25
0001
0010
0100
0010
0001
0010
0100
0010
0001
1000
0010
0100
0001
1000
0010
0100
,  // measure 26
0001
0100
0010
1000
0001
0100
0010
1000
0001
0010
0100
1000
0001
0010
0100
1000
,  // measure 27
0002
0000
0000
0103
,  // measure 28
1001
0000
0010
0000
0100
0000
0001
0100
0000
0100
0010
0000
1000
0000
0000
0000
,  // measure 29
0100
0000
0010
0000
0100
0000
0001
0010
0000
0010
0100
0000
1000
0000
0000
0000
,  // measure 30
0010
0000
1000
0000
0100
0000
0010
0100
0000
0100
1000
0000
0001
0000
0000
0000
,  // measure 31
1000
0000
0010
0000
0100
0000
0001
0010
0000
0100
1000
0000
0001
0000
0100
0000
,  // measure 32
0010
0000
1000
0000
0100
0000
0010
0001
0000
0001
0100
0000
0010
0000
1000
0000
,  // measure 33
0001
0000
0100
0000
0010
0000
0100
0001
0000
0001
1000
0000
0100
0000
0000
0000
,  // measure 34
0010
0000
0100
0000
1000
0000
0010
1000
0000
1000
0100
0000
0010
0000
0001
0000
,  // measure 35
0100
0000
0010
0000
0100
0000
0001
1000
0010
0100
0001
0010
0100
1000
0010
0100
,  // measure 36
0001
0000
0010
0000
0100
0000
1000
0100
0000
0100
1000
0000
0100
0000
0000
0000
,  // measure 37
0010
0000
0001
0000
0100
0000
0010
0100
0000
0100
0001
0000
0010
0000
0000
0000
,  // measure 38
0100
0000
1000
0000
0010
0000
1000
0100
0000
0010
0001
0000
0100
0000
0000
0000
,  // measure 39
0010
0000
0100
0000
0001
0000
1000
0100
0000
0001
0100
0000
0010
0000
0000
0000
,  // measure 40
0100
0000
0001
0000
0010
0000
0100
1000
0000
0001
0100
0000
0010
0000
0000
0000
,  // measure 41
1000
0000
0100
0000
0010
0000
0001
1000
0000
0010
0100
0000
0001
0000
0000
0000
,  // measure 42
0010
0000
0100
0000
0010
0000
0001
1000
0000
0010
0100
0000
0001
0000
0000
0000
,  // measure 43
1000
0000
0010
0000
0100
0000
0001
0100
0010
1000
0001
0100
0010
0000
0000
0000
,  // measure 44
1000
0100
0010
0001
0010
0001
0010
0001
,  // measure 45
1000
0010
0100
0001
0100
0001
0100
0001
,  // measure 46
1000
0100
0001
0100
0001
0100
0001
0100
,  // measure 47
1000
0010
0001
0010
0001
0010
0001
0010
,  // measure 48
0100
0001
1000
0100
1000
0100
1000
0100
,  // measure 49
0010
0001
1000
0010
1000
0010
1000
0010
,  // measure 50
0100
1000
0100
0001
0100
0001
0100
0001
,  // measure 51
0010
0001
1000
0001
1000
0001
1000
0001
,  // measure 52
0010
0001
0100
0010
1000
0100
0010
0100
,  // measure 53
1000
0010
0100
0001
0010
0100
0010
0001
,  // measure 54
1000
0010
0100
0001
0010
0100
1000
0001
,  // measure 55
0100
0010
0100
0001
0010
0100
1000
0010
,  // measure 56
1000
0100
0010
0100
1000
0001
0100
0010
,  // measure 57
1000
0001
0010
0001
0100
0010
0100
0010
,  // measure 58
1000
0100
0010
0001
1000
0100
1000
0010
,  // measure 59
0100
0001
0100
0010
1000
0100
0010
0001
,  // measure 60
1000
0010
0100
0001
0010
0100
0010
0001
,  // measure 61
1000
0100
0010
0100
1000
0001
0100
0010
,  // measure 62
0100
0001
0010
0100
1000
0010
1000
0100
,  // measure 63
0010
0100
1000
0001
0100
0010
0100
0001
,  // measure 64
1000
0100
0010
0001
0010
0100
0010
0001
,  // measure 65
0100
0010
1000
0010
0100
0010
1000
0010
,  // measure 66
0100
0001
0010
0001
0100
0001
0010
0001
,  // measure 67
0100
0010
1000
0100
0010
0001
0100
0010
,  // measure 68
0100
0001
1000
0010
0100
0001
1000
0010
,  // measure 69
0100
0001
1000
0010
0100
0001
1000
0010
,  // measure 70
0100
0001
0010
0100
1000
0010
0100
0001
,  // measure 71
0010
0000
0100
0000
0010
0000
0001
0000
1000
0000
0010
0000
0100
0000
0001
0100
,  // measure 72
0010
1000
0010
0100
0001
0010
0100
1000
0100
0010
0001
1000
0010
0100
0001
0100
,  // measure 73
0010
1000
0001
0010
0100
1000
0100
0010
0001
1000
0010
0100
0001
0010
0100
1000
,  // measure 74
0010
0100
0001
1000
0100
0010
0100
1000
0010
1000
0100
0010
0001
1000
0010
0100
,  // measure 75
0002
0000
0000
1003
,  // measure 76
1001
0000
0000
0000
;

//---------------dance-single - ----------------
#NOTES:
     dance-single:
     :
     Hard:
     9:
     0.536435,0.449817,0.013153,0.013153,0.098644,567.000000,2.000000,2.000000,0.000000,0.000000,0.000000,0.536435,0.449817,0.013153,0.013153,0.098644,567.000000,2.000000,2.000000,0.000000,0.000000,0.000000:
// measure 0
0000
0000
0000
0000
,  // measure 1
0000
0000
0000
0000
,  // measure 2
0000
0000
0000
0000
,  // measure 3
0000
0000
0000
0000
,  // measure 4
0001
0100
0010
1000
0010
1000
0010
1000
,  // measure 5
0001
0100
0010
1000
0010
1000
0010
1000
,  // measure 6
0100
0010
0001
1000
0001
1000
0001
1000
,  // measure 7
0100
0010
0001
1000
0001
1000
0001
1000
,  // measure 8
0010
0100
0001
1000
0001
1000
0001
1000
,  // measure 9
0010
0100
0001
1000
0001
1000
0001
1000
,  // measure 10
0010
0001
0010
1000
0010
1000
0010
1000
,  // measure 11
0010
0001
0010
1000
0010
1000
0010
1000
,  // measure 12
0001
0100
0010
0001
0010
1000
0100
0010
,  // measure 13
1000
0010
0001
0100
0001
0010
0100
0010
,  // measure 14
0001
0100
1000
0100
0010
1000
0100
0010
,  // measure 15
0100
1000
0001
0100
0010
0001
0010
1000
,  // measure 16
0100
1000
0001
0100
0001
0010
0100
0010
,  // measure 17
0001
0100
0010
0001
0010
1000
0100
0010
,  // measure 18
0100
1000
0010
0001
0010
0100
0001
1000
,  // measure 19
0100
0010
0100
1000
0010
0100
0001
1000
,  // measure 20
0010
0100
0010
1000
0010
0100
0010
0001
,  // measure 21
0010
0100
0010
1000
0100
0010
0100
1000
,  // measure 22
0001
0100
0010
0100
0001
0100
0010
0100
,  // measure 23
0001
0100
0010
1000
0001
0010
0100
0000
,  // measure 24
1000
0100
0010
0100
0010
0001
0010
0001
,  // measure 25
0100
0010
1000
0001
1000
0010
1000
0010
,  // measure 26
0100
0001
0010
0100
1000
0010
0100
0001
,  // measure 27
2000
0000
0000
3010
,  // measure 28
1001
0000
0100
0000
0010
0000
1000
0010
0000
0010
0100
0000
0001
0000
0000
0000
,  // measure 29
0010
0000
0100
0000
0010
0000
1000
0100
0000
0100
0010
0000
0001
0000
0000
0000
,  // measure 30
0100
0000
0001
0000
0010
0000
0100
0010
0000
0010
0001
0000
1000
0000
0000
0000
,  // measure 31
0001
0000
0100
0000
0010
0000
1000
0100
0000
0010
0001
0000
1000
0000
0010
0000
,  // measure 32
0100
0000
0001
0000
0010
0000
0100
1000
0000
1000
0010
0000
0100
0000
0001
0000
,  // measure 33
1000
0000
0010
0000
0100
0000
0010
1000
0000
1000
0001
0000
0010
0000
0000
0000
,  // measure 34
0100
0000
0010
0000
0001
0000
0100
0001
0000
0001
0010
0000
0100
0000
1000
0000
,  // measure 35
0010
0000
0100
0000
0010
0000
1000
0100
1000
0000
0100
0000
1000
0000
0001
0000
,  // measure 36
1000
0000
0100
0000
0010
0000
0001
0010
0000
0010
0001
0000
0010
0000
0000
0000
,  // measure 37
0100
0000
1000
0000
0010
0000
0100
0010
0000
0010
1000
0000
0100
0000
0000
0000
,  // measure 38
0010
0000
0001
0000
0100
0000
0001
0010
0000
0100
1000
0000
0010
0000
0000
0000
,  // measure 39
0100
0000
0010
0000
1000
0000
0001
0010
0000
1000
0010
0000
0100
0000
0000
0000
,  // measure 40
0010
0000
1000
0000
0100
0000
0010
0001
0000
1000
0010
0000
0100
0000
0000
0000
,  // measure 41
0001
0000
0010
0000
0100
0000
1000
0001
0000
0100
0010
0000
1000
0000
0000
0000
,  // measure 42
0100
0000
0010
0000
0100
0000
1000
0001
0000
0100
0010
0000
1000
0000
0000
0000
,  // measure 43
0001
0000
0100
0000
0010
0000
1000
0001
1000
0000
0001
0000
0100
0000
0000
0000
,  // measure 44
0001
0010
0100
1000
0100
1000
0100
1000
,  // measure 45
0001
0100
0010
1000
0010
1000
0010
1000
,  // measure 46
0001
0010
1000
0010
1000
0010
1000
0010
,  // measure 47
0001
0100
1000
0100
1000
0100
1000
0100
,  // measure 48
0010
1000
0001
0010
0001
0010
0001
0010
,  // measure 49
0100
1000
0001
0100
0001
0100
0001
0100
,  // measure 50
0010
0001
0010
1000
0010
1000
0010
1000
,  // measure 51
0100
1000
0001
1000
0001
1000
0001
1000
,  // measure 52
0100
1000
0010
0100
0001
0010
0100
0010
,  // measure 53
0001
0100
0010
1000
0100
0010
0100
1000
,  // measure 54
0001
0100
0010
1000
0100
0010
0001
1000
,  // measure 55
0010
0100
0010
1000
0100
0010
0001
0100
,  // measure 56
0001
0010
0100
0010
0001
1000
0010
0100
,  // measure 57
0001
1000
0100
1000
0010
0100
0010
0100
,  // measure 58
0001
0010
0100
1000
0001
0010
0001
0100
,  // measure 59
0010
1000
0010
0100
0001
0010
0100
1000
,  // measure 60
0001
0100
0010
1000
0100
0010
0100
1000
,  // measure 61
0001
0010
0100
0010
0001
1000
0010
0100
,  // measure 62
0010
1000
0100
0010
0001
0100
0001
0010
,  // measure 63
0100
0010
0001
1000
0010
0100
0010
1000
,  // measure 64
0001
0010
0100
1000
0100
0010
0100
1000
,  // measure 65
0010
0100
0001
0100
0010
0100
0001
0100
,  // measure 66
0010
1000
0100
1000
0010
1000
0100
1000
,  // measure 67
0010
0100
0001
0010
0100
1000
0010
0100
,  // measure 68
0010
1000
0001
0100
0010
1000
0001
0100
,  // measure 69
0010
1000
0001
0100
0010
1000
0001
0100
,  // measure 70
0010
1000
0100
0010
0001
0100
0010
1000
,  // measure 71
0100
0010
0100
1000
0001
0100
0010
0000
,  // measure 72
1000
0100
0010
0100
0010
0001
0100
0001
,  // measure 73
0010
0100
1000
0010
0100
0010
0100
0001
,  // measure 74
0010
0100
1000
0001
0010
0100
1000
0001
,  // measure 75
0200
0000
0000
0310
,  // measure 76
1001
0000
0000
0000
;

//---------------dance-single - ----------------
#NOTES:
     dance-single:
     :
     Medium:
     6:
     0.315661,0.299878,0.052610,0.013153,0.000000,326.000000,8.000000,2.000000,0.000000,0.000000,0.000000,0.315661,0.299878,0.052610,0.013153,0.000000,326.000000,8.000000,2.000000,0.000000,0.000000,0.000000:
// measure 0
0000
0000
0000
0000
,  // measure 1
0000
0000
0000
0000
,  // measure 2
0000
0000
0000
0000
,  // measure 3
0000
0000
0000
0000
,  // measure 4
1000
0000
0100
0000
0010
0000
0001
1000
,  // measure 5
0001
0100
0010
0100
,  // measure 6
0001
0000
0010
0000
0100
1000
0100
1000
,  // measure 7
0010
0100
0001
0010
,  // measure 8
0001
0000
0100
0000
0010
0000
1000
0001
,  // measure 9
1000
0010
0100
0001
,  // measure 10
0010
0000
0100
0000
0010
0001
0010
0001
,  // measure 11
0010
0100
1000
0010
,  // measure 12
1000
1000
0100
0100
,  // measure 13
0010
0000
0010
0001
1000
0000
0010
0000
,  // measure 14
0100
0100
0010
0010
,  // measure 15
1000
0001
0100
0010
1000
0000
0001
0000
,  // measure 16
0010
0100
0010
0001
,  // measure 17
1000
0010
0100
0001
,  // measure 18
0010
0100
0010
0001
,  // measure 19
1000
0100
0010
0001
1000
0000
0010
0000
,  // measure 20
0100
0000
0001
1000
0010
0000
1000
0001
,  // measure 21
0010
0010
0010
0010
,  // measure 22
0001
0000
0001
0000
0100
0000
0010
1000
,  // measure 23
0100
0010
0100
1000
,  // measure 24
0010
0000
1000
0001
0010
0000
0100
1000
,  // measure 25
0001
0100
0010
1000
,  // measure 26
0001
0000
0010
0000
0100
0000
0010
0001
,  // measure 27
0200
0000
0000
0300
,  // measure 28
0010
0000
1000
0000
0100
0000
0010
0100
,  // measure 29
1000
0010
0001
0010
,  // measure 30
0100
0010
1000
0001
,  // measure 31
0010
0000
0100
0000
0010
0000
0001
1000
,  // measure 32
0001
0000
0100
0000
0010
0000
1000
0001
,  // measure 33
0010
0100
1000
0010
,  // measure 34
0100
0000
0001
0000
0010
0000
0100
1000
,  // measure 35
0010
1000
0100
0010
,  // measure 36
0001
0000
1001
0000
0100
0000
0010
1000
,  // measure 37
0100
0000
1001
0000
0100
0000
0010
0001
,  // measure 38
0100
0000
1001
0000
0010
0000
0100
1000
,  // measure 39
0010
0000
0110
0000
1000
0000
0010
1000
,  // measure 40
0100
0000
0110
0000
0010
0000
0001
1000
,  // measure 41
0010
0000
0110
0000
1000
0000
0001
1000
,  // measure 42
0100
0000
0110
0000
0010
0000
0001
0010
,  // measure 43
0100
0100
0100
0000
,  // measure 44
1000
0010
0001
0010
,  // measure 45
1000
0010
0001
0010
,  // measure 46
1000
0100
0001
0100
,  // measure 47
1000
0100
0001
0100
,  // measure 48
1000
0010
0100
0001
,  // measure 49
1000
0010
0100
0001
,  // measure 50
0010
0100
1000
0001
,  // measure 51
0010
0100
1000
0001
,  // measure 52
0010
0000
0010
0000
0100
0000
0010
0001
,  // measure 53
0100
0010
0100
0010
,  // measure 54
1000
0100
0010
0001
,  // measure 55
1000
0010
0100
0001
,  // measure 56
1000
0000
0010
0000
1000
0100
0010
0001
,  // measure 57
1000
0001
0100
0010
,  // measure 58
0100
0000
0001
0000
0010
0000
0100
1000
,  // measure 59
0001
0100
0010
1000
,  // measure 60
0100
0010
0100
1000
,  // measure 61
0010
0000
1000
0100
0010
0000
0001
0000
,  // measure 62
1000
0000
0010
0000
0100
0000
0001
1000
,  // measure 63
0010
0100
0001
0000
0010
0100
1000
0000
,  // measure 64
0010
0100
0010
1000
,  // measure 65
0100
0000
0010
0001
0100
0000
0010
0000
,  // measure 66
0100
0001
1000
0010
,  // measure 67
0100
0000
0001
1000
0010
0000
1000
0010
,  // measure 68
0100
0000
0001
0000
0010
0000
0001
0100
,  // measure 69
0010
1000
0001
0010
,  // measure 70
0100
0000
0010
0000
0001
0000
1000
0010
,  // measure 71
0100
0010
1000
0001
,  // measure 72
0100
0000
0010
0000
0100
0000
0001
1000
,  // measure 73
0100
0010
0100
1000
,  // measure 74
0001
0000
0010
0000
0001
0000
0100
0010
,  // measure 75
2000
0000
0000
3001
,  // measure 76
1001
0000
0000
0000
;

//---------------dance-single - ----------------
#NOTES:
     dance-single:
     :
     Easy:
     4:
     0.250838,0.249898,0.019729,0.006576,0.000000,263.000000,3.000000,1.000000,0.000000,0.000000,0.000000,0.250838,0.249898,0.019729,0.006576,0.000000,263.000000,3.000000,1.000000,0.000000,0.000000,0.000000:
// measure 0
0000
0000
0000
0000
,  // measure 1
0000
0000
0000
0000
,  // measure 2
0000
0000
0000
0000
,  // measure 3
0000
0000
0000
0000
,  // measure 4
1000
0100
0010
0000
,  // measure 5
0001
0100
0010
0000
,  // measure 6
1000
0001
0100
0000
,  // measure 7
0010
1000
0100
0000
,  // measure 8
0010
0001
0100
0000
,  // measure 9
0010
1000
0100
0000
,  // measure 10
0010
0001
1000
0000
,  // measure 11
0010
1000
0001
0000
,  // measure 12
0100
0100
0100
0100
,  // measure 13
0010
0010
0010
0010
,  // measure 14
1000
1000
1000
1000
,  // measure 15
0100
0010
0001
1000
,  // measure 16
0010
0010
0010
0010
,  // measure 17
0100
0100
0100
0100
,  // measure 18
0001
0010
0100
1000
,  // measure 19
0001
0001
0001
0010
,  // measure 20
0100
1000
0010
0100
,  // measure 21
0001
1000
0010
0100
,  // measure 22
0001
1000
0010
0100
,  // measure 23
0001
1000
0010
0100
,  // measure 24
0001
1000
0010
0100
,  // measure 25
0001
0010
0100
1000
,  // measure 26
0001
0010
0100
1000
,  // measure 27
0001
0000
0000
0000
,  // measure 28
1001
0110
0010
0100
,  // measure 29
1000
0100
0001
0100
,  // measure 30
1000
0010
0100
0001
,  // measure 31
0010
0100
1000
0001
,  // measure 32
0010
0001
0100
0010
,  // measure 33
1000
0100
0010
0001
,  // measure 34
1000
0010
0100
0001
,  // measure 35
1000
0100
0010
0000
,  // measure 36
0001
0100
1000
0100
,  // measure 37
0001
0100
1000
0100
,  // measure 38
0001
0100
1000
0100
,  // measure 39
0001
0010
1000
0010
,  // measure 40
0001
0100
1000
0100
,  // measure 41
0001
0010
1000
0010
,  // measure 42
0001
0100
1000
0100
,  // measure 43
0001
0000
0000
0000
,  // measure 44
1000
0010
0100
0000
,  // measure 45
0010
0100
0001
0000
,  // measure 46
0010
0001
0100
0000
,  // measure 47
0001
1000
0100
0000
,  // measure 48
0010
0100
1000
0000
,  // measure 49
0010
1000
0100
0000
,  // measure 50
0010
0001
0100
0000
,  // measure 51
0010
1000
0001
0000
,  // measure 52
0010
0100
0010
0100
,  // measure 53
1000
0010
0100
0001
,  // measure 54
0010
0100
0010
0001
,  // measure 55
0100
0010
0100
0010
,  // measure 56
1000
0100
0010
0001
,  // measure 57
1000
0001
1000
0001
,  // measure 58
0100
0010
0100
0010
,  // measure 59
1000
0100
0010
0001
,  // measure 60
1000
1000
0001
0001
,  // measure 61
0100
0100
0010
0010
,  // measure 62
1000
0010
0100
0001
,  // measure 63
0010
0100
0010
0100
,  // measure 64
1000
1000
0010
0010
,  // measure 65
0100
0100
0001
0001
,  // measure 66
0010
0001
1000
0100
,  // measure 67
0010
0001
1000
0100
,  // measure 68
0010
0010
0100
0100
,  // measure 69
1000
0010
1000
0010
,  // measure 70
0100
0100
0001
0001
,  // measure 71
0010
0001
0100
0001
,  // measure 72
0100
0100
0010
0010
,  // measure 73
1000
0100
0010
0001
,  // measure 74
1000
1000
0001
0001
,  // measure 75
0200
0000
0000
0300
,  // measure 76
1001
0000
0000
0000
;

//---------------dance-single - ----------------
#NOTES:
     dance-single:
     :
     Beginner:
     1:
     0.120252,0.149939,0.006576,0.000000,0.000000,127.000000,1.000000,0.000000,0.000000,0.000000,0.000000,0.120252,0.149939,0.006576,0.000000,0.000000,127.000000,1.000000,0.000000,0.000000,0.000000,0.000000:
// measure 0
0000
0000
0000
0000
,  // measure 1
0000
0000
0000
0000
,  // measure 2
0000
0000
0000
0000
,  // measure 3
0000
0000
0000
0000
,  // measure 4
0010
0000
0000
0000
,  // measure 5
0100
0000
0000
0000
,  // measure 6
0001
0000
0000
0000
,  // measure 7
0010
0000
0000
0000
,  // measure 8
0100
0000
0000
0000
,  // measure 9
1000
0000
0000
0000
,  // measure 10
0010
0000
0000
0000
,  // measure 11
0100
0000
0000
0000
,  // measure 12
0010
0000
0010
0000
,  // measure 13
0100
0000
0100
0000
,  // measure 14
0001
0000
0001
0000
,  // measure 15
0010
0000
0010
0000
,  // measure 16
0100
0000
0100
0000
,  // measure 17
1000
0000
1000
0000
,  // measure 18
0010
0000
0010
0000
,  // measure 19
0100
0000
0100
0000
,  // measure 20
0001
0000
1000
0000
,  // measure 21
0010
0000
0010
0000
,  // measure 22
1000
0000
0001
0000
,  // measure 23
0100
0000
0100
0000
,  // measure 24
0001
0000
1000
0000
,  // measure 25
0010
0000
0010
0000
,  // measure 26
1000
0000
0001
0000
,  // measure 27
0100
0000
0000
0000
,  // measure 28
0001
0000
0010
0000
,  // measure 29
0100
0000
1000
0000
,  // measure 30
0100
0000
0010
0000
,  // measure 31
0001
0000
1000
0000
,  // measure 32
0010
0000
0100
0000
,  // measure 33
0001
0000
0010
0000
,  // measure 34
0100
0000
1000
0000
,  // measure 35
0001
0000
0000
0000
,  // measure 36
0100
0000
0000
0000
,  // measure 37
0010
0000
0000
0000
,  // measure 38
1000
0000
0000
0000
,  // measure 39
0100
0000
0000
0000
,  // measure 40
0010
0000
0000
0000
,  // measure 41
0001
0000
0000
0000
,  // measure 42
0100
0000
0000
0000
,  // measure 43
0010
0000
0000
0000
,  // measure 44
1000
0000
0000
0000
,  // measure 45
0100
0000
0000
0000
,  // measure 46
0001
0000
0000
0000
,  // measure 47
0100
0000
0000
0000
,  // measure 48
1000
0000
0000
0000
,  // measure 49
0100
0000
0000
0000
,  // measure 50
0001
0000
0000
0000
,  // measure 51
0010
0000
0000
0000
,  // measure 52
0100
0000
0100
0000
,  // measure 53
1000
0000
0001
0000
,  // measure 54
0100
0000
0100
0000
,  // measure 55
0010
0000
1000
0000
,  // measure 56
0100
0000
0010
0000
,  // measure 57
0001
0000
1000
0000
,  // measure 58
0010
0000
0100
0000
,  // measure 59
0001
0000
0010
0000
,  // measure 60
0100
0000
1000
0000
,  // measure 61
0010
0000
1000
0000
,  // measure 62
0100
0000
0010
0000
,  // measure 63
0001
0000
1000
0000
,  // measure 64
0010
0000
0100
0000
,  // measure 65
0010
0000
1000
0000
,  // measure 66
0100
0000
0010
0000
,  // measure 67
0001
0000
1000
0000
,  // measure 68
0100
0100
0100
0000
,  // measure 69
0010
0010
0010
0000
,  // measure 70
0100
0100
0100
0000
,  // measure 71
0010
0010
0010
0000
,  // measure 72
0100
0100
0100
0000
,  // measure 73
0010
0010
0010
0000
,  // measure 74
0001
0001
0001
0000
,  // measure 75
1000
1000
1000
0000
,  // measure 76
1001
0000
0000
0000
;
