#TITLE:Till The World Ends;
#SUBTITLE:;
#ARTIST:Britney Spears;
#TITLETRANSLIT:;
#SUBTITLETRANSLIT:;
#ARTISTTRANSLIT:;
#GENRE:Femme Fatale;
#CREDIT:;
#BANNER:Till The World Ends-bn.png;
#BACKGROUND:Till The World Ends-bg.png;
#LYRICSPATH:;
#CDTITLE:;
#MUSIC:Till The World Ends.mp3;
#OFFSET:1.785000;
#SAMPLESTART:114.112434;
#SAMPLELENGTH:14.090904;
#LASTBEATHINT:303.012451;
#SELECTABLE:YES;
#DISPLAYBPM:132.000000;
#BPMS:0.000000=132.000000
,232.000000=88.000000
,232.500000=58.667000
,233.000000=39.111000
,233.604172=58.667000
,234.000000=88.000000
,235.000000=132.000000
;
#STOPS:233.250000=0.767000
;
#BGCHANGES:0.000=Till The World Ends.avi=1.000=0=0=0=StretchNoLoop====,
99999=-nosongbg-=1.000=0=0=0 // don't automatically add -songbackground-
;
#KEYSOUNDS:;
#ATTACKS:;

//---------------dance-single - ----------------
#NOTES:
     dance-single:
     :
     Challenge:
     9:
     0.475357,0.560445,0.214217,0.485558,0.407012,466.000000,436.000000,30.000000,68.000000,0.000000,0.000000,0.475357,0.560445,0.214217,0.485558,0.407012,466.000000,436.000000,30.000000,68.000000,0.000000,0.000000:
// measure 0
0000
0000
0000
0000
,  // measure 1
0000
0000
0000
0000
,  // measure 2
0000
0000
0000
0000
,  // measure 3
0000
0000
0000
0000
,  // measure 4
0000
0000
0000
0000
,  // measure 5
0000
0000
0000
0000
,  // measure 6
1000
0000
0000
0010
0000
0000
0100
0000
0001
0000
0000
0000
0101
0000
0000
0000
,  // measure 7
0100
0000
0010
0000
0000
1000
0000
0000
0100
1000
0000
0001
0000
0100
0000
0100
,  // measure 8
0010
0000
0000
1000
0000
0000
1100
0000
0000
0000
0000
0000
1001
0000
0000
0000
,  // measure 9
0000
0000
0001
0000
0000
1000
0000
0000
0010
0000
0000
1000
0000
0000
0100
0000
,  // measure 10
0010
0000
0000
0001
0000
0000
0100
0000
0010
0000
0000
0000
0110
0000
0000
0000
,  // measure 11
0010
0000
1000
0000
0000
0100
0000
0000
0010
0001
0000
1000
0000
0010
0000
0010
,  // measure 12
0100
0000
0000
0001
0000
0000
0101
0000
0000
0000
0000
0000
1001
0000
0000
0000
,  // measure 13
0000
0000
1000
0000
0000
0001
0000
0000
1000
0000
0000
0010
0000
0000
0100
0000
,  // measure 14
0001
0000
0000
0101
0000
0000
0100
0000
0010
0000
1000
0000
0001
0000
1000
0000
,  // measure 15
0100
0000
0000
1100
0000
0000
0100
0000
1000
0000
0001
0000
0010
0000
0001
0000
,  // measure 16
0100
0000
0000
0101
0000
0000
0100
0000
0001
0000
1000
0000
0001
0000
0010
0000
,  // measure 17
0100
0000
0000
0110
0000
0000
0000
0000
0100
0000
1000
0000
0010
0000
0100
0000
,  // measure 18
1010
0000
0000
0110
0000
0000
0000
0000
0100
0000
0001
0000
0010
0000
0100
0000
,  // measure 19
0011
0000
0000
0110
0000
0000
0000
0000
0010
0000
0001
0000
1000
0000
0001
0000
,  // measure 20
0101
0000
1000
0000
1100
0000
0001
1000
,  // measure 21
0001
0000
0000
0000
0000
0000
0000
0000
0000
0000
0000
0000
2000
0000
0002
3000
,  // measure 22
0020
0003
0000
0032
0000
0000
0203
0000
0000
0302
0000
0000
0203
0000
0000
0320
,  // measure 23
0000
0000
2030
0000
0000
0000
0000
0000
3000
0000
0000
0000
0002
0000
2000
0003
,  // measure 24
0200
3000
0000
2300
0000
0000
3020
0000
0000
0230
0000
0000
0302
0000
0000
2003
,  // measure 25
0000
0000
3200
0000
0000
0000
0000
0000
0300
0000
0000
0000
2000
0000
0002
3000
,  // measure 26
0200
0003
0000
0320
0000
0000
2030
0000
0000
3020
0000
0000
0032
0000
0000
0023
,  // measure 27
0000
0000
0230
0000
0000
0000
0000
0000
0310
0000
0000
0000
0002
0000
2000
0003
,  // measure 28
0200
3000
0000
2300
0000
0000
3020
0000
0000
0230
0000
0000
0302
0000
0000
2003
,  // measure 29
0000
0000
3200
0000
0000
0000
0000
0000
0300
0000
0000
0000
2000
0000
0200
3000
,  // measure 30
0010
0300
0010
0001
0000
0001
0100
0000
0100
1000
0000
1000
0100
0000
0100
0010
,  // measure 31
0000
0010
2000
0000
0000
0000
0000
0000
0000
0000
0000
0000
3001
0000
1000
0000
,  // measure 32
0100
0000
0100
0001
0000
0001
0100
0000
0100
1000
0000
1000
0010
0000
0010
0100
,  // measure 33
0000
0100
0002
0000
0000
0000
0000
0000
0000
0000
0000
0000
1003
0000
0100
0000
,  // measure 34
0010
0000
0010
0001
0000
0001
1000
0000
1000
0010
0000
0010
0001
0000
0001
0100
,  // measure 35
0000
0100
2000
0000
0000
0000
0000
0000
0000
0000
0000
0000
3100
0000
0010
0000
,  // measure 36
0001
0000
0001
0100
0000
0100
1000
0000
1000
0001
0000
0001
0010
0000
0010
1000
,  // measure 37
0000
1000
0020
0000
0000
0000
0000
0000
0000
0000
0000
0000
0130
0000
0001
0000
,  // measure 38
1001
0000
1000
0100
0000
0100
0010
0000
0010
0001
0000
0001
0100
0000
0100
0010
,  // measure 39
0000
0010
2000
0000
0000
0000
0000
0000
0000
0000
0000
0000
3001
0000
1000
0000
,  // measure 40
0100
0000
0100
0010
0000
0010
0001
0000
0001
0100
0000
0100
0010
0000
0010
1000
,  // measure 41
0000
1000
0200
0000
0000
0000
0000
0000
0000
0000
0000
0000
1300
0000
0100
0000
,  // measure 42
0010
0000
0010
0001
0000
0001
0100
0000
0100
0010
0000
0010
1000
0000
1000
0001
,  // measure 43
0000
0001
0200
0000
0000
0000
0000
0000
0000
0000
0000
0000
0310
0000
1000
0000
,  // measure 44
0100
0000
0100
1000
0000
1000
0001
0000
0001
0100
0000
0100
0010
0000
0010
1000
,  // measure 45
0000
1000
0002
0000
0000
0000
0000
0000
1003
0000
0001
0000
0000
0000
1001
0000
,  // measure 46
0100
0010
1001
0000
1000
0010
1000
0100
,  // measure 47
0010
0001
0101
0000
0100
0001
1000
0100
,  // measure 48
0010
0000
0001
0100
0001
0000
1000
0000
0010
0000
1000
0100
1000
0000
0001
0000
,  // measure 49
0010
0001
1001
0000
0100
0010
1000
0010
,  // measure 50
0001
0010
1001
0000
0010
1000
0100
0001
,  // measure 51
0100
1000
1001
0000
1000
0010
0100
0001
,  // measure 52
1000
0000
0010
1000
0010
0000
0100
0000
0001
0000
0010
0001
0010
0000
0100
0000
,  // measure 53
1000
0000
0010
0000
1001
0000
0000
0000
0010
0000
1000
0000
0001
1000
0001
1000
,  // measure 54
0002
0000
1000
2000
0000
0003
0001
0002
,  // measure 55
3000
0000
2000
0000
0000
0000
0000
0000
0000
0000
0000
0000
0000
0000
0000
3003
,  // measure 56
4000
0004
0000
0000
0000
0000
0000
0000
,  // measure 57
0000
0000
0000
0000
,  // measure 58
3003
0000
0000
0000
0000
0000
0000
0000
0000
0000
0000
0000
0020
0000
0000
2030
,  // measure 59
0000
0000
3200
0000
0000
0320
0000
0000
0032
0000
0000
2003
0000
0000
3200
0000
,  // measure 60
0000
0000
0000
0000
0000
0000
0000
0000
0320
0000
0002
0030
0200
0003
0000
0302
,  // measure 61
0000
0000
2003
0000
0000
3200
0000
0000
0320
0000
0000
0032
0000
0000
0203
0000
,  // measure 62
0000
0000
0000
0000
0000
0000
0000
0000
0310
0000
1000
0000
0001
0000
1000
0100
,  // measure 63
0000
1000
0010
0000
0100
0001
0000
0100
0010
0000
1000
0001
0000
1000
0200
0000
,  // measure 64
0000
0000
0000
0000
0000
0000
0000
0000
0310
0000
0001
0000
0100
0000
0001
0010
,  // measure 65
0000
0001
1000
0000
0100
1000
0000
0001
1000
0000
0010
1000
0000
0010
0200
0000
,  // measure 66
0000
0000
0310
0100
0000
1001
0100
0010
,  // measure 67
1001
0000
1000
0010
0100
0001
1000
0010
,  // measure 68
0110
0000
0000
0000
0010
0000
1000
0000
0100
0000
1000
0000
0001
0000
0100
0001
,  // measure 69
0100
0000
0010
0000
1000
0000
0100
1000
0100
0000
0010
0000
0001
0000
1000
0000
,  // measure 70
1001
0000
0010
1000
0100
1000
0010
0100
,  // measure 71
1001
0000
0100
0010
1000
0100
0010
0100
,  // measure 72
1001
0000
0000
0000
1000
0000
0010
0000
0100
0000
0001
0000
1000
0000
0100
1000
,  // measure 73
0001
0000
0100
0000
0010
0000
0100
0001
1000
0000
0100
0000
0010
0000
0100
0000
,  // measure 74
1000
0000
0001
0000
0100
0000
0010
0000
1000
0001
1000
0001
1000
0000
0000
0000
;

//---------------dance-single - ----------------
#NOTES:
     dance-single:
     :
     Hard:
     8:
     0.398851,0.480381,0.556964,0.321325,0.196365,391.000000,313.000000,78.000000,45.000000,0.000000,0.000000,0.398851,0.480381,0.556964,0.321325,0.196365,391.000000,313.000000,78.000000,45.000000,0.000000,0.000000:
// measure 0
0000
0000
0000
0000
,  // measure 1
0000
0000
0000
0000
,  // measure 2
0000
0000
0000
0000
,  // measure 3
0000
0000
0000
0000
,  // measure 4
0000
0000
0000
0000
,  // measure 5
0000
0000
0000
0000
,  // measure 6
1000
0000
1100
0000
0001
0000
0101
0100
,  // measure 7
0010
0000
1010
0010
0100
0000
0001
1000
,  // measure 8
0001
0010
0000
0100
,  // measure 9
0000
1000
0000
0001
,  // measure 10
1000
0000
1010
0000
0001
0000
0011
1000
,  // measure 11
0010
0000
0110
0010
0100
0000
0001
1000
,  // measure 12
0001
0100
0000
0010
,  // measure 13
0000
0000
1000
0001
1000
0000
0100
0000
,  // measure 14
0010
0000
0000
0001
0000
0000
1000
0000
0010
0000
1000
0000
0100
0000
0010
0000
,  // measure 15
0100
0000
0000
1000
0000
0000
0001
0000
1000
0000
0010
0000
0100
0000
0001
0000
,  // measure 16
1000
0000
0000
0001
0000
0000
0010
0000
0001
0000
0100
0000
0010
0000
1000
0000
,  // measure 17
0100
0000
0000
0010
0000
0000
0000
0000
0001
0000
1000
0000
0100
0000
1000
0000
,  // measure 18
0001
0000
0000
1000
0000
0000
0000
0000
0010
0000
1000
0000
0100
0000
0010
0000
,  // measure 19
0001
0000
0000
0100
0000
0000
0000
0000
0001
0000
1000
0000
0100
0000
0010
0000
,  // measure 20
0001
0000
0101
0000
1000
0000
1100
0100
,  // measure 21
1000
0000
0000
0000
0000
0000
1000
0001
,  // measure 22
0010
0000
0000
0001
0000
0000
0100
0000
0000
0001
0000
0000
0100
0000
0000
0010
,  // measure 23
0000
1000
0000
0000
0000
0000
0001
1000
,  // measure 24
0100
0000
0000
1000
0000
0000
0010
0000
0000
0100
0000
0000
0001
0000
0000
1000
,  // measure 25
0000
0100
0000
0000
0000
0000
1000
0001
,  // measure 26
0100
0000
0000
0010
0000
0000
1000
0000
0000
0010
0000
0000
0001
0000
0000
0010
,  // measure 27
0000
0100
0000
0000
0010
0000
0001
1000
,  // measure 28
0100
0000
0000
1000
0000
0000
0010
0000
0000
0100
0000
0000
0001
0000
0000
1000
,  // measure 29
0000
0100
0000
0000
0000
0000
1000
0100
,  // measure 30
0010
0000
0000
0011
0000
0000
0110
0000
0000
0011
0000
0000
1001
0000
0000
0101
,  // measure 31
0000
2002
0000
0000
3003
0000
0010
1000
,  // measure 32
0100
0000
0000
1100
0000
0000
0110
0000
0000
0011
0000
0000
0110
0000
0000
1010
,  // measure 33
0000
0220
0000
0000
0330
0000
0100
0001
,  // measure 34
1000
0000
0000
1001
0000
0000
0101
0000
0000
1001
0000
0000
1100
0000
0000
1001
,  // measure 35
0000
2200
0000
0000
3300
0000
1000
0010
,  // measure 36
0100
0000
0000
0110
0000
0000
0101
0000
0000
1001
0000
0000
0101
0000
0000
1001
,  // measure 37
0000
0022
0000
0000
0033
0000
0010
0001
,  // measure 38
0100
0000
0000
0110
0000
0000
0101
0000
0000
1100
0000
0000
1010
0000
0000
1100
,  // measure 39
0000
2002
0000
0000
3003
0000
0010
1000
,  // measure 40
0100
0000
0000
1100
0000
0000
0101
0000
0000
0110
0000
0000
0011
0000
0000
0110
,  // measure 41
0000
0202
0000
0000
0303
0000
0001
0100
,  // measure 42
0010
0000
0000
1010
0000
0000
0110
0000
0000
1100
0000
0000
0110
0000
0000
0101
,  // measure 43
0000
2002
0000
0000
3003
0000
1000
0001
,  // measure 44
1000
0000
0000
1100
0000
0000
1001
0000
0000
1100
0000
0000
1001
0000
0000
0101
,  // measure 45
0000
2002
0000
3003
0001
1000
0000
0110
,  // measure 46
0000
1001
0000
0000
1000
0001
0000
1000
,  // measure 47
0000
0110
0000
0000
0010
0100
0000
0002
,  // measure 48
0000
0000
1003
0020
0000
0000
1030
0100
,  // measure 49
0000
0010
0100
0000
1000
0001
0000
1000
,  // measure 50
0000
2020
0000
3030
0001
1000
0000
0001
,  // measure 51
0000
0022
0000
0033
0001
1000
0000
2002
,  // measure 52
0000
3003
0010
2000
0000
3000
0001
0020
,  // measure 53
0000
0000
0130
0000
0000
0000
1000
0000
0001
0000
1000
0000
0001
1000
0001
1000
,  // measure 54
0002
0000
1000
2000
0000
0003
0001
0002
,  // measure 55
3000
2000
0000
0000
0000
0000
0000
0000
,  // measure 56
0000
0000
0000
0000
,  // measure 57
0000
0000
0000
0000
,  // measure 58
3003
0000
0000
0020
,  // measure 59
0000
0000
0000
0000
,  // measure 60
0000
0000
0000
0000
0000
0000
0000
0000
1030
0000
0001
0000
1000
0000
0000
0001
,  // measure 61
0000
0000
1000
0000
0000
0001
0000
0000
1000
0000
0000
0001
0000
0000
0200
0000
,  // measure 62
0000
0000
0000
0000
0000
0000
0000
0000
0300
0000
0000
0000
1001
0000
0000
0101
,  // measure 63
0000
0000
1100
0000
0000
0101
0000
0000
1100
0000
0000
1010
0000
0000
0202
0000
,  // measure 64
0000
0000
0000
0000
0000
0000
0303
0000
0001
0000
0100
0000
0001
0000
0000
0011
,  // measure 65
0000
0000
1010
0000
0000
0110
0000
0000
1100
0000
0000
0101
0000
0000
2002
0000
,  // measure 66
0000
3003
1000
0001
0000
0110
0000
2002
,  // measure 67
0000
3003
0010
1000
0100
1000
0000
1001
,  // measure 68
0000
0000
0001
1000
0010
0100
0002
0000
,  // measure 69
1003
0020
0000
1030
0100
2000
0000
3100
,  // measure 70
0000
0100
0010
0001
0100
0001
0010
0001
,  // measure 71
0010
0000
0001
0100
0010
1000
0100
1000
,  // measure 72
0100
0000
0010
0001
0100
0001
2000
0000
,  // measure 73
3010
0200
0000
0000
0302
2003
0000
3100
,  // measure 74
0000
0000
0100
0000
0010
0000
0001
0000
1000
0001
1000
0001
1000
0000
0000
0000
;

//---------------dance-single - ----------------
#NOTES:
     dance-single:
     :
     Medium:
     6:
     0.261141,0.346942,0.128530,0.135671,0.107108,256.000000,238.000000,18.000000,19.000000,0.000000,0.000000,0.261141,0.346942,0.128530,0.135671,0.107108,256.000000,238.000000,18.000000,19.000000,0.000000,0.000000:
// measure 0
0000
0000
0000
0000
,  // measure 1
0000
0000
0000
0000
,  // measure 2
0000
0000
0000
0000
,  // measure 3
0000
0000
0000
0000
,  // measure 4
0000
0000
0000
0000
,  // measure 5
0000
0000
0000
0000
,  // measure 6
1000
0000
0100
0000
0010
0000
0001
1000
,  // measure 7
0001
0000
1000
0001
1000
0000
0010
0000
,  // measure 8
0200
0000
0000
0000
,  // measure 9
0300
0000
0000
0000
,  // measure 10
0010
0000
1000
0000
0100
0000
0010
0100
,  // measure 11
0010
0000
0001
1000
0001
0000
0100
0010
,  // measure 12
0200
0000
0000
0000
,  // measure 13
0300
0000
0010
1000
,  // measure 14
0100
0000
0010
0000
0001
1000
0001
0000
,  // measure 15
0100
0000
0010
0000
1000
0001
1000
0000
,  // measure 16
0010
0000
0100
0000
0001
1000
0001
0000
,  // measure 17
0010
0100
1000
0010
,  // measure 18
0100
0000
0010
0000
1000
0001
1000
0000
,  // measure 19
0100
0000
0010
0000
0001
1000
0001
0000
,  // measure 20
0100
0001
1000
0100
,  // measure 21
0010
0000
0000
0000
0000
0000
0001
1000
,  // measure 22
0002
0000
0000
0000
,  // measure 23
0000
0000
0000
0000
,  // measure 24
2003
0000
0000
0000
,  // measure 25
0000
0000
0000
0000
,  // measure 26
3020
0000
0000
0000
,  // measure 27
0000
0000
0000
0000
,  // measure 28
0230
0000
0000
0000
,  // measure 29
0000
0000
0000
0000
0000
0000
0301
0100
,  // measure 30
0001
0000
0000
1000
0000
0000
0001
0000
0000
1000
0000
0000
0001
0000
0000
1000
,  // measure 31
0000
0200
0000
0000
0000
0000
1300
0001
,  // measure 32
1000
0000
0000
0001
0000
0000
1000
0000
0000
0001
0000
0000
1000
0000
0000
0001
,  // measure 33
0000
0200
0000
0000
0000
0000
0301
1000
,  // measure 34
0001
0000
0000
1000
0000
0000
0001
0000
0000
1000
0000
0000
0001
0000
0000
1000
,  // measure 35
0000
0020
0000
0000
0000
0000
1030
0001
,  // measure 36
1000
0000
0000
0001
0000
0000
1000
0000
0000
0001
0000
0000
1000
0000
0000
0001
,  // measure 37
0000
0020
0000
0000
0000
0000
0031
1000
,  // measure 38
0100
0000
0000
1000
0000
0000
0010
0000
0000
1000
0000
0000
0100
0000
0000
1000
,  // measure 39
0000
0020
0000
0000
0000
0000
1030
0001
,  // measure 40
0100
0000
0000
0001
0000
0000
0010
0000
0000
0001
0000
0000
0100
0000
0000
0001
,  // measure 41
0000
0020
0000
0000
0000
0000
0031
1000
,  // measure 42
0010
0000
0000
1000
0000
0000
0100
0000
0000
1000
0000
0000
0010
0000
0000
1000
,  // measure 43
0000
0200
0000
0000
0000
0000
1300
0001
,  // measure 44
0010
0000
0000
0001
0000
0000
0100
0000
0000
0001
0000
0000
0010
0000
0000
0001
,  // measure 45
0000
0200
0000
0000
0010
0000
0310
0000
,  // measure 46
1000
1010
0001
0011
,  // measure 47
1000
1010
0001
0011
,  // measure 48
0100
0010
1000
0100
,  // measure 49
0001
0000
0100
0000
0010
1000
0001
0000
,  // measure 50
1000
1100
0001
0101
,  // measure 51
1000
1100
0001
0101
,  // measure 52
0100
0010
1000
0001
,  // measure 53
0010
0000
0100
0000
1000
0001
1000
0000
,  // measure 54
2002
0000
0000
0000
,  // measure 55
0000
0000
0000
0000
,  // measure 56
0000
0000
0000
0000
,  // measure 57
0000
0000
0000
0000
,  // measure 58
3003
0000
0000
0020
,  // measure 59
0000
0000
0000
0000
,  // measure 60
0000
0000
0000
0000
1030
0001
1000
0000
,  // measure 61
0100
0001
0100
1000
,  // measure 62
0100
0000
0000
0000
0001
0000
0000
0000
0000
0000
0000
0000
1001
0000
0000
1000
,  // measure 63
0000
0000
0100
0000
0000
1000
0000
0000
0001
0000
0000
0100
0000
0000
0002
0000
,  // measure 64
0000
0000
0000
0000
0000
0000
0000
0000
1003
0000
0001
0000
0010
0000
0000
0001
,  // measure 65
0000
0000
1000
0000
0000
0010
0000
0000
1000
0000
0000
0100
0000
0000
0020
0000
,  // measure 66
0000
0000
0031
1000
0000
0010
1000
0000
,  // measure 67
1100
0001
1001
0010
,  // measure 68
0011
1000
1001
1000
,  // measure 69
0010
0100
0001
1000
,  // measure 70
0001
0000
0100
0010
1000
0000
0001
0000
,  // measure 71
0101
1000
1001
1000
,  // measure 72
1010
0001
1001
0001
,  // measure 73
0010
0100
1000
0010
,  // measure 74
0100
0000
0001
0000
1000
0001
1000
0000
;

//---------------dance-single - ----------------
#NOTES:
     dance-single:
     :
     Easy:
     3:
     0.176474,0.240191,0.028562,0.049984,0.000000,173.000000,169.000000,4.000000,7.000000,0.000000,0.000000,0.176474,0.240191,0.028562,0.049984,0.000000,173.000000,169.000000,4.000000,7.000000,0.000000,0.000000:
// measure 0
0000
0000
0000
0000
,  // measure 1
0000
0000
0000
0000
,  // measure 2
0000
0000
0000
0000
,  // measure 3
0000
0000
0000
0000
,  // measure 4
0000
0000
0000
0000
,  // measure 5
0000
0000
0000
0000
,  // measure 6
1000
0100
0010
0000
,  // measure 7
0001
0000
1000
0000
,  // measure 8
0001
0100
0010
0000
,  // measure 9
0000
0100
0000
0100
,  // measure 10
0100
0010
1000
0000
,  // measure 11
0001
0000
0010
0000
,  // measure 12
0100
0010
0001
0000
,  // measure 13
0000
1000
0000
1000
,  // measure 14
0010
1000
0000
0001
,  // measure 15
0010
0001
0000
1000
,  // measure 16
0010
1000
0000
0001
,  // measure 17
0010
0001
0000
1000
,  // measure 18
0001
1000
0000
0001
,  // measure 19
1000
0001
0000
0100
,  // measure 20
0010
0000
0100
0000
,  // measure 21
0001
0000
0000
0000
,  // measure 22
2002
0000
0000
3003
,  // measure 23
0000
0000
0000
0000
,  // measure 24
0020
0000
0000
0030
,  // measure 25
0000
0000
0000
0000
,  // measure 26
0200
0000
0000
0300
,  // measure 27
0000
0000
0000
0000
,  // measure 28
0020
0000
0000
0030
,  // measure 29
0000
0000
0000
0000
,  // measure 30
1000
1000
0001
0001
,  // measure 31
1000
0010
0000
0100
,  // measure 32
0100
0100
0001
0001
,  // measure 33
0010
0010
0000
0100
,  // measure 34
0100
0100
1000
1000
,  // measure 35
0010
0010
0000
1000
,  // measure 36
1000
1000
0001
0001
,  // measure 37
0100
0100
0000
0010
,  // measure 38
0010
0010
0010
0100
,  // measure 39
0100
0100
0100
0001
,  // measure 40
0001
0001
0001
1000
,  // measure 41
1000
1000
1000
0010
,  // measure 42
0010
0010
0010
1000
,  // measure 43
1000
1000
1000
0100
,  // measure 44
0100
0100
0100
0010
,  // measure 45
0010
0010
0010
0010
,  // measure 46
0001
0000
1000
0001
,  // measure 47
1000
0000
0010
1000
,  // measure 48
0001
0010
0100
0000
,  // measure 49
1000
0001
0100
0000
,  // measure 50
0010
0000
1000
0100
,  // measure 51
0010
0000
0001
1000
,  // measure 52
0010
0100
0010
0000
,  // measure 53
1000
0001
0100
0000
,  // measure 54
1001
0000
0000
0000
,  // measure 55
0000
0000
0000
0000
,  // measure 56
0000
0000
0000
0000
,  // measure 57
0000
0000
0000
0000
,  // measure 58
0000
0000
0000
0020
,  // measure 59
0000
0000
0000
0030
,  // measure 60
0000
0000
0000
0200
,  // measure 61
0000
0000
0000
0300
,  // measure 62
0000
0000
0000
0001
,  // measure 63
0010
1000
0010
0001
,  // measure 64
0010
0000
0000
1000
,  // measure 65
0100
0001
0100
1000
,  // measure 66
0100
0000
0000
1001
,  // measure 67
0000
0010
1000
0100
,  // measure 68
0000
1000
0001
1000
,  // measure 69
0010
1000
0000
0001
,  // measure 70
0010
0001
0000
1000
,  // measure 71
0000
0001
1000
0100
,  // measure 72
0000
1000
0001
1000
,  // measure 73
0001
0100
0000
0010
,  // measure 74
0100
0010
0000
1001
;

//---------------dance-single - ----------------
#NOTES:
     dance-single:
     :
     Beginner:
     1:
     0.096908,0.160127,0.021422,0.000000,0.000000,95.000000,92.000000,3.000000,0.000000,0.000000,0.000000,0.096908,0.160127,0.021422,0.000000,0.000000,95.000000,92.000000,3.000000,0.000000,0.000000,0.000000:
// measure 0
0000
0000
0000
0000
,  // measure 1
0000
0000
0000
0000
,  // measure 2
0000
0000
0000
0000
,  // measure 3
0000
0000
0000
0000
,  // measure 4
0000
0000
0000
0000
,  // measure 5
0000
0000
0000
0000
,  // measure 6
1000
0000
0000
0000
,  // measure 7
0001
0000
0000
0000
,  // measure 8
0100
0000
0000
0000
,  // measure 9
0010
0000
0000
0000
,  // measure 10
1000
0000
0000
0000
,  // measure 11
0100
0000
0000
0000
,  // measure 12
0010
0000
0000
0000
,  // measure 13
0001
0000
0000
0000
,  // measure 14
1000
0000
0010
0000
,  // measure 15
0001
0000
0100
0000
,  // measure 16
0010
0000
0100
0000
,  // measure 17
0001
0000
1000
0000
,  // measure 18
0100
0000
0010
0000
,  // measure 19
0001
0000
1000
0000
,  // measure 20
0010
0000
0100
0000
,  // measure 21
0001
0000
1000
0000
,  // measure 22
0001
0000
0000
0000
,  // measure 23
0000
0000
0000
0000
,  // measure 24
0010
0000
0000
0000
,  // measure 25
0000
0000
0000
0000
,  // measure 26
0100
0000
0000
0000
,  // measure 27
0000
0000
0000
0000
,  // measure 28
1000
0000
0000
0000
,  // measure 29
0000
0000
0000
0000
,  // measure 30
1001
0000
0000
0000
,  // measure 31
0010
0010
0000
0000
,  // measure 32
0100
0000
0000
0000
,  // measure 33
0010
0010
0000
0000
,  // measure 34
1000
0000
0000
0000
,  // measure 35
0100
0100
0000
0000
,  // measure 36
0010
0000
0000
0000
,  // measure 37
0001
0001
0000
0000
,  // measure 38
0100
0000
0000
0000
,  // measure 39
0001
0001
0000
0000
,  // measure 40
1000
0000
0000
0000
,  // measure 41
0100
0100
0000
0000
,  // measure 42
0010
0000
0000
0000
,  // measure 43
0100
0100
0000
0000
,  // measure 44
1000
0000
0000
0000
,  // measure 45
0010
0010
0000
0000
,  // measure 46
0100
0000
0001
0000
,  // measure 47
1000
0000
0001
0000
,  // measure 48
0010
0000
0100
0000
,  // measure 49
0010
0000
0000
0000
,  // measure 50
0100
0000
1000
0000
,  // measure 51
0001
0000
1000
0000
,  // measure 52
0010
0000
0100
0000
,  // measure 53
0010
0000
0100
0000
,  // measure 54
1001
0000
0000
0000
,  // measure 55
0000
0000
0000
0000
,  // measure 56
0000
0000
0000
0000
,  // measure 57
0000
0000
0000
0000
,  // measure 58
0000
0000
0000
0000
,  // measure 59
0000
0000
0000
0000
,  // measure 60
0000
0000
0000
0010
,  // measure 61
0000
0000
0000
0000
,  // measure 62
0000
0000
0000
1001
,  // measure 63
0000
0000
0000
0010
,  // measure 64
0010
0000
0000
0100
,  // measure 65
0000
0000
0000
0001
,  // measure 66
0001
0000
0000
1000
,  // measure 67
0000
0001
0000
0100
,  // measure 68
0000
0010
0000
0100
,  // measure 69
0000
0001
0000
0010
,  // measure 70
0000
0100
0000
1000
,  // measure 71
0000
0001
0000
1000
,  // measure 72
0000
0010
0000
0100
,  // measure 73
0000
0001
0000
1000
,  // measure 74
0000
0001
0000
1000
;
