#TITLE:Thunder;
#SUBTITLE:;
#ARTIST:Imagine Dragons;
#TITLETRANSLIT:;
#SUBTITLETRANSLIT:;
#ARTISTTRANSLIT:;
#GENRE:Evolve;
#CREDIT:;
#BANNER:Thunder-bn.png;
#BACKGROUND:Thunder-bg.png;
#LYRICSPATH:;
#CDTITLE:;
#MUSIC:Thunder.mp3;
#OFFSET:-0.020530;
#SAMPLESTART:34.247635;
#SAMPLELENGTH:11.508575;
#LASTBEATHINT:169.978668;
#SELECTABLE:YES;
#BPMS:0.000000=84.000000
;
#STOPS:30.500000=0.714000
;
#BGCHANGES:0.000=Thunder-video.avi=1.000=1=0=0=StretchNoLoop==CrossFade==,
99999=-nosongbg-=1.000=0=0=0 // don't automatically add -songbackground-
;
#KEYSOUNDS:;
#ATTACKS:;

//---------------dance-single - ----------------
#NOTES:
     dance-single:
     :
     Challenge:
     8:
     0.400917,0.398305,0.405460,0.389560,0.234531,353.000000,302.000000,51.000000,49.000000,0.000000,0.000000,0.400917,0.398305,0.405460,0.389560,0.234531,353.000000,302.000000,51.000000,49.000000,0.000000,0.000000:
0000
0000
0000
0000
,
0000
0000
0000
0000
,
0000
0000
0001
1000
0001
0000
0100
0000
0000
0000
0010
1000
0010
0000
0100
0000
,
0000
0000
0001
1000
0001
0000
0010
0000
0100
0000
1000
0000
0001
0000
0000
0000
,
0100
0000
0010
1000
0010
0000
0200
0000
0000
0000
0301
0010
0001
0010
0002
0000
,
0000
0000
1003
0100
0010
0000
0001
1000
0100
0000
0010
0001
0100
0000
0010
1000
,
0010
0000
0200
0000
0000
0000
0301
1000
0001
0000
0020
0000
0000
0000
0130
1000
,
0100
0000
2000
0000
0000
3010
0100
0010
0100
0000
0001
0000
2100
0000
0002
0000
,
0000
3003
2100
0001
3100
0000
0102
2000
,
3000
0000
0103
0001
0100
0000
0010
0000
1100
0000
0010
0000
0102
0000
0020
0000
,
0000
0033
0101
0010
1100
0000
2100
0020
,
0000
0030
3010
1000
0010
0000
0100
0000
1001
0000
0100
0000
0001
0000
0101
0000
,
0000
0000
1000
0100
1000
0000
0100
0000
1100
0000
0101
0000
1001
0000
0010
0000
,
1000
0000
0100
1000
0010
0000
0110
0000
0100
0000
0000
0000
0001
0000
1000
0000
,
1001
0000
0010
0001
0010
0000
0001
0000
1001
0000
0110
0000
1001
0000
0100
0000
,
0010
0000
1000
0100
1000
0000
0001
0000
1100
0000
0001
0000
0200
0000
0000
0000
,
0320
0000
0000
0000
2030
0000
0000
0000
3100
0000
0010
0001
1000
0001
0100
0010
,
0200
0000
0301
0020
,
0030
0000
0001
1000
0002
0000
0000
0000
0003
0100
0010
0200
0000
0000
0000
0000
,
0310
2000
0100
0000
3001
0000
0020
0000
,
0230
0000
0000
0000
2300
0000
0000
0000
3010
0000
0100
0001
1000
0010
0100
0001
,
2000
3100
0010
0002
,
0103
0000
0010
1000
0020
0000
0000
0000
0130
0000
0001
0000
2000
0000
0000
0000
,
0100
0000
0010
0000
3001
0000
0110
1001
,
0000
0000
0100
0010
0100
0000
1001
0000
0000
0000
0000
0000
0000
0000
0010
0000
,
0010
0000
0100
0010
0100
0000
0001
0000
0101
0000
1100
0000
0102
0000
2000
0000
,
3000
0000
0103
0002
0100
0000
1000
0000
0103
0000
0000
0000
2100
0000
0001
0000
,
0100
0000
3001
1000
0001
0000
0010
0000
0101
0000
0010
0000
2100
0000
0020
0000
,
0000
0030
3010
1000
0010
0000
0100
0000
0101
0000
0000
0000
0102
0000
0010
0000
,
0100
0000
0013
0001
0010
0000
0100
0000
1100
0000
0101
0000
1001
0000
0200
0000
,
0000
0000
0301
0100
0001
0000
0100
0000
1001
0000
0000
0000
0010
0000
0001
0000
,
1000
0000
0100
1000
0010
0000
0100
0001
0101
0000
1100
0000
1001
0000
0100
0000
,
0010
0000
0001
1000
0100
0000
0010
0000
1001
0000
0000
0000
1000
0000
0010
0000
,
0100
0000
0001
0100
0001
0000
1000
0000
0101
0000
1000
0000
0001
0100
0000
1000
,
0100
0000
0001
0100
0000
1000
0100
0000
0200
0000
0000
0000
0310
0001
0000
0010
,
1000
0000
0010
0001
0000
0010
1000
0000
0020
0000
0000
0000
0130
0001
0000
0001
,
1000
0000
1000
0100
0000
0100
0010
0000
0002
0000
0000
0000
1003
0010
0000
0010
,
0100
0000
0100
0001
0000
0001
1000
0000
1100
0000
1001
0000
0102
0000
2000
0000
,
0000
3003
0102
1000
0103
0000
2100
0002
,
0003
0000
3100
1000
0100
0000
0010
0000
0101
0000
0010
0000
2100
0000
0020
0000
,
0000
3030
1100
0010
0101
0000
0102
0020
,
0000
0030
0013
0001
0010
0000
0100
0000
1001
0000
0100
0000
1100
0000
0000
0000
;

//---------------dance-single - ----------------
#NOTES:
     dance-single:
     :
     Hard:
     7:
     0.275986,0.282133,0.151054,0.254406,0.083477,243.000000,224.000000,19.000000,32.000000,0.000000,0.000000,0.275986,0.282133,0.151054,0.254406,0.083477,243.000000,224.000000,19.000000,32.000000,0.000000,0.000000:
0000
0000
0000
0000
,
0000
0000
0000
0000
,
0000
0001
1000
0100
0000
0010
1000
0100
,
0000
0001
1000
0010
0100
0001
1000
0000
,
0100
0010
0001
0101
0000
0001
0010
0011
,
0000
1000
0100
0001
0100
1000
0100
0010
,
0001
0200
0000
0310
1000
0200
0000
1300
,
0010
0000
2000
0000
0000
3000
0010
0000
0100
0000
0001
0000
1000
0000
0020
0000
,
0000
0000
1030
0100
1001
0000
0001
0010
,
0000
0000
0100
1000
0100
0000
1000
0000
0001
0000
0100
0000
0010
0000
2000
0000
,
0000
0000
3100
0010
1001
0000
0010
0200
,
0000
0301
1000
0010
0100
0001
0001
0020
,
0000
0031
0100
0001
0100
0100
0100
0010
,
1000
0000
0001
1000
0001
0000
1000
0000
0100
0000
0100
0000
0100
0000
0020
0000
,
0000
0030
0001
0100
0020
0000
1030
0020
,
0000
1030
0100
0001
0100
1000
0002
0000
,
0023
0000
0230
0000
1300
0010
0100
0001
,
0200
0000
0301
0020
,
0030
0001
2000
0000
3000
0100
0020
0000
,
0030
0002
0103
0020
,
0230
0000
0302
0000
0013
0100
1000
0001
,
2000
3100
0010
0002
,
0103
0000
0010
1000
0020
0000
0000
0000
0130
0000
0001
0000
2000
0000
0000
0000
,
0100
0010
3100
0000
,
0000
0000
0000
0000
,
0000
0000
0000
0000
1000
1000
1000
0020
,
0000
0000
0130
0001
1001
0000
1000
0010
,
0000
0000
0100
0001
0100
0000
0001
0000
1000
0000
0100
0000
0010
0000
0002
0000
,
0000
0000
0103
0010
1001
0000
0010
0200
,
0000
1300
0001
0010
0100
1000
1000
0020
,
0000
1030
0100
1000
0100
0000
0100
0010
,
0001
0000
1000
0001
1000
0000
0001
0000
0100
0000
0100
0000
0100
0000
0020
0000
,
0000
0030
1000
0100
0020
0000
0031
0020
,
0000
0000
0031
0000
0100
0000
1000
0000
0100
0000
0001
0000
1000
0000
0000
0010
,
0000
0000
0001
0000
0000
0100
0000
0000
0101
0000
0000
0000
0001
0000
0000
0100
,
0000
0000
1000
0000
0000
0010
0000
0000
1010
0000
0000
0000
0010
0000
0000
0100
,
0000
0000
0001
0000
0000
1000
0000
0000
1001
0000
0000
0000
1000
0000
0000
0001
,
0000
0000
0010
0000
0000
0100
0000
0000
0110
0000
0100
0000
1001
0000
0000
0001
,
0000
0000
1000
0000
0000
0010
0000
0000
1001
0000
0000
0000
0110
0000
0000
0100
,
0000
0000
0001
0000
0000
0010
0000
0000
0110
0000
0000
0000
1001
0000
0000
0010
,
0000
0000
0001
0000
0000
0100
0000
0000
1100
0000
0000
0000
1001
0000
0000
0010
,
0000
0000
1000
0000
0000
0100
0000
0000
0101
0000
0100
0000
1001
0000
0000
0000
;

//---------------dance-single - ----------------
#NOTES:
     dance-single:
     :
     Medium:
     5:
     0.240777,0.265537,0.111303,0.111303,0.000000,212.000000,198.000000,14.000000,14.000000,0.000000,0.000000,0.240777,0.265537,0.111303,0.111303,0.000000,212.000000,198.000000,14.000000,14.000000,0.000000,0.000000:
0000
0000
0000
0000
,
0000
0000
0000
0000
,
0001
0000
0010
0100
1000
0000
0010
0100
,
0001
0000
0010
0000
0100
1000
0001
0000
,
0100
0000
0010
1000
0010
0000
0100
0001
,
0100
0000
0001
1000
0001
0000
0010
0100
,
1000
0000
0010
0100
0001
0000
0010
0100
,
1000
0000
0010
0100
0001
0000
1001
0000
,
0010
0000
1000
1000
0100
0000
0001
0001
,
0000
0010
0010
0100
1000
0000
0001
0001
,
0000
0000
0100
0100
0010
0000
1000
1000
,
0000
0001
0001
0100
0010
0000
1000
0100
,
0000
0001
0100
0000
0110
0110
0220
0000
,
0330
0000
0001
1000
0100
0000
0010
0010
,
0000
0000
0001
0001
1000
0000
0100
0100
,
0000
0010
0010
0001
0100
0000
0002
0000
,
0100
0000
1000
0000
0103
0001
0200
0000
,
1000
0000
0001
0000
0310
1000
0020
0000
,
1000
0000
0100
0000
1030
0100
2000
0000
,
0100
0010
3100
0002
,
0100
0000
1000
0000
0103
0001
0200
0000
,
1000
0000
0001
0000
0310
1000
0020
0000
,
1000
0000
0100
0000
1030
0100
2000
0000
,
0100
0010
3100
0000
,
0000
0000
0000
0000
,
0000
0000
0000
1001
,
0010
0000
1000
1000
0100
0000
0001
0001
,
0000
0010
0010
0100
1000
0000
0001
0001
,
0000
0000
0100
0100
0010
0000
1000
0100
,
0000
0001
0100
0000
0110
0110
0220
0000
,
0330
0000
0001
0001
1000
0000
0100
0000
,
0010
0000
0001
0001
0100
0000
0010
0010
,
0000
0000
1000
1000
0001
0000
0100
0100
,
0000
0010
0010
1000
0100
0000
0001
0000
,
0010
0000
0100
1000
1100
0000
1000
0000
,
0010
0000
0100
0001
0101
0000
1000
0000
,
0100
0000
0010
0001
0011
0000
0001
0000
,
0100
0000
0010
1000
1010
0000
2002
0000
,
3003
0000
1000
1000
0100
0000
0001
0001
,
0000
0010
0010
0100
1000
0000
0001
0001
,
0000
0000
0100
0100
0010
0000
1000
1000
,
0000
0001
0001
0000
0100
0010
0110
0000
;

//---------------dance-single - ----------------
#NOTES:
     dance-single:
     :
     Easy:
     3:
     0.163547,0.199153,0.047701,0.111303,0.000000,144.000000,138.000000,6.000000,14.000000,0.000000,0.000000,0.163547,0.199153,0.047701,0.111303,0.000000,144.000000,138.000000,6.000000,14.000000,0.000000,0.000000:
// measure 0
0000
0000
0000
0000
,  // measure 1
0000
0000
0000
0000
,  // measure 2
1000
1000
0100
0100
,  // measure 3
0001
0001
0010
0010
,  // measure 4
0100
2000
3000
0002
,  // measure 5
0003
0010
0100
0010
,  // measure 6
0002
0003
2000
3000
,  // measure 7
0020
0000
0030
0000
0200
0300
0001
0001
,  // measure 8
0000
0000
1000
0000
1001
0000
1000
1000
,  // measure 9
0000
0000
0010
0000
0110
0000
0100
0100
,  // measure 10
0000
0000
0001
0000
1001
0000
1000
1000
,  // measure 11
0000
0000
0010
0000
0110
0000
0100
0100
,  // measure 12
0000
0000
0001
0001
0000
0000
0010
0000
,  // measure 13
0100
0000
1000
0000
0000
0000
0001
0001
,  // measure 14
0000
0000
1000
1000
0000
0000
0000
0000
,  // measure 15
0100
0000
0010
0010
0000
0000
0001
0000
,  // measure 16
0001
0002
0000
0103
,  // measure 17
0010
1000
0100
0020
,  // measure 18
0000
0032
0000
2003
,  // measure 19
0000
3100
0010
0100
,  // measure 20
0100
0200
0000
1300
,  // measure 21
0010
0100
0001
0020
,  // measure 22
0000
0230
0000
2300
,  // measure 23
0000
0000
0000
3000
,  // measure 24
0000
0000
0000
0000
,  // measure 25
0000
0000
0000
0000
0000
0000
1000
1000
,  // measure 26
0000
0000
0001
0001
0000
0000
0000
0000
,  // measure 27
0100
0000
0010
0010
0000
0000
1000
1000
,  // measure 28
0000
0000
0100
0100
0000
0000
0010
0000
,  // measure 29
0001
0000
0100
0100
0000
0000
0010
0010
,  // measure 30
0000
0000
1000
1000
0000
0000
0000
0000
,  // measure 31
0001
0000
0100
0100
0000
0000
0010
0010
,  // measure 32
0000
0000
1000
1000
0000
0000
0100
0000
,  // measure 33
0010
0000
0001
0001
0001
0000
1001
0000
,  // measure 34
0100
1000
0100
0001
,  // measure 35
0100
1000
0100
0001
,  // measure 36
0010
0100
1000
0010
,  // measure 37
0100
0000
0001
0000
0010
0000
1000
1000
,  // measure 38
0000
0000
0001
0001
0001
0000
0100
0100
,  // measure 39
0000
0000
0010
0010
0010
0000
1000
1000
,  // measure 40
0000
0000
0100
0100
0100
0000
0010
0010
,  // measure 41
0000
0000
0001
0001
0001
0000
1001
0000
;

//---------------dance-single - ----------------
#NOTES:
     dance-single:
     :
     Beginner:
     1:
     0.114710,0.132768,0.031801,0.063602,0.000000,101.000000,97.000000,4.000000,8.000000,0.000000,0.000000,0.114710,0.132768,0.031801,0.063602,0.000000,101.000000,97.000000,4.000000,8.000000,0.000000,0.000000:
// measure 0
0000
0000
0000
0000
,  // measure 1
0000
0000
0000
0000
,  // measure 2
1000
0000
0100
0000
,  // measure 3
0001
0000
0010
0000
,  // measure 4
0100
0000
0100
0000
,  // measure 5
1000
0000
0001
0000
,  // measure 6
0100
0000
0010
0000
,  // measure 7
1000
0000
0001
0001
,  // measure 8
0000
0010
0010
0010
,  // measure 9
0000
0100
0100
0100
,  // measure 10
0000
1000
1000
1000
,  // measure 11
0000
0010
0010
0010
,  // measure 12
0000
0100
0100
0100
,  // measure 13
0000
0001
0001
0001
,  // measure 14
0000
0010
0010
0010
,  // measure 15
0000
0100
0000
1000
,  // measure 16
1000
2000
3000
0020
,  // measure 17
0030
0200
0300
0002
,  // measure 18
0003
0020
0030
0200
,  // measure 19
0000
0300
1000
1000
,  // measure 20
1000
1000
0000
0002
,  // measure 21
0000
0003
0000
0100
,  // measure 22
0000
0010
0000
2000
,  // measure 23
0000
0000
0000
3000
,  // measure 24
0000
0000
0000
0000
,  // measure 25
0000
0000
0000
1001
,  // measure 26
0000
0010
0010
0010
,  // measure 27
0000
0100
0100
0100
,  // measure 28
0000
0001
0001
0001
,  // measure 29
0000
0010
0010
0010
,  // measure 30
0000
0100
0100
0100
,  // measure 31
0000
1000
1000
1000
,  // measure 32
0000
0010
0010
0010
,  // measure 33
0000
0100
0000
1001
,  // measure 34
0000
0001
0001
0001
,  // measure 35
0000
1000
1000
1000
,  // measure 36
0000
0001
0001
0001
,  // measure 37
0000
1000
0000
0110
,  // measure 38
0000
0100
0100
0100
,  // measure 39
0000
0010
0010
0010
,  // measure 40
0000
0100
0100
0100
,  // measure 41
0000
0010
0000
1001
;
