#VERSION:0.83;
#TITLE:The Painful Way;
#SUBTITLE:;
#ARTIST:Darren Korb;
#TITLETRANSLIT:;
#SUBTITLETRANSLIT:;
#ARTISTTRANSLIT:;
#GENRE:Hades;
#ORIGIN:;
#CREDIT:;
#BANNER:The Painful Way-bn.png;
#BACKGROUND:The Painful Way-bg.png;
#PREVIEWVID:;
#JACKET:The Painful Way-jacket.png;
#CDIMAGE:;
#DISCIMAGE:;
#LYRICSPATH:;
#CDTITLE:;
#MUSIC:The Painful Way.mp3;
#OFFSET:-0.024004;
#SAMPLESTART:34.250095;
#SAMPLELENGTH:19.591839;
#SELECTABLE:YES;
#BPMS:0.000=196.000;
#STOPS:;
#DELAYS:;
#WARPS:;
#TIMESIGNATURES:0.000=4=4;
#TICKCOUNTS:0.000=2;
#COMBOS:0.000=1;
#SPEEDS:0.000=1.000=0.000=0;
#SCROLLS:0.000=1.000;
#FAKES:;
#LABELS:0.000=Song Start;
#LASTSECONDHINT:115.166428;
#BGCHANGES:;
#KEYSOUNDS:;
#ATTACKS:
;

//---------------dance-single - ----------------
#NOTEDATA:;
#CHARTNAME:;
#STEPSTYPE:dance-single;
#DESCRIPTION:;
#CHARTSTYLE:;
#DIFFICULTY:Challenge;
#METER:10;
#RADARVALUES:0.678055,0.730342,0.509735,0.543160,0.183839,568.000000,507.000000,61.000000,65.000000,0.000000,0.000000,0.000000,0.000000,0.000000,0.678055,0.730342,0.509735,0.543160,0.183839,568.000000,507.000000,61.000000,65.000000,0.000000,0.000000,0.000000,0.000000,0.000000;
#CREDIT:;
#NOTES:
0000
0000
0000
0000
,
0000
0000
0000
0000
,
0000
0000
0000
0000
,
0000
0000
0000
0000
,
0001
0010
0100
0000
1000
0000
0001
0000
0000
0000
0100
0000
0010
1000
0001
0000
,
0100
0010
0000
1000
0001
0001
1000
1000
,
0100
1000
0010
0000
0100
0000
0001
0000
0000
0000
1000
0000
0010
0100
0001
0000
,
1000
0100
0000
0010
1001
0000
0001
1000
,
0010
1000
0100
0000
0010
0000
0001
0000
0000
0000
1000
0000
0010
1000
0001
0000
,
0100
0010
0000
1000
0100
0010
0100
0010
,
0001
1000
0010
0000
0100
0000
0001
0000
0000
0000
1000
0000
0001
1000
0010
0000
,
0010
0100
0001
0010
1000
0001
0100
1000
,
0001
0100
0010
0000
0100
0000
0001
0000
0000
0000
1000
0000
0010
1000
0001
0000
,
1000
0010
0000
1000
0100
0000
1000
1000
,
0001
0010
0100
0000
1000
0000
0001
0000
0000
0000
1000
0000
0010
1000
0001
0000
,
0100
0010
0000
1000
1001
0000
0001
1000
,
0100
1000
0001
0000
0100
0000
0010
0000
0000
0000
1000
0000
0001
0010
0100
0000
,
0010
0001
0000
1000
0100
0000
0010
0100
,
1000
0001
0100
0000
0001
0000
1000
0000
0000
0000
0010
0000
1000
0001
1000
0000
,
1000
0010
0100
0001
0010
1000
0010
0001
,
0100
0001
1000
0000
0001
0000
0100
0000
0000
0000
0010
0000
1000
0010
0100
0000
,
0010
1000
0000
0010
0100
0000
0010
1000
,
0100
1000
0001
0000
0010
0000
0100
0000
0000
0000
0010
0000
0001
0010
0100
0000
,
1000
0001
0000
0010
0100
0100
0010
0010
,
0001
0100
0010
0000
1000
0000
0001
0000
0000
0000
1000
0000
0010
1000
0001
0000
,
0100
0010
0000
1000
0001
0000
0010
0001
,
0100
0001
0010
0000
0100
0000
1000
0000
0000
0000
1000
0000
0010
0100
0001
0000
,
0001
0010
0001
0100
0010
1000
0100
1000
,
1002
0013
0021
1030
,
2010
3100
1200
0301
,
0102
0013
0021
1030
,
2001
0000
3010
0000
0012
0000
0103
0001
,
1000
0010
0100
0000
0001
0000
1000
0000
0000
0000
0001
0000
0100
0001
1000
0000
,
0010
0100
0000
0001
1001
0000
0100
1000
,
0010
1000
0100
0000
0010
0000
0001
0000
0000
0000
0001
0000
0100
0010
1000
0000
,
1000
0100
0001
0100
1000
0010
0001
0010
,
2010
3100
1002
0103
,
0102
0013
1020
0130
,
0210
0000
0301
0000
1100
1000
0001
1000
,
1200
0000
0310
0000
0001
0100
0010
0100
,
0001
0010
0100
0000
1000
0000
0001
0000
0000
0000
0100
0000
0010
1000
0001
0000
,
0100
0010
0000
1000
0001
0001
1000
1000
,
0100
1000
0010
0000
0100
0000
0001
0000
0000
0000
1000
0000
0010
0100
0001
0000
,
1000
0100
0000
0010
1001
0000
0001
1000
,
0010
1000
0100
0000
0010
0000
0001
0000
0000
0000
1000
0000
0010
1000
0001
0000
,
0100
0010
0000
1000
0100
0010
0100
0010
,
0001
1000
0010
0000
0100
0000
0001
0000
0000
0000
1000
0000
0001
1000
0010
0000
,
0010
0100
0001
0010
1000
0001
0100
1000
,
0001
0100
0010
0000
1000
0000
0001
0000
0000
0000
1000
0000
0010
1000
0001
0000
,
0100
0010
0000
1000
0001
0000
0010
0001
,
0100
0001
0010
0000
0100
0000
1000
0000
0000
0000
1000
0000
0010
0100
0001
0000
,
0001
0010
0001
0100
0010
1000
0100
1000
,
0001
1000
0010
0000
0100
0000
0010
0000
0000
0000
1000
0000
0100
0010
0001
0000
,
0100
0001
0000
1000
0001
0000
0010
0100
,
1000
0010
0100
0000
0010
0000
1000
0000
0000
0000
1000
0000
0100
0010
0001
0000
,
0100
0001
0100
0010
1000
0100
0010
0100
,
1002
0013
0021
1030
,
2010
3100
1200
0301
,
0102
0013
0021
1030
,
2001
3010
0012
0103
,
0210
0301
1002
0103
,
1200
0310
1020
0130
,
0021
0130
0201
1300
,
1020
0000
0031
0000
2001
0000
3100
0010
,
0120
0031
2001
3010
,
0012
1003
0201
1300
,
1200
0301
1002
0013
,
0021
0000
0130
0000
1100
0100
0010
0100
,
2001
3100
1002
0013
,
1020
0031
1002
0013
,
0011
0000
1001
0000
1000
0010
0100
0001
,
0101
0000
1010
0010
0100
0001
0100
0010
,
1002
0000
0000
0203
0000
0000
0302
0000
,
0000
1003
0100
0010
,
0200
0000
0000
2300
0000
0000
3002
0000
,
0000
1003
0100
0010
,
0012
0000
0000
2003
0000
0000
3002
0000
,
0000
0103
0010
0100
,
0020
0000
0000
2030
0000
0000
3200
0000
,
0000
0310
0001
1000
,
1001
0000
0000
0010
0000
0000
2020
0000
,
3030
0001
1000
0100
,
0020
0000
0000
0032
0000
0000
2003
0000
,
0000
3010
0100
0001
,
0101
0000
0000
0100
0000
0000
2002
0000
,
3003
0100
1000
0001
,
0020
0000
0000
0230
0000
0000
2300
0000
,
3000
1001
0011
1100
,
2002
0000
0000
0000
,
0000
0000
0000
0000
,
0000
0000
0000
0000
,
0000
0000
0000
0000
,
3003
0000
0000
0000
;

//---------------dance-single - ----------------
#NOTEDATA:;
#CHARTNAME:;
#STEPSTYPE:dance-single;
#DESCRIPTION:;
#CHARTSTYLE:;
#DIFFICULTY:Hard;
#METER:8;
#RADARVALUES:0.489441,0.615025,0.217264,0.426172,0.000000,410.000000,384.000000,26.000000,51.000000,0.000000,0.000000,0.000000,0.000000,0.000000,0.489441,0.615025,0.217264,0.426172,0.000000,410.000000,384.000000,26.000000,51.000000,0.000000,0.000000,0.000000,0.000000,0.000000;
#CREDIT:;
#NOTES:
0000
0000
0000
0000
,
0000
0000
0000
0000
,
0000
0000
0000
0000
,
0000
0000
0000
0000
,
0001
0100
0001
1000
0000
0000
0010
1000
,
0001
1000
0000
0000
0010
0100
0010
0000
,
1000
0100
0010
0100
0000
0000
1000
0001
,
0100
0001
0000
0000
1000
0001
1000
0000
,
0010
1000
0100
1000
0000
0000
0001
0010
,
0001
0100
0000
0000
0010
0100
0010
0000
,
1000
0001
0100
0010
0000
0000
0100
0001
,
1000
0100
0000
0000
0010
0100
0010
0000
,
0011
0000
0001
1000
0000
1000
0010
0000
,
0010
1000
0000
1000
0001
0000
0001
0000
,
0010
0000
0010
0100
0000
0100
1000
0000
,
1000
0001
0000
0001
0100
0010
0100
0000
,
0010
0000
0010
1000
0000
1000
0001
0000
,
0001
0010
0000
0010
0100
0000
1000
0000
,
0001
0000
1000
0010
0000
0010
1000
0000
,
0100
0001
0000
0001
0100
0000
0010
0000
,
1000
0000
0001
0010
0000
0010
0001
0000
,
0100
1000
0000
1000
0100
0000
0010
0000
,
1001
0000
0001
0100
0000
0100
0010
0000
,
0001
0010
0000
0010
1000
0000
0001
0000
,
1000
0000
1000
0100
0000
0100
1000
0000
,
0010
0100
0000
0100
0010
0000
1000
0000
,
0001
0000
0001
0010
0000
0010
0100
0000
,
0100
1000
0001
1000
0100
1000
0001
0000
,
0202
0003
0002
0003
,
2000
3000
0020
0030
,
0001
0001
1000
1000
,
0010
0010
0001
0301
,
0101
0000
0001
1000
0000
1000
0001
1000
,
0100
1000
0000
1000
0001
0000
0001
0000
,
0010
0000
0010
0001
0000
0001
1000
0010
,
1000
0001
0100
0010
0100
0010
1000
0001
,
2002
3000
0020
0030
,
2000
3000
0200
0300
,
0010
0010
0100
0100
,
1000
1000
0010
0013
,
1001
0000
0001
0010
0000
0010
0001
1000
,
0001
0010
0000
0010
0001
0000
0001
0000
,
1000
0100
1000
0001
0000
1000
0100
1000
,
0001
1000
0000
0100
1000
0001
1000
0000
,
1010
0000
1000
0001
0000
0001
1000
0010
,
1000
0001
0000
0001
0100
0000
0010
0000
,
1000
0100
1000
0001
0000
0001
0010
0000
,
0010
0001
0100
0010
0100
0001
0100
0000
,
0001
1000
0001
0100
0000
0001
1000
0001
,
0100
0001
0000
1000
0010
1000
0001
0000
,
1000
0010
0100
0010
0000
1000
0100
0010
,
0100
1000
0000
0001
0010
0001
1000
0000
,
0010
1000
0001
1000
0000
0001
0010
0001
,
1000
0001
0000
0100
0010
0000
1000
0000
,
0001
0010
0001
0100
0000
0100
0010
0000
,
1000
0100
1000
0100
0001
0100
0001
0100
,
2000
3000
2200
3300
,
2002
3003
2200
3300
,
0012
0010
0100
0103
,
2100
0010
0100
3100
,
1010
0000
1000
0010
0100
0000
0010
0100
,
0001
0000
0100
0001
1000
0000
0001
1000
,
0020
0001
1000
0130
,
2000
0100
0001
3010
,
0201
1000
0010
0301
,
0021
0100
1000
0031
,
0210
1000
0001
0310
,
0120
0001
1000
0130
,
2001
0010
0001
0100
,
0010
0001
0100
0010
,
3200
0001
1000
0010
,
0302
1000
0010
0103
,
2002
0000
0000
0000
,
0000
0000
0000
3003
,
0200
0000
0000
2300
0000
0000
3002
0000
,
0000
1003
0100
0010
,
0012
0000
0000
2003
0000
0000
3002
0000
,
0000
0103
0010
0100
,
0020
0000
0000
2030
0000
0000
3200
0000
,
0000
0310
0001
1000
,
1001
0000
0000
0010
0000
0000
2020
0000
,
3030
0001
1000
0100
,
0020
0000
0000
0032
0000
0000
2003
0000
,
0000
3010
0100
0001
,
0101
0000
0000
0100
0000
0000
2002
0000
,
3003
0100
1000
0001
,
0020
0000
0000
0230
0000
0000
2300
0000
,
3000
0001
0010
0110
,
2002
0000
0000
0000
,
0000
0000
0000
0000
,
0000
0000
0000
0000
,
0000
0000
0000
0000
,
3003
0000
0000
0000
;

//---------------dance-single - ----------------
#NOTEDATA:;
#CHARTNAME:;
#STEPSTYPE:dance-single;
#DESCRIPTION:;
#CHARTSTYLE:;
#DIFFICULTY:Medium;
#METER:6;
#RADARVALUES:0.362903,0.499708,0.275758,0.777137,0.000000,304.000000,271.000000,33.000000,93.000000,0.000000,0.000000,0.000000,0.000000,0.000000,0.362903,0.499708,0.275758,0.777137,0.000000,304.000000,271.000000,33.000000,93.000000,0.000000,0.000000,0.000000,0.000000,0.000000;
#CREDIT:;
#NOTES:
0000
0000
0000
0000
,
0000
0000
0000
0000
,
0000
0000
0000
0000
,
0000
0000
0000
0000
,
0010
0000
1000
0100
0000
0000
0010
0000
,
0001
0100
0000
0000
1001
0000
0000
0000
,
0010
0000
0001
1000
0000
0000
0010
0000
,
1000
0001
0000
0000
0100
0010
0100
0000
,
0001
0000
1000
0100
0000
0000
1000
0000
,
0001
0010
0000
0000
0001
0000
0100
0000
,
0010
0000
1000
0100
0000
0000
0010
0000
,
0001
0100
0001
0000
1000
0010
1000
0000
,
0001
0000
0010
0100
0000
0000
0010
0000
,
0001
1000
0000
0000
0010
0000
1000
0000
,
0001
0000
1000
0100
0000
0000
1000
0000
,
0001
0100
0000
0000
1001
0000
0000
0000
,
0010
0000
1000
0100
0000
0000
0010
0000
,
0001
0100
0000
0000
0001
0000
0000
0000
,
1000
0000
0010
0100
0000
0000
0010
0000
,
1000
0100
1000
0000
0001
0010
0001
0000
,
1001
0000
0001
0100
0000
0000
1001
0000
,
0001
0100
0000
0000
0010
0000
0000
0000
,
1001
0000
1000
0100
0000
0000
1001
0000
,
1000
0100
0000
0000
1000
0001
1000
0000
,
0010
0000
1000
0001
0000
0000
0010
0000
,
0001
1000
0000
0000
0010
0100
0010
0000
,
1000
0000
0001
0100
0000
0000
0010
0000
,
1000
0100
1000
0000
0001
0100
0001
0000
,
2002
3000
0020
0030
,
2000
3000
0200
0300
,
2000
3000
2000
3000
,
0200
0300
0200
0303
,
0010
0000
0001
0100
0000
0000
0010
0000
,
1000
0100
0000
0000
1001
0000
0000
0000
,
0010
0000
1000
0100
0000
0000
0001
0000
,
1000
0001
1000
0000
0010
0100
0010
0000
,
2002
0003
0020
0030
,
0002
0003
0200
0300
,
0002
0003
0002
0003
,
0020
0030
0020
3030
,
1000
0000
0001
0100
0000
0000
0001
0000
,
1000
0100
0000
0000
1001
0000
0000
0000
,
0010
0000
0001
0100
0000
0000
0001
0000
,
1000
0010
1000
0000
0001
0100
0001
0000
,
1000
0000
0010
0100
0000
0000
0010
0000
,
1000
0100
0000
0000
1001
0000
0000
0000
,
0010
0000
0001
1000
0000
0000
0010
0000
,
1000
0001
1000
0000
0010
1000
0010
0000
,
1000
0000
0001
0100
0000
0000
0001
0000
,
1000
0100
0000
0000
1001
0000
0000
0000
,
0010
0000
0001
1000
0000
0000
0010
0000
,
1000
0001
0000
0000
0010
0100
0010
0000
,
0001
0000
1000
0100
0000
0000
1000
0000
,
0001
0100
0000
0000
0001
0000
0000
0000
,
1000
0000
0001
0010
0000
0000
0100
0000
,
1000
0100
1000
0000
0001
0010
0001
0000
,
2002
3000
0020
0030
,
2000
3000
0020
0030
,
0200
0300
0200
0300
,
2000
3000
2000
3003
,
2002
0003
0020
0030
,
0002
0003
0002
0003
,
0200
0300
0200
0300
,
0020
0030
0020
3030
,
2020
3030
2020
3030
,
0022
0033
0022
0033
,
0220
0330
2002
3003
,
0202
0303
2200
3300
,
0220
0330
2020
3030
,
2002
3003
0022
0033
,
0220
0330
2200
3300
,
0202
0303
0220
0330
,
2002
0000
0000
0000
,
0000
0000
0000
3003
,
0200
0000
0300
2000
0000
3000
0002
0000
,
0000
1003
1000
0000
,
0020
0000
0030
2000
0000
3000
0002
0000
,
0000
0103
0100
0000
,
0020
0000
0030
2000
0000
3000
0200
0000
,
0000
0310
0010
0000
,
0002
0000
0003
2000
0000
3000
0020
0000
,
0000
0130
0100
0000
,
0002
0000
0003
0020
0000
0030
2000
0000
,
0000
3010
0010
0000
,
0200
0000
0300
0002
0000
0003
2000
0000
,
0000
3100
0100
0000
,
0020
0000
0030
0200
0000
0300
2000
0000
,
0000
3001
0010
0110
,
2002
0000
0000
0000
,
0000
0000
0000
0000
,
0000
0000
0000
0000
,
0000
0000
0000
0000
,
3003
0000
0000
0000
;

//---------------dance-single - ----------------
#NOTEDATA:;
#CHARTNAME:;
#STEPSTYPE:dance-single;
#DESCRIPTION:;
#CHARTSTYLE:;
#DIFFICULTY:Easy;
#METER:4;
#RADARVALUES:0.229202,0.307512,0.083563,0.409459,0.000000,192.000000,182.000000,10.000000,49.000000,0.000000,0.000000,0.000000,0.000000,0.000000,0.229202,0.307512,0.083563,0.409459,0.000000,192.000000,182.000000,10.000000,49.000000,0.000000,0.000000,0.000000,0.000000,0.000000;
#CREDIT:;
#NOTES:
// measure 0
0000
0000
0000
0000
,  // measure 1
0000
0000
0000
0000
,  // measure 2
0000
0000
0000
0000
,  // measure 3
0000
0000
0000
0000
,  // measure 4
0001
0010
0100
1000
,  // measure 5
0000
1000
0010
0000
,  // measure 6
1000
0010
0100
0001
,  // measure 7
0000
1000
0100
0100
,  // measure 8
0010
0001
1000
0010
,  // measure 9
0000
1000
0001
0000
,  // measure 10
0010
0001
0100
0000
,  // measure 11
0010
1000
0010
0000
,  // measure 12
1000
0001
0100
0001
,  // measure 13
0000
1000
0100
0000
,  // measure 14
1000
0010
0100
0010
,  // measure 15
0000
1000
0001
0001
,  // measure 16
0010
0001
1000
0010
,  // measure 17
0000
1000
0001
0000
,  // measure 18
0010
0001
0100
0010
,  // measure 19
1000
0100
0010
0000
,  // measure 20
0001
1000
0001
0010
,  // measure 21
0010
0001
1000
0000
,  // measure 22
0001
1000
0001
0100
,  // measure 23
0100
0001
1000
0000
,  // measure 24
0001
1000
0100
1000
,  // measure 25
0001
0001
1000
0000
,  // measure 26
0010
1000
0100
0010
,  // measure 27
0001
1000
0010
0000
,  // measure 28
2000
0000
0000
0000
,  // measure 29
3002
0000
0000
0000
,  // measure 30
0203
0000
0000
0000
,  // measure 31
0320
0000
0000
0030
,  // measure 32
1001
0010
1000
0000
,  // measure 33
0010
0000
0010
0000
,  // measure 34
1001
0100
0001
0000
,  // measure 35
0100
0000
0100
0000
,  // measure 36
0002
0000
0000
0000
,  // measure 37
2003
0000
0000
0000
,  // measure 38
3020
0000
0000
0000
,  // measure 39
0230
0000
0000
0000
,  // measure 40
0301
0010
1000
0000
,  // measure 41
0010
0000
0110
0000
,  // measure 42
1000
0100
0001
0000
,  // measure 43
0100
0000
1001
0000
,  // measure 44
0001
0010
0100
1000
,  // measure 45
0000
1000
0001
0000
,  // measure 46
1000
0010
1000
0001
,  // measure 47
0100
0010
0100
0000
,  // measure 48
0001
0010
0001
1000
,  // measure 49
0000
0001
0010
0000
,  // measure 50
0001
1000
0100
1000
,  // measure 51
0000
0001
1000
0000
,  // measure 52
1000
0001
0100
0001
,  // measure 53
0000
1000
0001
0000
,  // measure 54
0100
0010
1000
0001
,  // measure 55
0100
0010
0100
0000
,  // measure 56
0002
0000
0000
0000
,  // measure 57
2003
0000
0000
0000
,  // measure 58
3020
0000
0000
0000
,  // measure 59
0230
0000
0000
0000
,  // measure 60
0302
0000
0000
0000
,  // measure 61
0023
0000
0000
0000
,  // measure 62
0230
0000
0000
0000
,  // measure 63
2300
0000
0000
3000
,  // measure 64
2002
0000
0000
3003
,  // measure 65
2020
0000
0000
3030
,  // measure 66
2002
0000
0000
3003
,  // measure 67
0022
0000
0000
0033
,  // measure 68
2000
3000
0020
0030
,  // measure 69
0002
0003
0020
0030
,  // measure 70
2000
3000
0200
0300
,  // measure 71
0020
0030
0002
0003
,  // measure 72
2002
0000
0000
0000
,  // measure 73
0000
0000
0000
3003
,  // measure 74
0020
0000
0000
0000
,  // measure 75
0230
0000
0000
0000
,  // measure 76
0302
0000
0000
0000
,  // measure 77
2003
0000
0000
0000
,  // measure 78
3200
0000
0000
0000
,  // measure 79
0320
0000
0000
0000
,  // measure 80
0230
0000
0000
0000
,  // measure 81
2300
0000
0000
0000
,  // measure 82
3002
0000
0000
0000
,  // measure 83
0203
0000
0000
0000
,  // measure 84
0320
0000
0000
0000
,  // measure 85
2030
0000
0000
0000
,  // measure 86
3002
0000
0000
0000
,  // measure 87
0013
0000
0100
0000
,  // measure 88
2002
0000
0000
0000
,  // measure 89
0000
0000
0000
0000
,  // measure 90
0000
0000
0000
0000
,  // measure 91
0000
0000
0000
0000
,  // measure 92
3003
0000
0000
0000
;

//---------------dance-single - ----------------
#NOTEDATA:;
#CHARTNAME:;
#STEPSTYPE:dance-single;
#DESCRIPTION:;
#CHARTSTYLE:;
#DIFFICULTY:Beginner;
#METER:2;
#RADARVALUES:0.131313,0.220607,0.016713,0.192195,0.000000,110.000000,108.000000,2.000000,23.000000,0.000000,0.000000,0.000000,0.000000,0.000000,0.131313,0.220607,0.016713,0.192195,0.000000,110.000000,108.000000,2.000000,23.000000,0.000000,0.000000,0.000000,0.000000,0.000000;
#CREDIT:;
#NOTES:
// measure 0
0000
0000
0000
0000
,  // measure 1
0000
0000
0000
0000
,  // measure 2
0000
0000
0000
0000
,  // measure 3
0000
0000
0000
0000
,  // measure 4
0001
0000
0000
0010
,  // measure 5
0000
0000
1000
0000
,  // measure 6
1000
0000
0000
0010
,  // measure 7
0000
0000
0001
0000
,  // measure 8
0001
0000
0000
0100
,  // measure 9
0000
0000
1000
0000
,  // measure 10
1000
0000
0000
0100
,  // measure 11
0000
0000
0001
0000
,  // measure 12
0010
0000
0000
0001
,  // measure 13
0000
0000
0100
0000
,  // measure 14
0010
0000
0000
1000
,  // measure 15
0000
0000
0100
0000
,  // measure 16
0010
0000
0000
0100
,  // measure 17
0000
0000
1000
0000
,  // measure 18
0001
0000
0000
0010
,  // measure 19
0010
0000
0100
0000
,  // measure 20
1000
0000
0000
0001
,  // measure 21
0000
0000
0100
0000
,  // measure 22
0001
0000
0000
1000
,  // measure 23
0000
0000
0100
0000
,  // measure 24
0010
0000
0000
0001
,  // measure 25
0000
0000
1000
0000
,  // measure 26
0010
0000
0000
1000
,  // measure 27
0000
0000
0001
0000
,  // measure 28
0020
0000
0000
0000
,  // measure 29
0000
0000
0030
0000
,  // measure 30
0200
0000
0300
0000
,  // measure 31
2000
0000
3000
0000
,  // measure 32
0001
0000
0001
0000
,  // measure 33
0010
0000
0010
0000
,  // measure 34
1000
0000
1000
0000
,  // measure 35
0010
0000
0010
0000
,  // measure 36
0002
0000
0000
0000
,  // measure 37
0000
0000
0003
0000
,  // measure 38
0200
0000
0300
0000
,  // measure 39
0020
0000
0030
0000
,  // measure 40
1000
0000
0100
0000
,  // measure 41
0010
0000
0100
0000
,  // measure 42
0010
0000
0001
0000
,  // measure 43
0100
0000
0010
0000
,  // measure 44
1000
0000
1000
0000
,  // measure 45
1000
0000
1000
0000
,  // measure 46
0001
0000
0001
0000
,  // measure 47
0001
0000
0001
0000
,  // measure 48
0100
0000
0000
0010
,  // measure 49
0000
0000
1000
0000
,  // measure 50
0100
0000
0000
0010
,  // measure 51
0000
0000
0001
0000
,  // measure 52
1000
0000
0000
0001
,  // measure 53
0000
0000
0100
0000
,  // measure 54
0010
0000
0000
0100
,  // measure 55
0000
0000
0001
0000
,  // measure 56
0020
0000
0000
0000
,  // measure 57
0000
0000
0030
0000
,  // measure 58
0200
0000
0300
0000
,  // measure 59
2000
0000
3000
0000
,  // measure 60
0020
0000
0000
0000
,  // measure 61
0000
0000
0030
0000
,  // measure 62
0200
0000
0300
0000
,  // measure 63
0002
0000
0003
0000
,  // measure 64
2000
0000
0000
0000
,  // measure 65
0000
0000
3000
0000
,  // measure 66
0002
0000
0003
0000
,  // measure 67
0020
0000
0030
0000
,  // measure 68
0200
0000
0000
0000
,  // measure 69
0000
0000
0300
0000
,  // measure 70
2000
0000
3000
0000
,  // measure 71
0002
0000
0003
0000
,  // measure 72
2002
0000
0000
0000
,  // measure 73
0000
0000
3003
0000
,  // measure 74
0010
0000
0010
0000
,  // measure 75
0010
0000
0000
0000
,  // measure 76
0200
0000
0000
0000
,  // measure 77
0300
0000
0000
0000
,  // measure 78
0100
0000
0000
0000
,  // measure 79
1000
0000
0000
0000
,  // measure 80
0020
0000
0000
0000
,  // measure 81
0030
0000
0000
0000
,  // measure 82
0100
0000
0100
0000
,  // measure 83
0100
0000
0000
0000
,  // measure 84
0002
0000
0000
0000
,  // measure 85
0003
0000
0000
0000
,  // measure 86
0010
0000
0010
0000
,  // measure 87
0010
0000
0010
0000
,  // measure 88
1001
0000
0000
0000
;
