#TITLE:The Only Exception;
#SUBTITLE:;
#ARTIST:Paramore;
#TITLETRANSLIT:;
#SUBTITLETRANSLIT:;
#ARTISTTRANSLIT:;
#GENRE:Brand New Eyes;
#CREDIT:[Ness];
#BANNER:The Only Exception.png;
#BACKGROUND:Black.png;
#LYRICSPATH:The Only Exception.lrc;
#CDTITLE:;
#MUSIC:The Only Exception.mp3;
#OFFSET:-0.133000;
#SAMPLESTART:52.280735;
#SAMPLELENGTH:10.434784;
#LASTBEATHINT:337.000000;
#SELECTABLE:YES;
#DISPLAYBPM:138.000000;
#BPMS:0.000000=138.000000
,119.000000=144.000000
,120.000000=138.000000
,246.000000=69.000000
,249.000000=138.000000
,324.000000=130.000000
,332.000000=85.000000
;
#STOPS:
;
#BGCHANGES:0.000=The Only Exception.avi=1.000=1=0=0=StretchNoLoop==CrossFade==,
99999=-nosongbg-=1.000=0=0=0 // don't automatically add -songbackground-
;
#KEYSOUNDS:;
#ATTACKS:;

//---------------dance-single - ----------------
#NOTES:
     dance-single:
     :
     Hard:
     8:
     0.462568,0.474825,0.107041,0.033450,0.585378,484.000000,468.000000,16.000000,5.000000,0.000000,0.000000,0.462568,0.474825,0.107041,0.033450,0.585378,484.000000,468.000000,16.000000,5.000000,0.000000,0.000000:
// measure 0
0000
0000
0000
0000
,  // measure 1
0000
0000
0000
0000
,  // measure 2
0000
0000
0000
0000
,  // measure 3
0000
0000
0000
0000
,  // measure 4
0000
0000
0000
0000
,  // measure 5
0000
0000
0000
0000
,  // measure 6
0010
0000
0000
1000
0000
0000
0100
0000
1000
0000
0000
0000
,  // measure 7
1000
0000
0010
0000
0000
0000
0100
0000
0000
0001
0000
0000
,  // measure 8
0010
0000
0000
0110
0000
0000
0001
0000
1000
0000
0000
0100
,  // measure 9
0000
0000
0000
0010
0000
0000
0001
0000
0100
0001
0000
0000
,  // measure 10
1000
0000
0000
0010
0000
1000
0100
0000
0000
1000
0000
0000
,  // measure 11
0001
0000
0000
1001
0000
0000
0010
0000
0000
1000
0000
0010
,  // measure 12
0100
0000
0000
0010
0000
0001
0000
0000
0010
1000
0000
0000
,  // measure 13
1000
0000
0001
0000
0000
1000
0100
0000
0000
0010
0000
0100
,  // measure 14
0000
0000
1000
0100
0000
0000
0010
0000
0000
0001
0000
1000
,  // measure 15
0001
0000
0000
0100
0000
0000
0001
0000
1000
0100
0000
0000
,  // measure 16
0010
0000
0000
0100
0000
0010
1000
0000
0000
0100
0000
0000
,  // measure 17
1000
0000
0100
0001
0000
0000
0100
0000
0000
0010
0000
0000
,  // measure 18
0011
0000
0000
0010
0000
0100
0000
0000
1000
0000
0000
0000
,  // measure 19
0010
0000
1000
0010
0000
0100
0001
0000
0000
0100
0000
0000
,  // measure 20
0010
1010
1000
0001
,  // measure 21
1001
0000
0000
0001
0000
0010
0001
0000
0000
0011
0000
0000
,  // measure 22
0010
0000
0100
1000
0000
0000
0001
0000
0000
1000
0000
0010
,  // measure 23
0100
0110
0001
1000
,  // measure 24
0001
0000
0000
0010
0000
0000
0001
0000
1000
0100
0000
0000
,  // measure 25
1000
0000
0000
0010
0000
1000
0010
0000
0000
0100
0000
0000
,  // measure 26
0001
0000
0000
0000
0010
0000
0100
0000
0000
1000
0000
0000
0000
0000
0000
1000
0000
0000
0010
0000
0000
0000
0000
0000
,  // measure 27
0100
0000
0000
0001
0000
0000
0001
0010
0100
1000
0000
0000
,  // measure 28
1100
0000
0000
0010
0000
0000
0110
0000
0000
0001
0000
1000
,  // measure 29
0010
0000
0100
0002
0000
0000
0010
0000
0000
0103
0000
0000
,  // measure 30
0011
0000
0000
0010
0000
0001
1000
0000
0001
1000
0000
0000
,  // measure 31
0010
0000
1000
0100
0000
1000
0010
0000
0000
0100
0000
0001
,  // measure 32
1000
0000
0010
0100
0000
0000
0001
0000
0010
0100
0000
0010
,  // measure 33
0001
0000
0000
1000
0000
0100
0010
0000
0100
1000
0000
0000
,  // measure 34
0010
0000
1000
0001
0000
1000
0100
0000
0000
0010
0000
0001
,  // measure 35
0100
0000
0001
0010
0000
0000
0100
0000
1000
0010
0000
1000
,  // measure 36
0100
0000
0000
1000
0000
0001
0100
0000
0001
1000
0000
0000
,  // measure 37
0001
0000
0100
0010
0000
1000
0100
0000
0000
1000
0000
0010
,  // measure 38
0100
0000
0001
0010
0000
0000
0100
0000
1000
0001
0000
0100
,  // measure 39
0010
0000
0000
1000
0000
0010
0100
0000
0001
0010
0000
0000
,  // measure 40
0100
0000
1000
0001
0000
0100
0010
0000
0000
1000
0000
0100
,  // measure 41
0010
0000
0100
1000
0000
0000
1001
0000
0000
0010
0000
0000
,  // measure 42
1001
0000
0000
0001
0000
0010
0001
0000
0010
0100
0000
0000
,  // measure 43
1000
0000
0100
1000
0000
0100
1000
0000
0000
1010
0000
0000
,  // measure 44
0110
0000
0000
0101
0000
0000
0001
0000
0100
0010
0000
0000
,  // measure 45
0101
0000
0000
0001
0000
1000
0010
0000
1000
0001
0000
0000
,  // measure 46
1000
0000
0001
0100
0000
0001
1000
0000
0000
1000
0000
0010
,  // measure 47
0000
0000
0010
0001
0000
0000
0001
0000
1000
0010
0000
0100
,  // measure 48
0001
0000
0000
1000
0000
0001
0100
0000
0010
1000
0000
0000
,  // measure 49
1000
0000
0001
0100
0000
0010
1000
0000
0000
1000
0000
0001
,  // measure 50
0100
0000
0010
1000
0000
0001
0100
0000
0010
1000
0000
0001
,  // measure 51
0100
0000
0000
0010
0000
1000
0001
0000
0100
0010
0000
0000
,  // measure 52
0010
0000
1000
0001
0000
0100
0010
0000
0000
0010
0000
1000
,  // measure 53
0001
0000
0100
0010
0000
1000
0001
0000
0100
0010
0000
1000
,  // measure 54
0001
0000
0000
0010
0000
0001
0010
0000
0100
1000
0000
0000
,  // measure 55
0010
0000
0001
0010
0000
0100
1000
0000
0000
0010
0000
0001
,  // measure 56
0010
0000
0100
1000
0000
0001
0010
0000
0100
1000
0000
0001
,  // measure 57
0010
0000
0000
0001
0000
1000
0100
0000
1000
0001
0000
0000
,  // measure 58
0001
0000
1000
0100
0000
1000
0001
0000
0000
0001
0000
1000
,  // measure 59
0100
0000
1000
0001
0000
1000
0100
0000
1000
0001
0000
1000
,  // measure 60
0100
0000
1000
0001
0000
1000
0100
0000
1000
0001
0000
1000
,  // measure 61
0100
0000
1000
0001
0000
1000
0200
0000
0000
0000
0000
0000
,  // measure 62
0000
0000
0000
0310
0000
0000
0001
0000
0010
0001
0000
0010
,  // measure 63
0001
0000
0000
0010
0000
0001
0010
0000
0001
0010
0000
0000
,  // measure 64
0001
0000
0010
0001
0000
0010
0001
0000
0000
0010
0000
0001
,  // measure 65
0010
0000
0001
1000
0000
0000
0010
0000
1000
0010
0000
1000
,  // measure 66
0010
0000
0000
1000
0000
0010
1000
0000
0010
0100
0000
0000
,  // measure 67
0001
0000
0100
0001
0000
0100
0001
1000
0001
0100
0000
0100
,  // measure 68
0010
0000
0010
1000
0000
0000
0001
0000
1000
0010
0000
0100
,  // measure 69
0001
0000
0000
0001
0000
1000
0100
0000
1000
0001
0000
0000
,  // measure 70
1000
0000
0010
0100
0000
0001
0010
0000
0100
1000
0000
0100
,  // measure 71
0010
0000
0001
0100
0000
0000
0010
0000
1000
0001
0000
0100
,  // measure 72
0010
0000
0000
1000
0000
0100
0010
0000
0100
1000
0000
0000
,  // measure 73
0001
0000
0010
0100
0000
0010
0001
0000
1000
0010
0000
0100
,  // measure 74
0001
0000
1000
0010
0000
0000
1000
0000
0001
1000
0000
0100
,  // measure 75
0010
0000
0000
0001
0000
1000
0001
0000
0100
0010
0000
0000
,  // measure 76
1000
0000
0100
1000
0000
0001
0100
0000
0000
0010
0000
0100
,  // measure 77
0001
0000
1000
0100
0000
0000
0010
0000
0100
1000
0000
0100
,  // measure 78
0010
0000
0000
0001
0000
1000
0010
0000
0100
0001
0000
0000
,  // measure 79
0001
0000
0010
0100
0000
1000
0010
0000
0000
0100
0001
1000
,  // measure 80
0100
0010
0100
0020
0000
0000
0000
0000
0000
0000
0000
0000
,  // measure 81
0032
0000
1000
0103
,  // measure 82
0010
0000
0000
0100
0000
0010
0000
0000
1000
0000
0000
0100
,  // measure 83
0000
0000
0000
0000
1000
0001
2000
0000
0000
0000
0000
0000
3000
0000
0000
0000
0000
0000
0000
0000
0000
0000
0000
0000
;

//---------------dance-single - ----------------
#NOTES:
     dance-single:
     :
     Medium:
     6:
     0.302007,0.391033,0.140491,0.167251,0.317777,316.000000,295.000000,21.000000,25.000000,0.000000,0.000000,0.302007,0.391033,0.140491,0.167251,0.317777,316.000000,295.000000,21.000000,25.000000,0.000000,0.000000:
0000
0000
0000
0000
,
0000
0000
0000
0000
,
0000
0000
0000
0000
,
0000
0000
0000
0000
,
0000
0000
0000
0000
,
0000
0000
0000
0000
,
1000
0000
0000
0001
0000
0000
1000
0000
0100
0000
0000
0000
,
0010
0000
0100
0000
0000
0000
1000
0000
0000
0000
0000
0000
,
0000
0000
0000
0001
0000
0000
0010
0000
0100
0000
0000
1000
,
0000
0000
0000
0000
0000
0000
0000
0000
0001
0100
0000
0000
,
0010
0000
0000
1000
0000
0001
0000
0000
0000
0000
0000
0000
,
0000
0000
0000
0000
0000
0000
0000
0000
0000
0000
0000
0010
,
0001
0000
0000
0010
0000
0100
0000
0000
0000
1000
0000
0000
,
0001
0000
1000
0000
0000
0000
0001
0000
0000
0000
0000
0000
,
0000
0100
0000
0010
0000
0000
1000
0000
0000
0100
0000
1000
,
0001
0000
0000
0000
0000
0000
0010
0000
0001
0010
0000
0000
,
0000
0000
0000
0001
0000
0100
0001
0000
0000
0000
0000
0000
,
0000
1000
0001
1000
,
0010
0000
0000
0100
0000
0010
0000
0000
1000
0000
0000
0000
,
0000
0000
0100
1000
0000
0000
0001
0000
0000
0000
0000
0000
,
0000
0010
0001
0100
,
1001
0000
0000
0010
,
0000
0000
0000
1000
0000
0001
1000
0000
0000
0000
0000
0000
,
0000
0010
0100
0001
,
0010
0000
0000
0100
0000
0000
0010
0000
0100
0000
0000
0000
,
1000
0000
0001
0000
0000
0000
1000
0000
0100
0000
0000
0000
,
0000
0000
0000
0000
1000
0000
0001
0000
0000
1000
0000
0000
0000
0000
0000
0010
0000
0000
0100
0000
0000
0000
0000
0000
,
0001
0000
0000
0000
0000
0000
0000
0000
0001
0010
0000
0000
,
0100
1000
0001
0000
,
0000
0000
1000
0010
0000
0000
0100
0000
0000
0001
0000
0000
,
0022
0000
0030
2000
,
0000
0000
0000
3003
0000
0010
1000
0000
0000
0001
0000
1000
,
0000
0000
0100
0000
0000
0010
0000
0000
0000
0000
0000
0000
,
0202
0000
0300
2000
,
0000
0000
0000
3003
0000
0010
0100
0000
0000
0001
0000
0010
,
0000
0000
0100
0000
0000
1000
0000
0000
0000
0000
0000
0000
,
2002
0000
0003
0020
,
0000
0000
0000
3030
0000
0100
0001
0000
0000
0010
0000
0100
,
0000
0000
1000
0000
0000
0001
0000
0000
0000
0000
0000
0000
,
0220
0000
0030
2000
,
0000
0000
0000
3300
0000
0001
1000
0000
0000
0100
0000
0000
,
0010
1001
0100
1001
,
2010
0001
3010
2010
,
0001
3010
0100
1000
,
0001
0011
0100
0001
,
1002
0100
1003
1002
,
0100
0000
0000
1003
0000
0000
0010
0000
0000
0010
0000
0001
,
0000
0000
0001
0100
0000
0000
0010
0000
0000
1000
0000
0000
,
1001
0000
0000
0010
0000
1000
0000
0000
0010
0100
0000
0000
,
0001
0000
0100
0000
0000
0010
1000
0000
0000
0000
0000
0100
,
0000
1100
0100
0010
,
0001
0000
1000
0000
0000
0001
0000
0000
0010
0100
0000
0000
,
1000
0001
0202
0000
,
0000
0000
0000
0303
0000
0000
0000
0000
0010
1000
0000
0010
,
0100
0000
0000
0001
0000
0010
0000
0000
0001
0100
0000
0000
,
0010
0000
1000
0000
0000
0100
1000
0000
0000
0000
0000
0001
,
0000
0000
0000
0100
0000
0000
0000
0000
0010
0000
0000
0010
,
0100
0000
0000
0001
0000
0010
0000
0000
0100
1000
0000
0000
,
0001
0000
0010
0000
0000
0100
1000
0000
0000
0000
0000
0000
,
0000
0000
0000
0010
0000
0000
0000
0000
1001
0000
0000
0000
,
0010
0010
1001
0010
,
0010
1001
0202
0000
,
0303
2000
0000
3000
,
0200
0000
0000
0000
0000
0000
0300
0000
1000
0100
0000
0000
,
1000
0000
0100
0000
0000
1000
0000
0000
0100
0000
0000
0000
,
0000
1000
0010
0001
,
0001
0000
0000
0010
0000
0000
1000
0000
0001
0100
0000
0000
,
0010
0000
0100
0000
0000
0001
0000
0000
1000
0000
0000
0000
,
0000
0000
0000
1001
0000
0000
0010
0000
0001
0010
0000
0000
,
1001
0000
0000
0010
0000
1000
0010
0000
0000
0100
0000
0000
,
0001
0000
1000
0001
0000
1000
0001
0000
0000
1000
0000
0001
,
1000
0000
0001
1000
0000
0000
0100
0000
1000
0100
0000
0000
,
0010
0000
0000
0001
0000
0100
0001
0000
0000
1000
0000
0000
,
0010
0000
1000
0010
0000
1000
0010
0000
0000
1000
0000
0100
,
1000
0000
0100
1000
0000
0000
0001
0000
0100
0010
0000
0000
,
0100
0000
0000
0001
0000
1000
0100
0000
0000
0010
0000
0000
,
0001
0000
1000
0001
0000
1000
0001
0000
0000
0100
0000
0010
,
1000
0000
0010
0100
0000
0000
0001
0000
1000
0100
0000
0000
,
1000
0000
0000
0001
0000
0010
0100
0000
0000
1000
0000
0000
,
0010
0000
1000
0010
0000
0100
0001
0000
0000
0001
0000
1000
,
0010
0000
0100
0002
0000
0000
0000
0000
0000
0000
0000
0000
,
2003
0000
3010
0100
,
0001
0000
0000
0010
0000
0100
0000
0000
1000
0000
0000
0001
,
0000
0200
0300
0000
;

//---------------dance-single - ----------------
#NOTES:
     dance-single:
     :
     Easy:
     3:
     0.189232,0.251378,0.006690,0.347882,0.000000,198.000000,197.000000,1.000000,52.000000,0.000000,0.000000,0.189232,0.251378,0.006690,0.347882,0.000000,198.000000,197.000000,1.000000,52.000000,0.000000,0.000000:
0000
0000
0000
0000
,
0000
0000
0000
0000
,
0000
0000
0000
0000
,
0000
0000
0000
0000
,
0000
0000
0000
0000
,
0000
0000
0000
0000
,
0001
1000
0001
0100
,
0010
0100
0002
0000
,
0000
0013
0001
1000
,
0200
0000
0300
0020
,
0000
0030
0200
0000
,
0300
0020
0000
0030
,
0001
1000
0001
0100
,
0010
0100
0020
0000
,
0030
2000
0000
3000
,
0200
0000
0300
0020
,
0000
0030
0002
0000
,
0003
1000
0010
1000
,
0001
1000
0001
0100
,
0010
0100
0002
0000
,
0003
0010
0100
1000
,
0020
0000
0030
0200
,
0300
0001
2000
0000
,
3000
0200
0000
0300
,
0001
0010
0100
1000
,
0100
0010
0002
0000
,
0003
0000
1000
0000
0000
1000
0000
0000
,
2000
0000
3000
0010
,
0100
0001
0200
0000
,
0300
0010
0100
0010
,
0200
0000
0300
0020
,
0000
0030
0001
1000
,
0010
0100
0001
1000
,
0020
0000
0030
0200
,
0000
0300
0001
1000
,
0010
0100
0001
1000
,
0020
0000
0030
0200
,
0000
0300
0001
0010
,
0100
1000
0100
0010
,
0002
0000
0003
2000
,
0000
3000
0001
0010
,
0100
1000
0001
1000
,
0002
0000
0003
0200
,
0000
0300
0000
0010
,
1000
0020
0000
0030
,
2000
0000
3000
0200
,
0000
0000
0300
0000
2000
0000
0000
0002
,
3000
2003
0000
3000
,
0002
0000
0003
0200
,
0000
0300
0020
0000
,
0030
2000
0000
3000
,
0002
0000
0003
1000
,
0001
1000
0002
0000
,
0003
0020
0000
0030
,
0200
0000
0300
0020
,
0000
0030
0001
1000
,
0010
0100
0001
1000
,
0020
0000
0030
0200
,
0000
0300
0001
0010
,
0100
1000
0100
0010
,
0002
0000
0000
2000
,
0000
3003
2002
0000
,
3003
0010
0000
0000
,
0010
0000
0000
0100
,
0000
0000
0100
0000
,
0000
1000
0000
0000
,
1000
0000
0000
0001
,
0000
0000
0001
0000
,
0000
0010
0001
0100
,
0001
0001
0001
1000
,
0010
0100
0010
1000
,
1000
0100
1000
0001
,
1000
0010
0100
0001
,
0010
0100
0010
0001
,
0010
1000
0001
1000
,
0001
0100
1000
0001
,
1000
0001
1000
0100
,
1000
0100
0010
0100
,
0010
0100
0010
1000
,
0100
0010
0001
0010
,
0100
2000
0000
3000
,
0002
0003
1000
0001
,
0100
0010
1000
0100
,
0010
0002
0003
0000
;

//---------------dance-single - ----------------
#NOTES:
     dance-single:
     :
     Beginner:
     1:
     0.100351,0.111389,0.000000,0.000000,0.000000,105.000000,105.000000,0.000000,0.000000,0.000000,0.000000,0.100351,0.111389,0.000000,0.000000,0.000000,105.000000,105.000000,0.000000,0.000000,0.000000,0.000000:
0000
0000
0000
0000
,
0000
0000
0000
0000
,
0000
0000
0000
0000
,
0000
0000
0000
0000
,
0000
0000
0000
0000
,
0000
0000
0000
0000
,
0010
0000
0000
1000
,
0000
0000
0100
0000
,
0000
0010
0000
0000
,
0001
0000
0000
0010
,
0000
0000
0100
0000
,
0000
1000
0000
0000
,
0001
0000
0000
1000
,
0000
0000
0001
0000
,
0000
0100
0000
0000
,
0010
0000
0000
1000
,
0000
0000
0100
0000
,
0000
0010
0000
0000
,
0001
0000
0000
0001
,
0000
0000
1000
0000
,
0000
0010
0000
0000
,
0100
0000
0000
0001
,
0000
0000
0010
0000
,
0000
0100
0000
0000
,
1000
0000
0000
0001
,
0000
0000
1000
0000
,
0000
0010
0000
0000
,
0100
0000
0000
0001
,
0000
0000
0010
0000
,
0000
0100
0000
0000
,
0010
0000
0000
0001
,
0000
0000
1000
0000
,
0000
0001
0000
0000
,
0100
0000
0000
0010
,
0000
0000
1000
0000
,
0000
0100
0000
0000
,
1000
0000
0000
0001
,
0000
0000
1000
0000
,
0000
0010
0000
0000
,
0100
0000
0000
0001
,
0000
0000
0010
0000
,
0010
0000
0010
0000
,
0010
0000
0000
0100
,
0000
0000
1000
0000
,
0000
0001
0000
0000
,
1000
0000
0000
1000
,
0000
0000
0100
0000
,
0000
0010
0000
0000
,
0001
0000
0000
0100
,
0000
0000
0001
0000
,
0000
0100
0000
0000
,
0010
0000
0000
1000
,
0000
0000
0100
0000
,
0000
0010
0000
0000
,
0001
0000
0000
0010
,
0000
0000
0100
0000
,
0000
1000
0000
0000
,
0001
0000
0000
1000
,
0000
0000
0100
0000
,
0000
0010
0000
0000
,
0100
0000
0000
0100
,
0000
0000
0100
0000
,
0000
1000
0000
0000
,
1000
0000
0000
0001
,
0000
0000
0001
0000
,
0000
0100
0000
0000
,
0100
0000
0000
0010
,
0000
0000
0010
0000
,
0000
1000
0000
0000
,
0100
0000
0000
0010
,
0000
0000
0001
0000
,
0000
0010
0000
0000
,
0100
0000
0000
0010
,
0000
0000
0001
0000
,
0000
1000
0000
0000
,
0001
0000
0000
1000
,
0000
0000
0100
0000
,
0000
0001
0000
0000
,
1000
0000
0000
0001
,
0000
0000
0100
0000
,
0000
0010
0000
0000
,
1000
0000
0000
0100
,
0000
0000
0100
0000
,
0000
0100
0000
0000
;
