#TITLE:That's What You Get;
#SUBTITLE:;
#ARTIST:Paramore;
#TITLETRANSLIT:;
#SUBTITLETRANSLIT:;
#ARTISTTRANSLIT:;
#GENRE:Riot!;
#CREDIT:;
#BANNER:That's What You Get-bn.png;
#BACKGROUND:Black.png;
#LYRICSPATH:;
#CDTITLE:;
#MUSIC:That's What You Get.mp3;
#OFFSET:-0.022006;
#SAMPLESTART:43.505390;
#SAMPLELENGTH:21.984726;
#LASTBEATHINT:300.000000;
#SELECTABLE:YES;
#BPMS:0.000000=131.000000
;
#STOPS:
;
#BGCHANGES:-0.500=That's What You Get-video.avi=1.000=0=0=0=StretchNoLoop====,
99999=-nosongbg-=1.000=0=0=0 // don't automatically add -songbackground-
;
#KEYSOUNDS:;
#ATTACKS:;

//---------------dance-single - ----------------
#NOTES:
     dance-single:
     :
     Challenge:
     9:
     0.693729,0.729469,0.877187,0.168420,0.498242,692.000000,567.000000,125.000000,24.000000,0.000000,0.000000,0.693729,0.729469,0.877187,0.168420,0.498242,692.000000,567.000000,125.000000,24.000000,0.000000,0.000000:
0000
0000
0000
0000
0000
0000
0000
0000
0000
0000
0000
0000
1100
0000
0000
1100
,
0000
0000
1100
0000
1000
0100
0010
0001
0011
0000
0000
0011
0000
0000
0011
0000
,
0001
1000
0010
0100
0110
0000
0000
0110
0000
0000
0110
0000
0100
0001
1000
0010
,
1010
0000
0000
1010
0000
0000
1010
0000
1001
0000
0000
0000
0110
0000
0000
0101
,
0000
0000
0110
0000
0010
1000
0001
0010
0011
0000
0000
1001
0000
0000
0011
0000
,
0001
1000
0100
1000
1100
0000
0000
1001
0000
0000
1100
0000
0100
0010
0001
0100
,
0110
0000
0000
1010
0000
0000
1001
0000
1100
0000
0000
0000
1001
0000
1000
0100
,
0000
1000
0100
0000
0020
0000
0000
0000
0031
0000
0100
0001
0000
0100
0001
0000
,
2000
0000
0000
0000
3100
0000
0010
0100
0000
0010
0001
0000
0200
0000
0000
0000
,
0301
0000
0100
0010
0000
1000
0010
0000
1000
2000
0000
0000
3001
0000
1000
0100
,
0000
0010
0001
0000
0200
0000
0000
0000
0310
0000
1000
0001
0000
0100
0010
0000
,
2000
0000
0000
0000
3001
0000
0010
0100
0000
1000
0010
0000
0200
0000
0000
0000
,
0301
0000
1000
0100
0000
0010
0001
0000
0100
0000
0010
0000
1010
0000
0000
1001
,
0000
0000
1010
0000
1000
0001
0100
0010
0110
0000
0000
0101
0000
0000
0110
0000
,
1000
0100
0010
0001
1001
0000
0000
1100
0000
0000
1001
0000
0010
0001
1000
0010
,
1010
0000
0000
0110
0000
0000
0101
0000
1001
0000
0000
0000
1000
0000
0000
1000
,
0010
0000
0100
0000
0001
0000
0000
0000
0100
0000
0000
0001
0000
0000
0010
0000
,
0100
0000
0000
0000
1000
0000
0000
1000
0010
0000
0100
0000
0010
0000
0000
0000
,
1000
0000
0000
0100
0000
0000
0010
0000
0100
0000
0010
0000
0011
0000
0000
1000
,
0010
0000
0100
0000
0001
0000
0000
0000
1000
0000
0000
0001
0000
0000
0100
0000
,
0001
0000
0000
0000
0110
0000
0000
1000
0010
0000
1000
0000
0100
0000
0000
0000
,
0010
0000
0000
0001
0000
0000
1000
0000
0100
0000
0000
0000
2200
0000
0000
0000
,
0000
0000
0000
0000
,
3300
0000
0000
0000
1000
0001
0100
0000
0001
0100
0010
0100
0001
0000
0001
0000
,
0101
0010
0100
0100
1100
0010
1000
1000
,
1010
0001
0010
0010
0011
0001
1000
0000
,
0001
0010
1000
0100
0001
0010
1000
0100
,
0001
0000
0200
0000
0000
0000
0310
0000
0110
0000
0000
0000
1000
0000
0010
0100
,
0010
1000
0100
0100
0011
0001
1000
1000
,
1010
0100
0010
0010
1001
0100
0001
0000
,
1000
0100
0001
0010
1000
0100
0001
0010
,
1000
0000
0020
0000
0000
0000
0130
0000
0110
0000
1000
0000
0010
0000
0000
0010
,
1000
0000
0000
1000
0001
0000
0000
0001
0010
0000
0000
0010
0100
0000
0000
0100
,
1000
0000
0000
1000
0010
0000
0100
0001
0100
0000
0000
0100
0010
0000
0000
0010
,
1000
0000
0000
1000
0001
0000
0000
0001
0010
0000
0000
0010
0100
0000
0000
0100
,
1000
0000
0000
1000
0001
0000
0000
1000
0100
0000
0010
0000
0011
0000
0001
0100
,
0001
1000
0100
0100
0110
1000
0010
0010
,
0110
0001
1000
0100
1100
0100
0010
0010
,
0011
0010
0010
0100
1100
0100
1000
1000
,
1010
0000
0010
0000
0010
0000
0100
0000
0101
0000
0100
0001
0100
0000
0000
0100
,
0000
0000
0100
0000
0100
0001
0100
0001
1000
0000
0000
1000
0000
0000
1000
0000
,
1000
0100
1000
0100
0010
0000
0000
0010
0000
0000
0010
0000
0010
0100
0010
0100
,
1000
0000
0000
1000
0000
0000
1000
0000
0001
0000
0000
0000
0101
0000
0000
1010
,
0000
0000
0101
0000
1000
0010
0100
0001
0110
0000
0000
1001
0000
0000
0110
0000
,
1000
0100
0010
0001
1100
0000
0000
1010
0000
0000
1001
0000
0100
0001
0010
0100
,
1010
0000
0000
0110
0000
0000
0011
0000
1001
0000
0000
0000
0101
0000
0000
0110
,
0000
0000
1100
0000
0001
1000
0100
0010
0011
0000
0000
1001
0000
0000
0101
0000
,
1000
0010
0100
0001
1100
0000
0000
1010
0000
0000
1001
0000
1000
0100
0001
0100
,
0110
0000
0000
0011
0000
0000
1001
0000
0101
0000
0000
0000
0110
0000
0000
1010
,
0000
0000
1100
0000
0001
1000
0010
0100
0011
0000
0000
0101
0000
0000
1001
0000
,
0001
0100
0010
1000
1100
0000
0000
0110
0000
0000
0011
0000
0001
1000
0010
0100
,
1010
0000
0000
0110
0000
0000
0101
0000
1001
0000
0000
0000
1000
0000
0000
0000
,
1010
0100
0001
0000
0011
0100
1000
0000
,
1100
0010
0001
0000
0101
0000
1010
0010
,
0010
0000
0010
0000
0010
0000
0010
0000
0010
0000
0010
0000
0010
1000
0001
0000
,
0001
0000
0001
1000
0100
0000
0010
0000
0110
0000
0000
0000
0010
0000
0010
0000
,
0011
0100
0001
0001
0101
2000
0100
0001
,
0001
3100
0100
1000
1010
0010
0100
0000
,
0020
1000
0130
0002
0100
1003
0020
1000
,
0130
0000
0002
0000
0000
0000
1003
0000
1001
0000
0000
0000
0100
0000
0010
0001
,
1000
0100
0010
0010
0011
0002
0100
1000
,
1000
0100
0103
0001
0110
0001
0010
0000
,
0200
0001
0310
2000
0100
3001
0020
0001
,
0130
0000
2000
0000
0000
0000
3001
0000
1001
0000
0100
0000
1000
0000
0000
1000
,
0100
0000
0000
0100
0010
0000
0000
0010
0001
0000
0000
0001
1000
0000
0000
1000
,
0100
0000
0000
0100
1000
0000
0001
0010
0100
0000
0000
0100
1000
0000
0000
1000
,
0010
0000
0000
0010
0100
0000
0000
0100
0001
0000
0000
0001
1000
0000
0000
1000
,
0100
0000
0000
0100
0010
0000
0000
0001
0100
0000
0010
0000
1010
0000
0010
0100
,
0010
0100
0001
0001
1001
0200
1000
0010
,
0010
1000
1300
0001
0101
0001
1000
1000
,
1010
1000
1000
0001
0101
0001
0100
0100
,
1100
0000
1000
0000
1000
0000
0001
0000
0011
0000
0001
0010
0100
0000
0000
1100
,
0000
0000
1100
0000
1000
0001
1000
0001
0101
0000
0000
0101
0000
0000
0101
0000
,
0001
1000
0001
1000
2002
0000
0000
0000
0000
0000
0000
0000
0000
0000
0000
0000
,
0000
3003
0000
0000
;

//---------------dance-single - ----------------
#NOTES:
     dance-single:
     :
     Hard:
     8:
     0.501250,0.521049,0.112280,0.119297,0.336840,500.000000,484.000000,16.000000,17.000000,0.000000,0.000000,0.501250,0.521049,0.112280,0.119297,0.336840,500.000000,484.000000,16.000000,17.000000,0.000000,0.000000:
0000
0000
0000
0000
0000
0000
0000
0000
0000
0000
0000
0000
0100
0000
0000
0100
,
0000
0000
0100
0000
1000
0000
0010
0000
0100
0000
0000
0100
0000
0000
0100
0000
,
0001
0000
0010
0000
0001
0000
0000
0001
0000
0000
0001
0000
1000
0000
0010
0000
,
1000
0000
0000
0100
0000
0000
0010
0000
0100
0000
0000
0000
1000
0000
0000
0001
,
0000
0000
0100
0000
0010
0000
1000
0000
0001
0000
0000
0010
0000
0000
0001
0000
,
1000
0000
0100
0000
1000
0000
0000
0010
0000
0000
0100
0000
0010
0000
1000
0000
,
0001
0000
0000
0100
0000
0000
0010
0000
1000
0000
0000
0000
0001
0000
0000
0000
,
0100
0000
0110
0000
0001
1000
0010
0100
,
0010
1000
0100
0010
0100
0000
1100
0000
,
1000
0010
0100
0000
0101
0000
0011
0000
,
1001
0000
1000
0000
0001
1000
0001
0100
,
0010
0100
0001
0100
0001
0000
1000
0100
,
0010
0000
0100
0000
1000
0000
0000
0000
0010
0000
0000
0000
0100
0000
0000
0001
,
0000
0000
1000
0000
0001
0000
0010
0000
0001
0000
0000
1000
0000
0000
0100
0000
,
1000
0000
0010
0000
1000
0000
0000
0100
0000
0000
0010
0000
0001
0000
1000
0000
,
0010
0000
0000
0100
0000
0000
0010
0000
1000
0000
0000
0000
0001
0000
0000
0001
,
0010
0000
0000
0000
0100
0000
0000
1000
0010
0000
0000
0000
1000
0000
0000
0010
,
1000
0000
0000
0000
0001
0000
0000
0100
0010
0000
0000
0000
0100
0000
0000
0001
,
1000
0000
0000
0000
0100
0000
0000
1000
0100
0000
0000
0000
0010
0000
0000
0001
,
1000
0000
0000
0000
0001
0000
0000
0100
0001
0000
0000
0000
1000
0000
0000
0010
,
1000
0000
0000
0000
0100
0000
0000
0010
0100
0000
0000
0000
0010
0000
0000
0001
,
1000
0000
0000
0000
0001
0000
0000
1000
0100
0000
0000
0000
2200
0000
0000
0000
,
0000
0000
0000
0000
,
3300
0000
0000
0000
1000
0001
0000
0000
0100
0001
0000
0000
2001
0000
0000
0000
,
3001
1000
0100
0000
2000
0010
0000
0001
,
0000
0010
3000
1000
0100
0000
0001
0100
,
1000
0100
0001
0100
1000
0100
0001
0010
,
1000
0010
0001
0010
1000
0000
1002
0000
,
1003
0001
0100
0000
0002
1000
0000
0010
,
0000
0100
0000
0010
0000
1003
0000
0101
,
0100
0010
1000
0100
0001
0100
1000
0010
,
0001
0000
0010
0000
1000
0000
0100
0000
0010
0000
0100
0000
1000
0000
0000
1000
,
0010
0000
0000
0010
0100
0000
0000
0100
0001
0000
0000
0001
0010
0000
0000
0010
,
0100
0000
0000
0100
1000
0000
0000
1000
0001
0000
0000
0001
0100
0000
0000
0100
,
0010
0000
0000
0010
1000
0000
0000
1000
0001
0000
0000
0001
0010
0000
0000
0010
,
0100
0000
0000
0100
1000
0000
0000
1000
0001
0000
0000
0000
0201
0000
0000
0000
,
0301
1000
0100
0000
2000
0010
0000
0001
,
0000
0010
3000
1000
0100
0010
0100
0001
,
0100
0010
0100
1000
0100
0010
0100
0001
,
0100
0000
0010
0000
0100
0000
1000
0000
0001
0000
1000
0000
0100
0000
0000
0100
,
0000
0000
0100
0000
0100
0000
0100
0000
0100
0000
0000
0100
0000
0000
0100
0000
,
0100
0000
0100
0000
1000
0000
0000
1000
0000
0000
1000
0000
1000
0000
1000
0000
,
0001
0000
0000
0001
0000
0000
0001
0000
0100
0000
0000
0000
0001
0000
0000
1000
,
0000
0000
0001
0000
1000
0100
1000
0100
1000
0000
0000
0010
0000
0000
1000
0000
,
0001
0100
0001
0100
0001
0000
0000
0100
0000
0000
0010
0000
1000
0001
1000
0001
,
1000
0000
0000
0010
0000
0000
0100
0000
0002
0000
0000
0000
0013
0000
0000
0001
,
0000
0000
1000
0000
0100
1000
0100
1000
0100
0000
0000
0010
0000
0000
0001
0000
,
0100
0001
0100
0001
0100
0000
0000
0010
0000
0000
1000
0000
0001
1000
0001
1000
,
0001
0000
0000
0010
0000
0000
0100
0000
2000
0000
0000
0000
3010
0000
0000
1000
,
0000
0000
0010
0000
0100
0010
0100
0010
0100
0000
0000
0001
0000
0000
0010
0000
,
0100
1000
0100
1000
0100
0000
0000
0010
0000
0000
0001
0000
1000
0001
1000
0001
,
1000
0000
0000
0010
0000
0000
0100
0000
0001
0000
0000
0000
0101
0000
0000
0000
,
1000
0100
0010
0000
0100
1000
0001
0000
,
1000
0010
0000
0100
0000
0000
0110
0100
,
0010
0100
0010
0100
0010
0100
0001
1000
,
0001
1000
0001
1000
0001
0000
1002
0000
,
1003
0001
0010
0000
0200
1000
0000
0010
,
0000
0001
0000
0010
0000
0000
1300
0100
,
1000
0100
0001
0100
0001
0100
1000
0010
,
1000
0010
0001
0010
0001
0010
2001
0000
,
3001
1000
0100
0000
0002
0100
0000
0010
,
0000
0100
0000
1000
0000
0013
0001
0010
,
1000
0010
0001
0010
1000
0010
0001
0100
,
1000
0000
0100
0000
0001
0000
0100
0000
0100
0000
0001
0000
1000
0000
0000
1000
,
0100
0000
0000
0100
0001
0000
0000
0001
0100
0000
0000
0100
0010
0000
0000
0010
,
0001
0000
0000
0001
1000
0000
0000
1000
0010
0000
0000
0010
0100
0000
0000
0100
,
0001
0000
0000
0001
1000
0000
0000
1000
0100
0000
0000
0100
0010
0000
0000
0010
,
0001
0000
0000
0001
1000
0000
0000
1000
0010
0000
0000
0000
2010
0000
0000
0000
,
3001
1000
0100
0000
0020
0001
0000
1000
,
0000
0100
0000
0031
0100
1000
0001
1000
,
0010
1000
0001
1000
0100
1000
0010
0100
,
0001
0000
0100
0000
0010
0000
1000
0000
0100
0000
0010
0000
0011
0000
0000
0001
,
0000
0000
1000
0000
0001
0100
0001
0100
0001
0000
0000
1000
0000
0000
0100
0000
,
0010
0100
0010
0100
0020
0000
0000
0000
0000
0000
0000
0000
0000
0000
0000
0000
,
0000
0030
0000
0000
;

//---------------dance-single - ----------------
#NOTES:
     dance-single:
     :
     Medium:
     5:
     0.271677,0.312629,0.112280,0.449120,0.000000,271.000000,255.000000,16.000000,64.000000,0.000000,0.000000,0.271677,0.312629,0.112280,0.449120,0.000000,271.000000,255.000000,16.000000,64.000000,0.000000,0.000000:
0000
0000
0000
0200
,
0000
0000
0301
1000
0002
0000
0000
0000
,
0013
0100
0020
0000
0000
0000
0130
1000
,
0200
0000
1300
0020
,
0000
0000
0130
0001
0200
0000
0000
0000
,
0310
1000
0020
0000
0000
0000
1030
0001
,
2000
0000
3100
0010
,
0002
0000
1003
0001
,
0100
0010
2000
0000
,
3100
0010
0100
0000
1000
0000
0010
0000
,
0200
0000
0000
0000
0301
0000
0100
0001
,
0100
0010
2000
0000
,
3100
0010
0100
2002
,
3003
0000
1000
0001
2000
0000
3000
0000
,
0010
0200
0300
0010
,
2002
3003
0100
0010
,
0200
0300
0002
1003
,
0100
1000
0020
0030
,
1000
0001
0010
0100
,
2000
0000
3000
0000
0001
0000
1000
0010
,
1000
0001
0200
0300
,
0010
1000
0100
2002
,
0000
0000
0000
0000
,
3003
0100
0100
1001
,
1000
0001
1000
0000
0100
1000
0100
0000
,
0010
0100
0010
0001
,
2000
0100
0001
0010
,
0001
0200
3300
1001
,
0001
1000
0001
0000
0100
0001
1000
0000
,
0010
0100
0001
0010
,
0002
0100
1000
0010
,
1000
0200
0303
0001
,
1000
0100
0010
0002
,
0000
2003
0000
3010
,
1000
0001
0010
0200
,
0000
0000
0000
0000
0000
1300
0001
0000
,
1000
0001
1000
0000
0010
1000
0010
0000
,
0100
0001
0000
1000
0000
0000
0000
0000
,
1002
0000
0000
0010
0000
0000
1000
0000
,
0000
0010
0000
0000
1000
0000
0103
0000
,
0000
0000
0000
0000
,
0000
0000
0000
0000
,
0000
0000
0001
2002
,
3003
0000
0100
0010
0200
0000
0300
0000
,
1000
0010
0200
0000
0300
0000
0001
1000
,
0200
0000
0310
0002
,
0000
0000
1003
0001
0200
0000
0000
0000
,
0310
2020
3030
0001
,
2002
3003
0100
0022
,
0033
0000
1000
0001
0200
0000
0300
0000
,
0010
2000
0000
3100
,
0020
0000
0000
0031
,
1000
0001
1000
0000
0001
0100
0001
0000
,
1000
0001
0000
1000
0000
0000
0001
0000
,
0010
1000
0010
0001
,
1000
0100
0010
1001
,
0100
0001
1000
0000
0010
1000
0100
0000
,
1000
0001
0010
0100
,
2000
0010
0001
0100
,
0010
0002
3003
1001
,
0010
1000
0001
0000
0100
0010
1000
0000
,
0100
0010
0001
0100
,
0002
1000
0010
0100
,
0010
0000
1003
0000
0000
1000
0001
0000
,
0010
0100
1000
2200
,
3300
2002
3003
0100
,
0001
1000
0010
0200
,
0000
0000
0000
0000
0000
0301
1000
0000
,
0010
0100
0001
0000
0010
0100
1000
0000
,
0001
1000
0000
0200
0000
0000
0300
0000
,
2000
0000
0000
0010
0000
0000
0001
0000
,
0000
0100
0000
0000
3010
0000
2002
0000
,
3003
0000
0100
0001
2000
0000
0000
0000
,
3010
0100
2002
0000
0000
0000
0000
0000
,
0000
3003
0000
0000
;

//---------------dance-single - ----------------
#NOTES:
     dance-single:
     :
     Easy:
     4:
     0.243607,0.260524,0.133332,0.449120,0.000000,243.000000,224.000000,19.000000,64.000000,0.000000,0.000000,0.243607,0.260524,0.133332,0.449120,0.000000,243.000000,224.000000,19.000000,64.000000,0.000000,0.000000:
0000
0000
0000
2002
,
3003
0010
0002
0003
,
0010
2000
3000
0001
,
0200
0300
0010
2002
,
3003
0100
0020
0030
,
0100
2000
3000
0001
,
0020
0030
0100
1000
,
2000
0000
3001
0010
,
0100
1000
0002
0000
,
1003
0010
0100
0001
,
0200
0000
0310
1000
,
0001
1000
0200
0000
,
0310
0001
0100
0202
,
0303
1000
2200
3300
,
0001
0202
0303
1000
,
2200
3300
0010
0100
,
0020
0000
0030
1000
,
0001
0100
0020
0030
,
1000
0100
0010
0001
,
0002
0000
0003
1000
,
0001
1000
0020
0030
,
1000
0100
0010
0200
,
0000
0000
0000
0300
,
0000
0000
0000
1000
,
1000
0100
0100
0010
,
0010
0001
0001
1000
,
0100
0010
0001
1000
,
0100
0010
0001
0100
,
0100
0010
0010
1000
,
1000
0001
0001
0100
,
0010
1000
0001
0100
,
0010
1000
0001
0100
,
0010
0100
0010
2000
,
3000
0002
0003
0010
,
0100
0010
0100
0020
,
0000
0030
0000
0001
,
0001
1000
1000
0010
,
0010
0001
0001
0001
,
1000
0010
0001
1000
,
0010
0001
0100
0010
,
0000
0000
0000
0000
,
0000
0000
0000
0000
,
0000
0000
1000
2002
,
3003
0010
0220
0330
,
0001
2002
3003
0100
,
0220
0330
0001
0022
,
0033
1000
2200
3300
,
0010
2020
3030
0100
,
0202
0303
0010
0220
,
0330
0100
2002
3003
,
1000
0220
0330
0010
,
2002
3003
0000
0002
,
1000
0003
1000
0200
,
0010
0300
0001
0100
,
0010
0100
0010
1000
,
0001
2000
3000
0001
,
0001
0010
0010
1000
,
1000
0100
0100
0001
,
0010
1000
0100
0001
,
0010
1000
0100
0010
,
0010
0001
0001
1000
,
1000
0100
0100
0010
,
0001
1000
0100
0010
,
0001
1000
0100
1000
,
0001
1000
0001
2000
,
3000
0020
0030
0100
,
0001
1000
0001
2000
,
0000
3000
0000
0010
,
0010
1000
1000
0001
,
0001
0100
0100
0010
,
1000
0001
0100
0010
,
1000
0001
0100
0002
,
0003
1000
0200
0300
,
0010
2002
0000
0000
,
0000
3003
0000
0000
;

//---------------dance-single - ----------------
#NOTES:
     dance-single:
     :
     Beginner:
     1:
     0.135337,0.182367,0.014035,0.105262,0.000000,135.000000,133.000000,2.000000,15.000000,0.000000,0.000000,0.135337,0.182367,0.014035,0.105262,0.000000,135.000000,133.000000,2.000000,15.000000,0.000000,0.000000:
// measure 0
0000
0000
0000
1000
,  // measure 1
0000
0000
1000
0000
,  // measure 2
0000
0100
0000
0000
,  // measure 3
0010
0000
0001
0001
,  // measure 4
0000
0100
0100
0000
,  // measure 5
0010
0010
0000
1000
,  // measure 6
1000
0000
0100
0100
,  // measure 7
0000
0000
0010
0000
,  // measure 8
0000
0001
0000
0000
,  // measure 9
1000
0000
0000
0100
,  // measure 10
0000
0000
0010
0000
,  // measure 11
0000
0100
0000
0000
,  // measure 12
0010
0000
0000
0001
,  // measure 13
0000
0001
0001
0000
,  // measure 14
1000
1000
0000
0100
,  // measure 15
0100
0000
0010
0010
,  // measure 16
0010
0000
0010
0000
,  // measure 17
0010
0000
0001
0000
,  // measure 18
0001
0000
0001
0000
,  // measure 19
1000
0000
1000
0000
,  // measure 20
1000
0000
0100
0000
,  // measure 21
0100
0000
0100
0200
,  // measure 22
0000
0000
0000
0300
,  // measure 23
0000
0000
0000
1000
,  // measure 24
0000
0010
0000
0100
,  // measure 25
0000
0001
0000
0010
,  // measure 26
0000
0100
0000
0010
,  // measure 27
0000
0100
0000
1000
,  // measure 28
0000
0001
0000
0100
,  // measure 29
0000
0010
0000
1000
,  // measure 30
0000
0001
0000
1000
,  // measure 31
0000
0001
0000
2000
,  // measure 32
3000
2000
3000
0200
,  // measure 33
0300
0200
0300
0002
,  // measure 34
0003
0002
0003
0100
,  // measure 35
0000
0000
0000
0010
,  // measure 36
0000
0010
0000
0001
,  // measure 37
0000
0001
0000
1000
,  // measure 38
0000
0001
0000
1000
,  // measure 39
0000
0001
0000
0100
,  // measure 40
0000
0000
0000
0000
,  // measure 41
0000
0000
0000
0000
,  // measure 42
0000
0000
0000
0100
,  // measure 43
0000
0000
0010
0000
,  // measure 44
0000
1000
0000
0000
,  // measure 45
0001
0000
0100
0100
,  // measure 46
0000
0010
0010
0000
,  // measure 47
1000
1000
0000
0001
,  // measure 48
0001
0000
0010
0010
,  // measure 49
0000
0100
0100
0000
,  // measure 50
1000
1000
0000
0001
,  // measure 51
0001
0000
0000
0100
,  // measure 52
0000
0000
0000
0010
,  // measure 53
0000
0000
0000
1000
,  // measure 54
0000
0000
0000
0001
,  // measure 55
0000
0000
0000
1001
,  // measure 56
0000
0010
0000
0001
,  // measure 57
0000
0010
0000
1000
,  // measure 58
0000
0100
0000
0010
,  // measure 59
0000
0001
0000
1000
,  // measure 60
0000
0001
0000
1000
,  // measure 61
0000
0001
0000
0100
,  // measure 62
0000
0010
0000
1000
,  // measure 63
0000
0001
0000
0200
,  // measure 64
0300
0200
0300
0020
,  // measure 65
0030
0020
0030
2000
,  // measure 66
3000
0200
0300
0010
,  // measure 67
0000
0000
0000
0001
,  // measure 68
0000
1000
0000
0001
,  // measure 69
0000
0100
0000
0010
,  // measure 70
0000
0010
0000
1000
,  // measure 71
0000
1000
0000
0100
,  // measure 72
0000
0000
0100
0000
,  // measure 73
0000
2002
0000
0000
,  // measure 74
0000
3003
0000
0000
;
