#TITLE:That House;
#SUBTITLE:;
#ARTIST:Dance With the Dead;
#TITLETRANSLIT:;
#SUBTITLETRANSLIT:;
#ARTISTTRANSLIT:;
#GENRE:B-Sides Vol. 1;
#CREDIT:[Ness];
#BANNER:That House.png;
#BACKGROUND:That House-bg.png;
#LYRICSPATH:;
#CDTITLE:;
#MUSIC:That House.mp3;
#OFFSET:-0.015000;
#SAMPLESTART:66.488472;
#SAMPLELENGTH:14.769234;
#LASTBEATHINT:244.000000;
#SELECTABLE:YES;
#BPMS:0.000000=130.000000
;
#STOPS:
;
#BGCHANGES:;
#KEYSOUNDS:;
#ATTACKS:;

//---------------dance-single - ----------------
#NOTES:
     dance-single:
     :
     Hard:
     7:
     0.449077,0.436378,0.250513,0.056567,0.016162,389.000000,358.000000,31.000000,7.000000,0.000000,0.000000,0.449077,0.436378,0.250513,0.056567,0.016162,389.000000,358.000000,31.000000,7.000000,0.000000,0.000000:
// measure 0
0000
0000
0000
0000
,  // measure 1
0000
0000
0000
0000
,  // measure 2
0000
0000
0000
0000
,  // measure 3
0000
0000
0000
0000
0000
0000
0001
0010
,  // measure 4
0110
1000
0100
0000
0001
0000
0101
0000
,  // measure 5
1010
0000
1100
0000
1000
0010
0100
0001
,  // measure 6
0010
0001
1000
0000
0010
0000
0011
0000
,  // measure 7
0010
0100
0010
0000
0001
0000
1000
0010
,  // measure 8
0100
1000
0100
0000
0001
0000
0110
0000
,  // measure 9
1000
0000
1001
0000
0010
0000
1000
0100
,  // measure 10
0010
0001
0100
0000
0010
0000
0110
0000
,  // measure 11
0001
0010
0001
0000
0010
0000
1000
0001
,  // measure 12
1000
0010
0100
0000
0010
0000
0110
0000
,  // measure 13
1000
0000
0001
1000
0100
0000
0100
0001
,  // measure 14
0000
1000
0100
0000
0001
0000
0101
0000
,  // measure 15
0001
0100
0001
0010
0100
0000
0110
0000
,  // measure 16
0001
1000
0010
0000
0001
0000
1010
0000
,  // measure 17
0100
0000
0010
1000
0100
0000
0001
1000
,  // measure 18
0000
1000
0001
0000
0100
0000
1001
0000
,  // measure 19
0001
1000
0001
0100
0010
0000
0001
0100
,  // measure 20
1000
0000
0001
1000
0100
0000
1000
0000
0100
0000
0010
0000
0200
0000
0000
0000
,  // measure 21
1000
0000
0310
0000
1020
0000
1000
0100
,  // measure 22
0030
0100
0001
0000
0001
1000
0001
0010
,  // measure 23
0000
0010
0001
1000
0100
0001
0100
0000
,  // measure 24
1000
0000
1000
0001
0100
0000
0010
0000
0100
0000
0001
0000
0200
0000
0000
0000
,  // measure 25
0310
0000
0021
0000
0130
0000
1000
0100
,  // measure 26
0001
0000
0101
0000
0001
1000
0001
0100
,  // measure 27
0010
0000
1010
0000
1000
0010
0100
0000
,  // measure 28
0001
0000
1000
0001
0010
0000
0001
0000
0010
0000
0100
0000
0020
0000
0000
0000
,  // measure 29
0001
0000
0130
0000
0201
0000
0001
0010
,  // measure 30
0300
0010
1000
0000
1000
0001
1000
0010
,  // measure 31
0000
0100
0001
0100
1000
0100
0001
0000
,  // measure 32
1000
0000
0001
1000
0010
0000
0100
0000
0010
0000
1000
0000
0020
0000
0000
0000
,  // measure 33
0130
0000
0001
0000
0010
0000
0100
1000
,  // measure 34
0001
0000
1000
0000
0010
0100
0001
0100
,  // measure 35
0010
0000
1000
1000
0001
0001
0100
0100
,  // measure 36
0101
0000
0010
1000
0100
0100
1000
0001
,  // measure 37
0000
1000
0010
0100
0001
0010
0100
1000
,  // measure 38
1010
0000
1000
0001
0010
0100
0010
0001
,  // measure 39
0000
0001
0100
1000
0100
0001
0010
0100
,  // measure 40
0110
0000
1000
0010
1000
0001
0100
0010
,  // measure 41
0000
1000
0100
0001
0100
1000
0100
0010
,  // measure 42
0011
0000
0001
0100
0010
0000
1000
0100
,  // measure 43
0000
0001
1000
0001
0100
0010
1000
0100
,  // measure 44
1010
0000
1000
0100
1010
0000
1000
0001
,  // measure 45
0000
1000
0010
0100
0001
0010
0100
1000
,  // measure 46
0011
0000
0100
1000
0011
0000
1000
0100
,  // measure 47
0000
1000
0001
0100
0010
1000
0100
0010
,  // measure 48
1100
0000
0010
0100
1010
0000
0100
0010
,  // measure 49
0000
1000
0100
0010
0001
0100
0010
0100
,  // measure 50
0011
0000
0100
0010
0101
0000
0010
1000
,  // measure 51
0000
0001
0100
1000
0100
0001
0010
0100
,  // measure 52
1001
0010
1000
0010
0001
0010
1000
0010
,  // measure 53
0001
0010
0100
0010
0001
0010
1000
0100
,  // measure 54
0000
0010
0100
1000
0100
0010
0100
0001
,  // measure 55
0100
0010
0100
1000
0100
0010
0100
0001
,  // measure 56
1000
0010
0100
0010
1000
0010
0001
0010
,  // measure 57
1000
0010
0100
0010
0001
0010
1000
0001
,  // measure 58
0000
1000
0100
0010
0100
0001
0100
0010
,  // measure 59
0100
1000
0100
0010
0100
1000
0001
0100
,  // measure 60
0001
0000
0000
0000
;

//---------------dance-single - ----------------
#NOTES:
     dance-single:
     :
     Medium:
     5:
     0.334787,0.339405,0.202027,0.064649,0.000000,290.000000,265.000000,25.000000,8.000000,0.000000,0.000000,0.334787,0.339405,0.202027,0.064649,0.000000,290.000000,265.000000,25.000000,8.000000,0.000000,0.000000:
// measure 0
0000
0000
0000
0000
,  // measure 1
0000
0000
0000
0000
,  // measure 2
0000
0000
0000
0000
,  // measure 3
0000
0000
0000
0000
,  // measure 4
0001
1000
0001
0000
0100
0000
1001
0000
,  // measure 5
0010
0000
1000
0000
0001
0000
1000
0100
,  // measure 6
0000
0010
0100
0000
1000
0000
0001
0000
,  // measure 7
0010
0001
1000
0000
0001
0000
0100
0010
,  // measure 8
1000
0001
0100
0000
0001
0000
1001
0000
,  // measure 9
0010
0000
1000
0000
0001
0000
0010
0100
,  // measure 10
0000
0010
0100
0000
1000
0000
1001
0000
,  // measure 11
1000
0001
1000
0000
0010
0000
1000
0100
,  // measure 12
1000
1001
1000
1001
,  // measure 13
1000
0000
0001
1000
0100
0000
1000
0001
,  // measure 14
0000
1000
0001
0000
0100
0000
0101
0000
,  // measure 15
0100
0001
1000
0000
0100
0000
0110
0000
,  // measure 16
0001
1001
0001
1001
,  // measure 17
0001
0000
1000
0001
0010
0000
0001
1000
,  // measure 18
0000
0001
1000
0000
0010
0000
1010
0000
,  // measure 19
0010
1000
0001
0000
0010
0000
0110
0000
,  // measure 20
1000
0000
0100
0000
0001
0100
2000
0000
,  // measure 21
0000
3100
2010
0100
,  // measure 22
3010
0000
0000
0000
1000
0000
0001
1000
,  // measure 23
0100
0000
0010
0000
0100
1000
0001
0000
,  // measure 24
1001
0000
0100
0000
1000
0100
0002
0000
,  // measure 25
0000
0103
0012
0100
,  // measure 26
0013
0000
0000
0000
0001
0000
1000
0001
,  // measure 27
0100
0000
0010
0000
0100
0001
1000
0000
,  // measure 28
0101
0000
0010
0000
0001
0100
2000
0000
,  // measure 29
0000
3001
0210
0001
,  // measure 30
0310
0000
0000
0000
1000
0000
0010
1000
,  // measure 31
0100
0000
0010
0000
0001
1000
0001
0000
,  // measure 32
0202
0000
0000
0303
,  // measure 33
0001
1000
0100
0010
,  // measure 34
0001
0001
1000
1000
,  // measure 35
0010
0100
0010
0000
1000
0001
1000
0000
,  // measure 36
1001
0000
1000
0001
0100
0000
0001
1000
,  // measure 37
0000
0010
1000
0000
0100
0000
1000
0000
,  // measure 38
0001
0000
0010
0100
1000
0000
0001
0100
,  // measure 39
0000
0010
1000
0000
0100
0000
1001
0000
,  // measure 40
0010
0000
0001
1000
0010
0000
0100
0001
,  // measure 41
0000
1000
0100
0000
0010
0000
0110
0000
,  // measure 42
1000
0000
0001
0010
0100
0000
1000
0010
,  // measure 43
0000
1000
0100
0000
0010
0000
1001
0000
,  // measure 44
1100
0010
1100
0001
,  // measure 45
1000
0001
0100
0000
0010
0000
0100
0000
,  // measure 46
0101
1000
0101
0010
,  // measure 47
0100
0001
1000
0000
0001
0000
0010
0100
,  // measure 48
1000
0000
0001
0010
1000
0000
0001
0010
,  // measure 49
0000
0100
1000
0000
0001
0000
1000
0001
,  // measure 50
0010
0000
1000
0001
0010
0000
1000
0001
,  // measure 51
0000
1000
0010
0000
0100
0000
0001
0000
,  // measure 52
1000
0010
0100
0000
0001
0000
1000
0000
,  // measure 53
0010
0000
1000
0000
0001
0000
1000
0100
,  // measure 54
0000
0010
0100
0000
1000
0000
0001
0000
,  // measure 55
1000
0001
0100
0000
0010
0000
0100
0001
,  // measure 56
1000
0001
0100
0000
0001
0000
1000
0000
,  // measure 57
0010
0000
1000
0000
0001
0000
0010
0100
,  // measure 58
0000
1000
0100
0000
0010
0000
0001
0000
,  // measure 59
1000
0001
0010
0000
0100
0000
1000
0001
,  // measure 60
1000
0000
0000
0000
;

//---------------dance-single - ----------------
#NOTES:
     dance-single:
     :
     Easy:
     4:
     0.243587,0.242432,0.016162,0.226270,0.000000,211.000000,209.000000,2.000000,28.000000,0.000000,0.000000,0.243587,0.242432,0.016162,0.226270,0.000000,211.000000,209.000000,2.000000,28.000000,0.000000,0.000000:
// measure 0
0000
0000
0000
0000
,  // measure 1
0000
0000
0000
0000
,  // measure 2
0000
0000
0000
0000
,  // measure 3
0000
0000
0000
0000
,  // measure 4
0001
0010
0001
0010
,  // measure 5
0001
0100
0010
1000
,  // measure 6
0100
1000
0100
1000
,  // measure 7
0001
0010
0100
1000
,  // measure 8
0010
0100
0010
0100
,  // measure 9
0010
1000
0001
0100
,  // measure 10
0001
1000
0001
1000
,  // measure 11
0001
0010
0100
1000
,  // measure 12
0020
0100
0100
0130
,  // measure 13
0001
1000
0001
1000
,  // measure 14
0200
0010
0010
0310
,  // measure 15
1000
0001
1000
0001
,  // measure 16
2000
0010
0010
3010
,  // measure 17
1000
0100
0001
0100
,  // measure 18
0002
0010
0010
0013
,  // measure 19
0001
0100
1000
0100
,  // measure 20
1000
0001
1000
0002
,  // measure 21
0000
0000
0013
0100
,  // measure 22
1000
0010
1000
0100
,  // measure 23
0010
0001
0100
0001
,  // measure 24
1000
0010
1000
0002
,  // measure 25
0000
0000
0013
0100
,  // measure 26
1000
0100
0010
0100
,  // measure 27
1000
0010
0100
1001
,  // measure 28
0001
1000
0001
2000
,  // measure 29
0000
0000
3010
0100
,  // measure 30
0001
0010
0001
0100
,  // measure 31
0010
1000
0100
1000
,  // measure 32
0001
0010
0001
2000
,  // measure 33
0000
0000
3010
0100
,  // measure 34
0001
0100
0010
0100
,  // measure 35
0001
0010
0100
1000
,  // measure 36
0020
1000
0100
0130
,  // measure 37
0001
1000
0100
0010
,  // measure 38
0002
1000
0100
0103
,  // measure 39
0010
1000
0100
0010
,  // measure 40
2000
0100
0001
3001
,  // measure 41
0010
0100
1000
0001
,  // measure 42
0200
1000
0010
0310
,  // measure 43
1000
0001
0010
0100
,  // measure 44
0020
0031
0020
1030
,  // measure 45
0001
1000
0100
0010
,  // measure 46
0002
0103
0002
0013
,  // measure 47
0001
1000
0010
0001
,  // measure 48
0200
0310
0200
0301
,  // measure 49
1000
0100
0010
0001
,  // measure 50
2000
3010
2000
3100
,  // measure 51
0001
1000
0010
0100
,  // measure 52
1002
0000
0023
0000
,  // measure 53
0130
1000
0010
1000
,  // measure 54
0200
0000
0320
0000
,  // measure 55
0031
1000
0010
0100
,  // measure 56
0002
0000
2003
0000
,  // measure 57
3010
1000
0001
0100
,  // measure 58
0020
0000
0230
0000
,  // measure 59
0301
1000
0100
1000
,  // measure 60
0001
0000
0000
0000
;

//---------------dance-single - ----------------
#NOTES:
     dance-single:
     :
     Beginner:
     2:
     0.128143,0.193946,0.032324,0.048486,0.000000,111.000000,107.000000,4.000000,6.000000,0.000000,0.000000,0.128143,0.193946,0.032324,0.048486,0.000000,111.000000,107.000000,4.000000,6.000000,0.000000,0.000000:
0000
0000
0000
0000
,
0000
0000
0000
0000
,
0000
0000
0000
0000
,
0000
0000
0000
0000
,
0001
0000
0001
0000
,
0010
0000
1000
0000
,
0001
0000
0001
0000
,
1000
0000
1000
0000
,
0100
0000
0100
0000
,
0010
0000
0010
0000
,
0100
0000
0100
0000
,
1000
0000
1000
0000
,
0001
0000
0001
0000
,
0100
0000
0100
0000
,
0010
0000
0010
0000
,
1000
0000
1000
0000
,
0100
0000
0100
0000
,
0010
0000
0010
0000
,
0001
0000
0001
0000
,
1000
0000
1000
0000
,
0100
0000
0100
0200
,
0000
0000
0300
0000
,
0010
0000
0010
0000
,
0100
0000
0100
0000
,
0010
0000
0010
0020
,
0000
0030
0000
0001
,
0000
0001
0000
1000
,
0000
1000
0000
1000
,
0000
0010
0000
0020
,
0000
0030
0000
0100
,
0000
0001
0000
0010
,
0000
0100
0000
1000
,
2000
0000
3000
0000
,
0000
0000
0010
0000
,
0002
0000
0003
0000
,
0020
0000
0030
0000
,
0100
0000
0100
0000
,
1000
0000
0001
0000
,
1000
0000
1000
0000
,
0010
0000
0100
0000
,
0001
0000
0001
0000
,
0010
0000
0100
0000
,
0100
0000
1000
0000
,
0001
0000
0010
0000
,
1001
0000
1001
0000
,
0010
0000
0100
0000
,
0110
0000
0110
0000
,
0001
0000
1000
0000
,
0010
0000
0010
0000
,
0100
0000
0001
0000
,
0010
0000
0010
0000
,
0100
0000
1000
0000
,
0001
0000
0001
0000
,
1000
0000
1000
0000
,
0100
0000
0100
0000
,
0010
0000
0010
0000
,
0001
0000
0100
0000
,
0001
0000
0001
0000
,
1000
0000
0001
0000
,
1000
0000
1000
0000
,
0100
0000
0000
0000
;
