#VERSION:0.83;
#TITLE:Telephone;
#SUBTITLE:;
#ARTIST:Lady Gaga feat. Beyonce;
#TITLETRANSLIT:;
#SUBTITLETRANSLIT:;
#ARTISTTRANSLIT:;
#GENRE:The Fame Monster;
#ORIGIN:;
#TAGS:;
#CREDIT:[Ness];
#BANNER:Telephone-bn.png;
#BACKGROUND:Black.png;
#PREVIEWVID:Telephone-preview.avi;
#JACKET:Telephone-jacket.png;
#CDIMAGE:;
#DISCIMAGE:Telephone-bg.png;
#LYRICSPATH:;
#CDTITLE:;
#MUSIC:Telephone.mp3;
#OFFSET:-0.280000;
#SAMPLESTART:102.551331;
#SAMPLELENGTH:31.475410;
#SELECTABLE:YES;
#DISPLAYBPM:122.000000;
#BPMS:0.000000=122.000000
,17.000000=244.000000
,17.500000=122.000000
,189.000000=244.000000
,190.000000=122.000000
,206.500000=244.000000
,208.000000=122.000000
;
#STOPS:17.000000=0.031000
,17.125000=0.031000
,17.250000=0.031000
,17.375000=0.031000
,189.000000=0.031000
,189.125000=0.031000
,189.250000=0.031000
,189.375000=0.031000
,189.500000=0.031000
,189.625000=0.031000
,189.750000=0.031000
,189.875000=0.031000
,206.500000=0.031000
,206.625000=0.031000
,206.750000=0.031000
,206.875000=0.031000
,207.000000=0.041000
,207.166672=0.041000
,207.333328=0.041000
,207.500000=0.041000
,207.666672=0.041000
,207.833328=0.041000
;
#DELAYS:;
#WARPS:;
#TIMESIGNATURES:0.000000=4=4
;
#TICKCOUNTS:0.000000=2
;
#COMBOS:0.000000=1
;
#SPEEDS:0.000000=1.000000=0.000000=0
;
#SCROLLS:0.000000=1.000000
;
#LABELS:0.000000=Song Start
;
#BGCHANGES:;
#KEYSOUNDS:;
#ATTACKS:
;

//---------------dance-single - ----------------
#NOTEDATA:;
#CHARTNAME:[Ness];
#CHARTHASH:459609389;
#STEPSTYPE:dance-single;
#BANNER:;
#DESCRIPTION:[Ness];
#CHARTSTYLE:;
#DIFFICULTY:Easy;
#METER:4;
#METERF:4.000000;
#LASTSECONDHINT:139.956436;
#RADARVALUES:0.000000,0.000000,0.000000,0.000000,0.000000,0.000000,0.000000,0.000000,0.000000,0.000000,0.000000,0.000000,0.000000,0.000000,0.000000,0.000000,0.000000,0.000000,0.000000,0.000000,0.000000,0.000000,0.000000,0.000000,0.000000,0.000000,0.000000,0.000000;
#CREDIT:[Ness];
#DISPLAYBPM:122.000000;
#NOTES:
// measure 0
0000
0000
0000
0000
,  // measure 1
0000
0000
0000
0000
,  // measure 2
0000
0000
0000
0000
,  // measure 3
0000
0000
0000
0000
,  // measure 4
0001
0010
0100
0000
,  // measure 5
1000
0000
0001
0000
,  // measure 6
1000
0010
0100
0000
,  // measure 7
0001
0000
1000
0000
,  // measure 8
0001
0100
0001
0100
,  // measure 9
1000
0100
1000
0100
,  // measure 10
0001
0010
0100
1000
,  // measure 11
0001
0010
0001
0010
,  // measure 12
1000
1000
0001
0001
,  // measure 13
1000
0001
1000
1000
,  // measure 14
0001
0001
1000
1000
,  // measure 15
0001
0100
0010
0010
,  // measure 16
1000
0100
0010
0010
,  // measure 17
0100
0100
0010
0010
,  // measure 18
0001
0100
0010
1000
,  // measure 19
0100
0010
0100
0000
,  // measure 20
1000
1000
0001
0001
,  // measure 21
1000
0100
1000
0100
,  // measure 22
0001
0100
0001
0100
,  // measure 23
1000
0100
1000
0000
,  // measure 24
0001
1000
0001
1000
,  // measure 25
0010
0001
0010
1000
,  // measure 26
0001
1000
0001
1000
,  // measure 27
0001
0100
1000
0100
,  // measure 28
0001
0001
1000
1000
,  // measure 29
0001
0100
0010
1000
,  // measure 30
0001
0100
0001
0001
,  // measure 31
1000
1000
0001
1000
,  // measure 32
0100
0010
0100
0010
,  // measure 33
0100
0100
0010
0100
,  // measure 34
1000
0010
1000
0100
,  // measure 35
0010
0000
0001
0000
,  // measure 36
1000
0001
2002
3003
,  // measure 37
0001
1000
0020
0030
,  // measure 38
1000
0001
2000
3000
,  // measure 39
0001
1000
0200
0300
,  // measure 40
0010
0100
0010
0100
,  // measure 41
0010
0001
0200
0300
,  // measure 42
0001
0100
0001
0001
,  // measure 43
1000
0010
0100
0100
,  // measure 44
0010
0000
0000
0000
,  // measure 45
1000
0000
0100
0000
,  // measure 46
0001
0000
0010
0000
,  // measure 47
0100
0100
2000
3000
,  // measure 48
0001
0000
1000
0000
,  // measure 49
0010
0010
0200
0300
,  // measure 50
0001
0010
0100
1000
,  // measure 51
0001
1000
0002
0003
,  // measure 52
1000
0100
0001
0010
,  // measure 53
0001
0100
0001
1000
,  // measure 54
0001
0010
1000
0100
,  // measure 55
1000
0001
1000
0010
,  // measure 56
0100
0001
0010
0100
,  // measure 57
1000
0010
0100
0001
,  // measure 58
0010
1000
0010
0001
,  // measure 59
0100
1000
0100
0001
,  // measure 60
1000
1000
0001
0001
,  // measure 61
1000
0100
0001
0100
,  // measure 62
1000
1000
0001
0010
,  // measure 63
0100
0100
0000
1001
,  // measure 64
0010
0001
0100
1000
,  // measure 65
0100
0100
0010
0100
,  // measure 66
0010
0010
1001
1001
,  // measure 67
1010
1010
1001
1001
,  // measure 68
0010
0001
0010
0010
,  // measure 69
0100
0100
1000
0001
,  // measure 70
1000
1000
0001
0001
,  // measure 71
0100
0000
0000
0000
;

//---------------dance-single - ----------------
#NOTEDATA:;
#CHARTNAME:[Ness];
#CHARTHASH:244608293;
#STEPSTYPE:dance-single;
#BANNER:;
#DESCRIPTION:[Ness];
#CHARTSTYLE:;
#DIFFICULTY:Medium;
#METER:6;
#METERF:6.000000;
#LASTSECONDHINT:141.431839;
#RADARVALUES:0.000000,0.000000,0.000000,0.000000,0.000000,0.000000,0.000000,0.000000,0.000000,0.000000,0.000000,0.000000,0.000000,0.000000,0.000000,0.000000,0.000000,0.000000,0.000000,0.000000,0.000000,0.000000,0.000000,0.000000,0.000000,0.000000,0.000000,0.000000;
#CREDIT:[Ness];
#DISPLAYBPM:122.000000;
#NOTES:
0000
0000
0000
0000
,
0000
0000
0000
0000
,
0000
0000
0000
0000
,
0000
0000
0000
0000
,
0001
1000
0001
0100
,
0010
1000
0010
0000
0200
0000
0300
0000
,
0001
1000
0100
0010
,
0001
1000
0001
0000
2000
0000
3000
0000
,
0010
1000
0001
0000
2000
0000
3000
0000
,
0010
0001
1000
0000
0002
0000
0003
0000
,
0010
0100
0010
0000
0001
1000
0001
0000
,
0100
0010
2000
3000
,
0001
0010
0100
1000
,
0100
0000
0010
0001
0020
0000
0030
0000
,
0001
1000
0001
0100
,
0010
1000
0020
0000
1030
0000
0000
0000
,
0100
0010
0100
1000
,
0001
0000
1000
0100
2000
0000
3000
0000
,
0001
0010
0100
1000
,
0001
0010
0002
0000
0013
0000
0000
0000
,
1001
0000
0001
0100
0001
0000
1000
0100
,
1000
0000
0001
0000
0010
0100
0010
0000
,
0001
0100
1000
0000
1000
0100
0001
0000
,
0010
0100
1000
0001
,
1001
0000
1000
0010
1000
0000
0001
0010
,
0001
0000
0100
0000
0010
1000
0001
0000
,
1000
0100
0001
0000
0001
0100
1000
0000
,
0010
0000
0100
0001
1000
0000
1001
0000
,
0010
0000
1000
0000
0100
0010
0100
0000
,
0010
0001
0100
0000
0001
0001
0001
0000
,
1000
0001
1000
0000
0100
1000
0100
0000
,
0010
0000
0100
0000
1000
1000
1000
0000
,
0001
0000
1000
0000
0010
0100
0001
0000
,
1000
1000
1000
0000
0001
0001
0001
0000
,
0010
0100
1000
0000
0001
0010
0100
0000
,
0010
0000
0001
0000
1000
0100
0001
0000
,
0100
0100
2002
3003
,
0010
0100
0110
0110
,
1000
0001
1001
1001
,
0010
0001
1001
1001
,
0100
0001
0010
0100
,
1000
0001
2002
3003
,
0010
1000
2020
3030
,
0101
0101
1001
0000
,
0010
0001
1000
0010
,
0100
0001
1000
0000
0100
0000
0000
0000
,
0010
0100
1000
0001
,
0010
0100
0010
0000
0100
0000
0000
0000
,
1000
0010
0100
0001
,
0010
0100
0010
0000
0100
0000
0000
0000
,
1000
0001
0100
0010
,
1000
0001
1001
0000
,
0010
0000
1000
0010
1000
0000
0001
0100
,
0001
0000
1000
0000
0001
0010
0001
0000
,
0010
0100
1000
0000
0001
0010
0100
0000
,
1000
0010
0100
0001
0000
0001
0000
0000
,
1001
0000
0100
0010
1000
0000
0010
0100
,
0001
0000
1000
0000
0001
0010
0010
0000
,
0100
1000
0100
0000
1000
0001
1000
0000
,
0001
0100
0010
1000
0000
1000
0000
0000
,
0001
0010
0100
1000
,
0001
0000
1000
0000
0010
0100
0001
1000
,
0100
0010
0001
1000
,
0010
0000
0100
0000
0000
0001
1000
0000
,
0001
0010
0100
1000
,
0010
0000
0100
0000
0001
0010
0100
1000
,
0001
0000
1000
0000
0001
1000
0001
1000
,
0001
1000
0001
1000
0001
0000
0000
0000
,
1001
0010
0001
0001
,
0010
0000
0010
0000
1000
0100
0001
0000
,
0010
0100
1000
0010
,
0001
0000
0100
0000
0001
0100
1000
0000
;

//---------------dance-single - [Ness]----------------
#NOTEDATA:;
#CHARTNAME:[Ness];
#CHARTHASH:3373877445;
#STEPSTYPE:dance-single;
#BANNER:;
#DESCRIPTION:[Ness];
#CHARTSTYLE:;
#DIFFICULTY:Hard;
#METER:8;
#METERF:8.000000;
#LASTSECONDHINT:141.431839;
#RADARVALUES:0.000000,0.000000,0.000000,0.000000,0.000000,0.000000,0.000000,0.000000,0.000000,0.000000,0.000000,0.000000,0.000000,0.000000,0.000000,0.000000,0.000000,0.000000,0.000000,0.000000,0.000000,0.000000,0.000000,0.000000,0.000000,0.000000,0.000000,0.000000;
#CREDIT:[Ness];
#DISPLAYBPM:122.000000;
#NOTES:
0000
0000
0000
0000
,
0000
0000
0000
0000
,
0000
0000
0000
0000
,
0000
0000
0000
0000
,
0001
0001
0001
0010
0100
1000
0001
1000
,
0100
0100
0010
0010
0002
0000
0000
0000
,
1003
0100
0010
0001
1000
0100
1000
0100
,
0001
0100
1000
0000
1100
0000
0101
0000
,
1000
0010
1000
0001
1000
0010
1000
0001
,
0100
0001
1000
0001
0100
0001
1000
0001
,
0010
0001
1000
0001
0010
0001
1000
0001
,
1000
0100
0010
0001
1000
0100
0010
0001
,
1000
0010
0110
0000
1000
0001
0100
0000
,
0001
1000
0100
0010
0002
0000
0103
0000
,
0001
1000
1100
0000
1000
0010
0100
0000
,
0010
1000
0001
0100
0020
0100
0130
0000
,
0001
1000
0101
0000
0001
1000
0100
0000
,
0010
0001
1000
0010
0200
0000
0301
0000
,
1000
0001
0101
0000
0001
1000
0100
0000
,
0010
0001
0100
0000
0200
0010
0310
0000
,
1001
0000
1000
0100
1000
0002
0010
0010
,
0013
0000
0100
0000
1000
0001
0100
0010
,
1000
0100
2000
0000
3001
0100
0002
0000
,
1003
0010
0100
0002
0000
2000
0000
3003
,
1001
0000
0001
0010
0100
0000
1000
0010
,
0100
0001
1000
0010
0100
0001
1000
0010
,
0200
0001
0301
0000
2000
0100
3100
0000
,
0010
0001
1000
0200
0000
2000
0000
3300
,
0001
0000
0100
0001
0100
0000
0001
0000
1000
0000
1000
0000
0100
0000
0010
0100
,
0010
0000
0001
0100
0001
0000
1000
0000
0010
0000
0100
0000
0001
0000
0000
0000
,
1000
0000
0010
1000
0010
0000
0100
0000
0001
0100
0001
0000
1000
0000
0001
0000
,
0010
0000
0100
1000
0100
0000
1000
0000
0001
0000
1000
0000
0100
0000
0000
0000
,
0010
0000
0001
1000
0001
0000
0100
0000
0010
0000
0010
0000
1000
0000
0001
1000
,
0001
0000
0010
0001
0010
0000
0100
0000
1000
0000
0001
0000
0100
0000
0000
0000
,
0001
0000
1000
0100
1000
0000
0010
0000
0100
0010
0100
0000
0001
0000
1000
0001
,
1000
0000
0100
1000
0100
0000
0010
0000
0001
0000
0010
0000
0100
0000
0000
0000
,
1000
0100
0001
0100
1000
1000
1100
0000
,
0001
0100
0010
1000
0002
0000
1003
0000
,
0001
0010
0100
1000
0002
0000
1003
0000
,
0100
0010
1000
0010
0002
0000
1003
0000
,
0100
1000
0001
0100
0010
1000
0010
0100
,
0100
0001
1000
0100
2000
0000
3001
0000
,
1000
0100
0001
0100
1000
0100
0001
0100
,
1000
0010
0100
0001
1000
1000
0001
0001
,
0200
0000
0000
0000
,
0310
1000
0100
0000
2200
0000
3300
0000
,
1000
0001
1000
0000
0010
0000
0100
0000
,
0001
0100
0002
0000
1003
0000
0000
1000
,
0001
0010
0100
1000
0001
0001
0100
0100
,
0010
1000
0001
0000
0200
0000
0310
1000
,
1000
0100
0010
0001
1000
0100
0010
0001
,
1000
0100
0001
0000
0202
0000
0303
0000
,
1001
0000
0001
0100
0010
2000
0100
0001
,
3100
0000
1001
0000
0010
0001
1000
0010
,
0100
0001
2000
0000
3001
0100
0020
0000
,
1030
0100
0010
0002
0000
0200
0000
0303
,
0101
0000
0001
0010
1100
0000
1000
0010
,
0100
0001
1000
0010
0100
0001
1000
0010
,
0200
0001
0301
0000
2000
0010
3010
0000
,
0100
0001
1000
0020
0000
0200
0000
0330
,
0001
0100
0001
1000
0010
0100
0001
1000
,
0100
0100
0100
0010
0001
1000
0100
0010
,
0002
1000
1000
1000
1000
1000
2003
0010
,
3020
0100
0130
0000
0000
0001
1000
0000
,
1001
0100
0010
1000
0001
0100
0010
1000
,
0100
0100
0100
0010
0001
1000
0100
0010
,
0001
1000
0100
0010
0110
0110
0110
0001
,
1000
0001
0100
0000
1001
0000
0101
0001
,
1000
0000
0010
1000
0010
0000
0100
0001
0100
0000
0010
0000
1000
0000
0100
1000
,
0100
0000
1000
0001
1000
0000
0001
0000
0010
0000
0100
0000
1000
0000
0000
0000
,
0001
0000
0010
0001
0010
0000
0100
1000
0100
0000
1000
0000
0001
0000
1000
0100
,
1000
0000
0001
0010
0001
0000
1000
0000
0010
0000
1000
0000
0001
0000
0000
0000
;

//---------------dance-single - ----------------
#NOTEDATA:;
#CHARTNAME:[Ness];
#CHARTHASH:3207375913;
#STEPSTYPE:dance-single;
#BANNER:;
#DESCRIPTION:[Ness];
#CHARTSTYLE:;
#DIFFICULTY:Beginner;
#METER:1;
#METERF:0.000000;
#LASTSECONDHINT:0.280000;
#RADARVALUES:0.118803,0.166660,0.000000,0.000000,0.000000,124.000000,124.000000,0.000000,0.000000,0.000000,0.000000,0.000000,0.000000,0.000000,0.118803,0.166660,0.000000,0.000000,0.000000,124.000000,124.000000,0.000000,0.000000,0.000000,0.000000,0.000000,0.000000,0.000000;
#CREDIT:[Ness];
#DISPLAYBPM:122.000000;
#NOTES:
// measure 0
0000
0000
0000
0000
,  // measure 1
0000
0000
0000
0000
,  // measure 2
0000
0000
0000
0000
,  // measure 3
0000
0000
0000
0000
,  // measure 4
0001
0000
0010
0000
,  // measure 5
0100
0000
1000
0000
,  // measure 6
0001
0000
1000
0000
,  // measure 7
0100
0000
0000
0000
,  // measure 8
0010
0010
0010
0000
,  // measure 9
0100
0100
0100
0000
,  // measure 10
1000
0000
0001
0000
,  // measure 11
1000
0000
0001
0000
,  // measure 12
0100
0000
0010
0000
,  // measure 13
0100
0000
0010
0000
,  // measure 14
1000
0000
0001
0000
,  // measure 15
0100
0000
0010
0000
,  // measure 16
1000
0000
0010
0000
,  // measure 17
1000
0000
0001
0000
,  // measure 18
1000
0000
0100
0000
,  // measure 19
1000
0000
0001
0000
,  // measure 20
0010
0000
0100
0000
,  // measure 21
0010
0000
0001
0000
,  // measure 22
1000
0000
0001
0000
,  // measure 23
1000
0000
0100
0000
,  // measure 24
0010
0000
0010
0000
,  // measure 25
0100
0000
1000
0000
,  // measure 26
0001
0000
1000
0000
,  // measure 27
0001
0000
0100
0000
,  // measure 28
0010
0000
0010
0000
,  // measure 29
0100
0000
0100
0000
,  // measure 30
0001
0000
0001
0000
,  // measure 31
1000
0000
1000
0000
,  // measure 32
0010
0000
0100
0000
,  // measure 33
0001
0000
1000
0000
,  // measure 34
0100
0000
0010
0000
,  // measure 35
0100
0000
0100
0000
,  // measure 36
1000
0000
0000
0000
,  // measure 37
0001
0000
0000
0000
,  // measure 38
1000
0000
0000
0000
,  // measure 39
0001
0000
0000
0000
,  // measure 40
0100
0000
0000
0000
,  // measure 41
0010
0000
0000
0000
,  // measure 42
0010
0000
0010
0000
,  // measure 43
0100
0100
0100
0100
,  // measure 44
0000
0000
0000
0000
,  // measure 45
0000
0000
0000
0000
,  // measure 46
0001
0000
0000
0000
,  // measure 47
1000
0000
0000
0000
,  // measure 48
0100
0000
0000
0000
,  // measure 49
0010
0000
0000
0000
,  // measure 50
0100
0000
0000
0000
,  // measure 51
0010
0000
0000
0000
,  // measure 52
0001
0000
0001
0000
,  // measure 53
1000
0000
0001
0000
,  // measure 54
0100
0000
0010
0000
,  // measure 55
1000
0000
0100
0000
,  // measure 56
0001
0000
1000
0000
,  // measure 57
0001
0000
1000
0000
,  // measure 58
0100
0000
0010
0000
,  // measure 59
0100
0000
0010
0000
,  // measure 60
0001
0000
0100
0000
,  // measure 61
1000
0000
0100
0000
,  // measure 62
0001
0000
0001
0000
,  // measure 63
1000
0000
1000
0000
,  // measure 64
0001
0000
0010
0000
,  // measure 65
1000
0000
0010
0000
,  // measure 66
0001
0000
0100
0100
,  // measure 67
0100
0100
0100
0000
,  // measure 68
0010
0000
0010
0000
,  // measure 69
1000
0000
0001
0000
,  // measure 70
1000
0000
0100
0000
,  // measure 71
0010
0000
0000
0000
;
