#VERSION:0.83;
#TITLE:Tattoo;
#SUBTITLE:;
#ARTIST:Loreen;
#TITLETRANSLIT:;
#SUBTITLETRANSLIT:;
#ARTISTTRANSLIT:;
#GENRE:Melodifestivalen 2023;
#ORIGIN:;
#CREDIT:[Ness];
#BANNER:Tattoo.png;
#BACKGROUND:Tattoo-bg.png;
#PREVIEWVID:;
#JACKET:Tattoo-jacket.png;
#CDIMAGE:;
#DISCIMAGE:;
#LYRICSPATH:Tattoo.lrc;
#CDTITLE:;
#MUSIC:Tattoo.mp3;
#OFFSET:-0.008000;
#SAMPLESTART:77.019943;
#SAMPLELENGTH:12.599998;
#SELECTABLE:YES;
#BPMS:0.000=150.000;
#STOPS:;
#DELAYS:;
#WARPS:;
#TIMESIGNATURES:0.000=4=4;
#TICKCOUNTS:0.000=2;
#COMBOS:0.000=1;
#SPEEDS:0.000=1.000=0.000=0;
#SCROLLS:0.000=1.000;
#FAKES:;
#LABELS:0.000=Song Start;
#LASTSECONDHINT:116.039940;
#BGCHANGES:;
#KEYSOUNDS:;
#ATTACKS:
;

//---------------dance-single - ----------------
#NOTEDATA:;
#CHARTNAME:;
#STEPSTYPE:dance-single;
#DESCRIPTION:;
#CHARTSTYLE:;
#DIFFICULTY:Hard;
#METER:7;
#RADARVALUES:0.356190,0.407292,0.180000,0.140000,0.003333,374.000000,347.000000,27.000000,21.000000,0.000000,0.000000,0.000000,0.000000,0.000000,0.356190,0.407292,0.180000,0.140000,0.003333,374.000000,347.000000,27.000000,21.000000,0.000000,0.000000,0.000000,0.000000,0.000000;
#CREDIT:;
#NOTES:
0000
0000
0000
0000
,
1000
0000
0000
0100
0000
0000
0001
0000
,
0000
0100
0000
0000
1000
0000
1001
0000
,
0010
0000
0000
0001
0000
0000
0010
0000
,
0000
1000
0000
0000
0001
0000
1001
0000
,
0100
0000
0000
0001
0000
0000
0010
0000
,
0000
1000
0000
0000
0100
0000
1001
0000
,
0001
0000
0000
1000
0000
0000
0010
0000
,
0000
0001
0000
0000
0100
0010
1000
0100
,
0020
0000
0000
0000
,
0030
0000
0000
0001
1000
0001
0010
0100
,
0000
2000
0000
0000
0000
0000
0000
0000
,
3000
0000
0000
0000
0010
1000
0010
0100
,
0002
0000
0000
0000
,
0003
0000
0000
0000
0000
0000
0010
0000
0100
0000
1000
0000
0001
0000
0000
1000
,
0000
0200
0000
0000
0000
0000
0000
0000
,
0300
0000
0000
1000
0010
0100
0001
0010
,
0220
0000
0000
0000
,
0330
0000
0000
0001
1000
0010
0100
0001
,
0000
2002
0000
0000
0000
0000
0000
0000
,
3003
0000
0000
0000
0001
0010
1000
0010
,
0200
0000
0000
0000
,
0300
0000
0000
0010
0100
0001
1000
0100
,
0000
0020
0000
0000
0000
0000
0000
0000
,
0030
0000
0000
0000
,
0011
0000
0001
0010
0000
0010
1000
0000
,
1000
0010
0000
0010
0001
0000
0110
0000
,
1000
0000
1000
0100
0000
0100
0001
0000
,
0001
0100
0000
0100
1000
0000
0110
0000
,
0001
0000
1000
0010
0000
0100
0001
0000
,
0001
0010
0000
0100
1000
0000
0001
1000
,
0100
0000
0010
0001
0000
0000
1000
0000
,
0000
0001
1000
0001
1000
0010
0100
0001
,
2002
0000
0000
3003
,
0010
1000
0100
1000
0001
0100
0010
0100
,
0202
0000
0000
0303
,
0001
0100
0001
1000
0010
0100
0001
0010
,
0100
1000
2200
0000
0000
0000
0000
0000
,
3300
1000
0100
0010
0001
1000
0100
0010
,
0001
0010
0022
0000
0000
0000
0000
0000
,
0033
0010
0001
1000
0010
0100
0001
1000
,
1002
1000
1000
1003
,
1000
0010
0100
0010
1000
0100
0010
0001
,
2001
0001
0001
3001
,
0001
0100
0001
1000
0010
0100
0010
1000
,
0100
0010
0110
0000
0101
0000
1100
0000
,
1000
0100
0001
0100
1000
0010
0100
0001
,
1000
0010
0100
0010
0100
0010
0100
0010
,
0000
1000
1000
1000
0001
1000
0100
0010
,
0011
0000
0001
0010
1000
0010
0001
0000
,
0001
0100
1000
0100
0001
0010
0100
1000
,
0010
0000
1000
0100
0001
0100
1000
0000
,
1000
0010
0001
0010
0100
0001
0100
0010
,
1000
0100
1000
0000
1000
0010
1000
0000
,
0001
0010
0100
0010
1000
0010
0100
0010
,
0001
1000
0001
0000
0001
0100
0001
0000
,
1000
0100
0010
0001
1000
0010
0100
0001
,
1000
0000
0010
1000
0001
0010
0100
0000
,
0010
0001
0010
0100
1000
0001
1000
0100
,
0010
0000
0001
0100
1000
0100
0001
0000
,
1000
0010
0100
0001
1000
0100
1000
0001
,
0010
0100
0010
0000
0001
1000
0001
0000
,
0100
0001
1000
0100
0010
0100
1000
0010
,
0100
0001
1000
0000
1000
0100
1000
0000
,
1000
0100
1000
0001
0010
0100
0010
0100
,
1000
0000
1000
0010
0100
0000
0110
0000
,
0001
0100
0010
0000
0110
0000
0101
0000
,
1001
0000
0001
0010
0100
0000
0110
0000
,
1000
0100
0010
0000
1010
0000
0011
0000
,
1001
0000
1000
0001
0100
0000
1001
0000
,
0001
1000
0010
0100
0001
1000
0001
1000
,
0100
0010
0200
0000
0000
0000
0000
0300
;

//---------------dance-single - ----------------
#NOTEDATA:;
#CHARTNAME:;
#STEPSTYPE:dance-single;
#DESCRIPTION:;
#CHARTSTYLE:;
#DIFFICULTY:Medium;
#METER:5;
#RADARVALUES:0.246667,0.358750,0.106667,0.153333,0.000000,259.000000,243.000000,16.000000,23.000000,0.000000,0.000000,0.000000,0.000000,0.000000,0.246667,0.358750,0.106667,0.153333,0.000000,259.000000,243.000000,16.000000,23.000000,0.000000,0.000000,0.000000,0.000000,0.000000;
#CREDIT:;
#NOTES:
0000
0000
0000
0000
,
1000
0000
0000
0100
0000
0000
0001
0000
,
0000
0100
0000
0000
1000
0000
0100
0000
,
0010
0000
0000
0001
0000
0000
0010
0000
,
0000
1000
0000
0000
0001
0000
1000
0000
,
0100
0000
0000
0001
0000
0000
0010
0000
,
0000
1000
0000
0000
0100
0000
0010
0000
,
0001
0000
0000
1000
0000
0000
0010
0000
,
0000
0001
0000
0000
0100
0000
0001
0000
,
0020
0000
0000
0000
,
0030
0000
0100
0001
,
2000
0000
0000
0000
,
3000
0000
0010
1000
,
0002
0000
0000
0000
,
0003
0000
1000
0001
,
0200
0000
0000
0000
,
0300
0000
0000
0000
0010
1000
0001
0000
,
0220
0000
0000
0000
,
0330
0000
0000
0000
0001
1000
0100
0000
,
2002
0000
0000
0000
,
3003
0000
0000
0000
0001
1000
0010
0000
,
0200
0000
0000
0000
,
0300
0000
0000
0000
1000
0001
0100
0000
,
0020
0000
0000
0000
,
0030
0000
0000
0000
,
1001
0000
0000
0100
0000
0000
0001
0000
,
0000
0100
0000
0000
1000
0000
0001
0000
,
0010
0000
0000
0100
0000
0000
0010
0000
,
0000
0001
0000
0000
1000
0000
0010
0000
,
0100
0000
0000
0001
0000
0000
0010
0000
,
0000
0100
0000
0000
1000
0000
0001
0000
,
2000
0000
0000
0000
,
3000
0000
0001
0000
0010
0100
0010
0100
,
2000
0000
0000
0000
,
3000
0000
0010
0000
0100
0001
0100
0001
,
0020
0000
0000
0000
,
0030
0000
0100
0000
1000
0001
0100
0000
,
0001
1000
0002
0000
0000
0000
0000
0000
,
0003
0000
0010
0000
0100
1000
0001
0000
,
1000
0100
2000
0000
0000
0000
0000
0000
,
3000
0010
1000
0100
,
0001
0001
1000
1000
,
0001
0100
0001
0000
1000
0010
1000
0000
,
0001
0001
1000
1000
,
0001
0010
0001
0000
1000
0010
1000
0000
,
0001
0100
0010
0000
1000
0000
0100
0000
,
0001
0100
1000
0100
,
0001
1000
0001
0000
0010
0000
0100
0000
,
0000
0000
1000
0000
0010
1000
0001
0000
,
1002
0010
1000
0103
,
1000
0000
0001
0000
1000
0100
1000
0000
,
2001
0010
0001
3100
,
0001
0000
1000
0000
0001
0100
0001
0000
,
1000
0010
0200
0000
0010
0000
0310
0000
,
1000
0100
0010
0001
,
1000
0100
0020
0000
0100
0000
0130
0000
,
1000
0001
0100
0010
,
2000
0001
0100
3001
,
1000
0100
1000
0000
0001
0100
0010
0000
,
0002
0100
1000
0103
,
0001
0100
0010
0000
1000
0100
0001
0000
,
1000
0100
1000
0000
0001
0000
1001
0000
,
0001
0100
0010
0000
0001
0100
0001
0000
,
1000
0010
0100
0000
0010
0000
0110
0000
,
1000
0010
0001
0100
,
1001
0000
0001
1000
0001
0000
1001
0000
,
0001
1000
0001
0000
1001
0000
0010
0000
,
1001
0000
1000
0001
1000
0000
1001
0000
,
1000
0001
1000
0000
1001
0000
0010
0000
,
1001
0000
0100
0001
1000
0000
1001
0000
,
0100
1000
0001
0000
0100
0000
0010
0000
,
0220
0000
0000
0330
;

//---------------dance-single - ----------------
#NOTEDATA:;
#CHARTNAME:;
#STEPSTYPE:dance-single;
#DESCRIPTION:;
#CHARTSTYLE:;
#DIFFICULTY:Easy;
#METER:3;
#RADARVALUES:0.166667,0.213000,0.006667,0.200000,0.000000,175.000000,174.000000,1.000000,30.000000,0.000000,0.000000,0.000000,0.000000,0.000000,0.166667,0.213000,0.006667,0.200000,0.000000,175.000000,174.000000,1.000000,30.000000,0.000000,0.000000,0.000000,0.000000,0.000000;
#CREDIT:;
#NOTES:
// measure 0
0000
0000
0000
0000
,  // measure 1
2000
0000
0000
0000
,  // measure 2
3000
0000
0010
0000
,  // measure 3
0002
0000
0000
0000
,  // measure 4
0003
0000
0010
0000
,  // measure 5
2000
0000
0000
0000
,  // measure 6
3000
0000
0100
0000
,  // measure 7
0002
0000
0000
0000
,  // measure 8
0003
0000
0100
0000
,  // measure 9
0020
0000
0000
0000
,  // measure 10
0030
0000
1000
0100
,  // measure 11
2000
0000
0000
0000
,  // measure 12
3000
0000
0001
0010
,  // measure 13
0002
0000
0000
0000
,  // measure 14
0003
0000
0100
0001
,  // measure 15
0200
0000
0000
0000
,  // measure 16
0300
0000
0010
0100
,  // measure 17
0020
0000
0000
0000
,  // measure 18
0030
0000
1000
0001
,  // measure 19
2000
0000
0000
0000
,  // measure 20
3000
0000
0100
1000
,  // measure 21
0020
0000
0000
0000
,  // measure 22
0030
0000
0100
0001
,  // measure 23
0020
0000
0000
0000
,  // measure 24
0030
0000
0000
0000
,  // measure 25
0200
0000
0320
0000
,  // measure 26
0230
0000
1300
1000
,  // measure 27
0002
0000
2003
0000
,  // measure 28
3002
0000
1003
1000
,  // measure 29
0020
0000
0230
0000
,  // measure 30
0320
0000
0130
0100
,  // measure 31
0001
0010
0100
1000
,  // measure 32
0000
0000
0000
0000
,  // measure 33
2002
0000
0000
3003
,  // measure 34
1000
0010
1000
0001
,  // measure 35
0020
0000
0000
0030
,  // measure 36
0001
0100
0001
1000
,  // measure 37
0200
0000
0000
0300
,  // measure 38
0010
0100
1000
0010
,  // measure 39
0200
0000
0000
0300
,  // measure 40
0001
1000
0010
0100
,  // measure 41
0020
0000
0000
0030
,  // measure 42
1000
0100
1000
0001
,  // measure 43
0020
0000
0000
0030
,  // measure 44
0001
0100
1000
0100
,  // measure 45
0002
0000
0000
0003
,  // measure 46
1000
0001
0100
0010
,  // measure 47
2000
0000
0000
3000
,  // measure 48
0000
0000
0000
0000
,  // measure 49
0001
0010
1000
0010
,  // measure 50
0001
0010
0001
0100
,  // measure 51
0010
1000
0010
0001
,  // measure 52
0010
1000
0100
1000
,  // measure 53
0010
0100
0010
1000
,  // measure 54
0010
0100
0001
0010
,  // measure 55
0100
1000
0100
0010
,  // measure 56
0100
1000
0001
0010
,  // measure 57
1000
0010
1000
0001
,  // measure 58
1000
0001
0100
0001
,  // measure 59
0010
0001
0010
1000
,  // measure 60
0001
1000
0100
1000
,  // measure 61
0100
0010
0100
1000
,  // measure 62
0001
1000
0010
0100
,  // measure 63
0001
0010
0001
1000
,  // measure 64
0010
0100
0001
1000
,  // measure 65
0100
0100
0100
1000
,  // measure 66
1000
1000
0001
0010
,  // measure 67
0001
0001
0001
0100
,  // measure 68
0100
0100
0010
1000
,  // measure 69
0010
0010
0010
0100
,  // measure 70
0100
0100
0001
1000
,  // measure 71
0100
0000
0000
0000
;

//---------------dance-single - ----------------
#NOTEDATA:;
#CHARTNAME:;
#STEPSTYPE:dance-single;
#DESCRIPTION:;
#CHARTSTYLE:;
#DIFFICULTY:Beginner;
#METER:1;
#RADARVALUES:0.085714,0.142000,0.006667,0.000000,0.000000,90.000000,89.000000,1.000000,0.000000,0.000000,0.000000,0.000000,0.000000,0.000000,0.085714,0.142000,0.006667,0.000000,0.000000,90.000000,89.000000,1.000000,0.000000,0.000000,0.000000,0.000000,0.000000,0.000000;
#CREDIT:;
#NOTES:
// measure 0
0000
0000
0000
0000
,  // measure 1
1000
0000
0000
0000
,  // measure 2
0000
0000
0000
0000
,  // measure 3
0001
0000
0000
0000
,  // measure 4
0000
0000
0000
0000
,  // measure 5
1000
0000
0000
0000
,  // measure 6
0000
0000
0000
0000
,  // measure 7
0001
0000
0000
0000
,  // measure 8
0000
0000
0000
0000
,  // measure 9
0100
0000
0000
0000
,  // measure 10
0000
0000
0000
0000
,  // measure 11
0100
0000
0000
0000
,  // measure 12
0000
0000
0000
0000
,  // measure 13
0010
0000
0000
0000
,  // measure 14
0000
0000
0000
0000
,  // measure 15
0010
0000
0000
0000
,  // measure 16
0000
0000
0000
0000
,  // measure 17
1000
0000
0000
0000
,  // measure 18
0000
0000
0000
0000
,  // measure 19
0100
0000
0000
0000
,  // measure 20
0000
0000
0000
0000
,  // measure 21
0001
0000
0000
0000
,  // measure 22
0000
0000
0000
0000
,  // measure 23
0010
0000
0000
0000
,  // measure 24
0000
0000
0000
0000
,  // measure 25
1000
0000
0000
1000
,  // measure 26
0000
0000
1000
0000
,  // measure 27
0001
0000
0000
0001
,  // measure 28
0000
0000
0001
0000
,  // measure 29
0010
0000
0000
0010
,  // measure 30
0000
0000
0010
0000
,  // measure 31
0100
0000
0000
0000
,  // measure 32
0000
0000
0000
0000
,  // measure 33
0010
0000
0000
0000
,  // measure 34
0000
0000
0001
0000
,  // measure 35
0100
0000
0000
0000
,  // measure 36
0000
0000
1000
0000
,  // measure 37
0010
0000
0000
0000
,  // measure 38
0000
0000
0100
0000
,  // measure 39
0010
0000
0000
0000
,  // measure 40
0000
0000
1000
0000
,  // measure 41
0100
0000
0001
0000
,  // measure 42
0100
0000
1000
0000
,  // measure 43
0010
0000
1000
0000
,  // measure 44
0100
0000
1000
0000
,  // measure 45
0010
0000
0001
0000
,  // measure 46
0010
0000
1000
0000
,  // measure 47
0010
0000
0100
0000
,  // measure 48
0000
0000
0000
0000
,  // measure 49
0010
0000
0010
0000
,  // measure 50
0010
0000
1000
0000
,  // measure 51
0001
0000
0001
0000
,  // measure 52
0001
0000
0010
0000
,  // measure 53
0100
0000
0100
0000
,  // measure 54
0100
0000
0100
0000
,  // measure 55
1000
0000
1000
0000
,  // measure 56
1000
0000
0001
0000
,  // measure 57
0100
0000
0100
0000
,  // measure 58
0100
0000
0010
0000
,  // measure 59
1000
0000
1000
0000
,  // measure 60
1000
0000
0010
0000
,  // measure 61
0001
0000
0001
0000
,  // measure 62
0001
0000
0010
0000
,  // measure 63
1000
0000
1000
0000
,  // measure 64
1000
0000
0010
0000
,  // measure 65
0100
0000
0100
0000
,  // measure 66
0100
0000
0001
0000
,  // measure 67
0010
0000
0010
0000
,  // measure 68
0010
0000
0100
0000
,  // measure 69
1000
0000
1000
0000
,  // measure 70
1000
0000
1000
0000
,  // measure 71
1001
0000
0000
0000
;
