#VERSION:0.83;
#TITLE:Take Care;
#SUBTITLE:;
#ARTIST:Drake feat. Rihanna;
#TITLETRANSLIT:;
#SUBTITLETRANSLIT:;
#ARTISTTRANSLIT:;
#GENRE:Take Care;
#ORIGIN:;
#TAGS:;
#CREDIT:[Ness];
#BANNER:Take Care-bn.png;
#BACKGROUND:Black.png;
#PREVIEWVID:Take Care-preview.avi;
#JACKET:Take Care-jacket.png;
#CDIMAGE:;
#DISCIMAGE:Take Care-bg.png;
#LYRICSPATH:;
#CDTITLE:;
#MUSIC:Take Care.mp3;
#OFFSET:0.000000;
#SAMPLESTART:7.806790;
#SAMPLELENGTH:15.737705;
#SELECTABLE:YES;
#BPMS:0.000000=122.089989
;
#STOPS:;
#DELAYS:;
#WARPS:;
#TIMESIGNATURES:0.000000=4=4
;
#TICKCOUNTS:0.000000=2
;
#COMBOS:0.000000=1
;
#SPEEDS:0.000000=1.000000=0.000000=0
;
#SCROLLS:0.000000=1.000000
;
#LABELS:0.000000=Song Start
;
#BGCHANGES:;
#KEYSOUNDS:;
#ATTACKS:
;

//---------------dance-single - ----------------
#NOTEDATA:;
#CHARTNAME:[Ness];
#CHARTHASH:1280282057;
#STEPSTYPE:dance-single;
#BANNER:;
#DESCRIPTION:[Ness];
#CHARTSTYLE:;
#DIFFICULTY:Easy;
#METER:3;
#METERF:3.000000;
#LASTSECONDHINT:141.043503;
#RADARVALUES:0.174228,0.225016,0.000000,0.160290,0.000000,175.000000,175.000000,0.000000,23.000000,0.000000,0.000000,0.000000,0.000000,0.000000,0.174228,0.225016,0.000000,0.160290,0.000000,175.000000,175.000000,0.000000,23.000000,0.000000,0.000000,0.000000,0.000000,0.000000;
#CREDIT:[Ness];
#NOTES:
// measure 0
0000
0000
0000
0000
,  // measure 1
0000
0000
0000
0000
,  // measure 2
0000
0000
0000
0000
,  // measure 3
0000
0000
0000
0000
,  // measure 4
0000
0000
0000
0000
,  // measure 5
0000
0000
0000
0000
,  // measure 6
0000
0000
0000
0000
,  // measure 7
0000
0000
0000
0000
,  // measure 8
0001
1000
0100
0000
,  // measure 9
0010
0000
0100
0000
,  // measure 10
1000
0001
0100
0000
,  // measure 11
0001
0000
1000
0000
,  // measure 12
0010
1000
0100
0000
,  // measure 13
0001
0000
1000
0000
,  // measure 14
0100
0010
0001
0000
,  // measure 15
1000
0000
0010
0000
,  // measure 16
0100
0100
0001
0001
,  // measure 17
1000
0100
1000
1000
,  // measure 18
0001
0001
1000
1000
,  // measure 19
0001
0100
0001
0001
,  // measure 20
1000
1000
0001
0001
,  // measure 21
1000
0001
1000
1000
,  // measure 22
0001
0001
0010
0010
,  // measure 23
0001
0001
1000
0001
,  // measure 24
2000
3000
0020
0030
,  // measure 25
0002
0003
0100
0100
,  // measure 26
0020
0030
2000
3000
,  // measure 27
0200
0300
0001
0001
,  // measure 28
2000
3000
0002
0003
,  // measure 29
0200
0300
0020
0030
,  // measure 30
2000
3000
0200
0300
,  // measure 31
0020
0030
0001
1000
,  // measure 32
0001
0000
0100
0000
,  // measure 33
1000
0000
0100
0010
,  // measure 34
0100
0000
1000
0000
,  // measure 35
0001
0000
0010
0100
,  // measure 36
0010
0000
0001
0000
,  // measure 37
1000
0001
0100
0100
,  // measure 38
1000
0000
0100
0000
,  // measure 39
0001
1000
0100
0100
,  // measure 40
0001
0100
0001
0100
,  // measure 41
0001
1000
0001
1000
,  // measure 42
0100
1000
0100
1000
,  // measure 43
0001
1000
0001
1000
,  // measure 44
0010
1000
0010
1000
,  // measure 45
0001
1000
0001
1000
,  // measure 46
0001
0010
0001
0010
,  // measure 47
0100
1000
0100
1000
,  // measure 48
0001
0000
0010
0000
,  // measure 49
1000
0000
0010
0100
,  // measure 50
0001
0000
1000
0000
,  // measure 51
0100
0000
0010
0100
,  // measure 52
1000
0000
0001
0000
,  // measure 53
0100
0000
0010
1000
,  // measure 54
0100
0000
0010
0000
,  // measure 55
0001
0000
1000
0001
,  // measure 56
0100
0010
1000
0001
,  // measure 57
0200
0300
0010
0000
,  // measure 58
0100
0000
0001
0000
,  // measure 59
1000
0010
0100
0001
,  // measure 60
0020
0030
0100
0000
,  // measure 61
1000
0000
0001
0100
,  // measure 62
0001
0000
1000
0000
,  // measure 63
0010
0000
1000
0001
,  // measure 64
0200
0000
0000
0300
,  // measure 65
0020
0000
0000
0030
,  // measure 66
2000
0000
0000
3000
,  // measure 67
0002
0000
0000
0003
,  // measure 68
2000
0000
0000
3000
,  // measure 69
0200
0000
0000
0300
,  // measure 70
0020
0000
0000
0030
,  // measure 71
0002
0000
0000
0003
;

//---------------dance-single - ----------------
#NOTEDATA:;
#CHARTNAME:[Ness];
#CHARTHASH:1656101798;
#STEPSTYPE:dance-single;
#BANNER:;
#DESCRIPTION:[Ness];
#CHARTSTYLE:;
#DIFFICULTY:Medium;
#METER:6;
#METERF:6.000000;
#LASTSECONDHINT:140.552063;
#RADARVALUES:0.298677,0.398634,0.125444,0.041815,0.139383,300.000000,282.000000,18.000000,6.000000,0.000000,0.000000,0.000000,0.000000,0.000000,0.298677,0.398634,0.125444,0.041815,0.139383,300.000000,282.000000,18.000000,6.000000,0.000000,0.000000,0.000000,0.000000,0.000000;
#CREDIT:[Ness];
#NOTES:
0000
0000
0000
0000
,
0000
0000
0000
0000
,
0000
0000
0000
0000
,
0000
0000
0000
0000
,
0000
0000
0000
0000
,
0000
0000
0000
0000
,
0000
0000
0000
0000
,
0000
0000
0000
0000
,
1001
0000
0000
0000
0000
0000
0010
0000
1000
0000
0000
1000
0000
0000
1000
0000
,
0000
0000
0000
0000
,
0110
0000
0000
0000
0000
0000
0100
0000
0001
0000
0000
0001
0000
0000
0001
0000
,
0000
0000
0000
0000
,
1001
0000
0000
0000
0000
0000
0010
0000
0001
0000
0000
0001
0000
0000
1000
0000
,
0000
0000
0000
0000
,
1001
0000
0000
0000
0000
0000
0010
0000
0100
0000
0000
0100
0000
0000
0010
0000
,
0000
0000
0000
0000
0000
1000
0100
0000
,
1100
0000
0000
1000
0000
0000
0100
0000
0010
0000
0000
0000
0010
0000
0000
0000
,
0011
0000
0000
0001
0000
0000
0010
0000
0100
0000
0000
0000
0100
0000
0000
0000
,
1100
0000
0000
1000
0000
0000
0001
0000
0100
0000
0000
0000
0100
0000
0000
0000
,
0101
0000
0000
0001
0000
0000
1000
0000
0100
0000
0000
0000
0100
0000
0000
0000
,
1000
0000
0000
1000
0000
0000
0001
0000
0100
0000
0000
0000
0010
0000
0000
0000
,
0100
0000
0000
0100
0000
0000
0001
0000
0010
0000
0000
0000
0100
0000
0000
0000
,
1000
0000
0000
1000
0000
0000
0010
0000
0100
0000
0000
0000
0001
0000
0000
0000
,
0010
0000
0000
0010
0000
0000
0001
0000
1000
0000
0000
0000
0001
0000
0000
0000
,
1000
0000
0000
1000
0000
0000
1000
0000
0001
0000
0000
0001
0000
0000
0001
0000
,
0100
0000
0000
0100
0000
0000
0100
0000
0010
0000
0000
0000
0010
0000
0000
0000
,
1000
0000
0000
1000
0000
0000
1000
0000
0010
0000
0000
0010
0000
0000
0010
0000
,
0100
0000
0000
0100
0000
0000
0100
0000
0001
0000
0000
0000
0001
0000
0000
0000
,
0010
0000
0000
0010
0000
0000
0010
0000
0100
0000
0000
0100
0000
0000
0100
0000
,
1000
0000
0000
1000
0000
0000
1000
0000
0001
0000
0000
0001
0000
0000
0001
0000
,
0100
0000
0000
0010
0000
0000
0100
0000
0010
0000
0000
1000
0000
0000
0010
0000
,
1000
0000
0000
0001
0000
0000
1000
0000
0100
0000
0000
1000
0000
0000
0100
0000
,
0020
0030
0002
0003
,
1000
0000
0001
0000
0100
0000
0010
1000
,
0100
0000
0000
0000
0000
0000
0100
0000
0010
0000
0000
0010
0000
0000
0001
0000
,
1000
0000
0001
0000
0100
0000
0010
0100
,
0001
0000
0000
0000
0000
0000
0001
0000
1000
0000
0000
0001
0000
0000
0100
0000
,
0010
0000
1000
0000
0100
0000
0010
0100
,
1000
0000
0000
0000
0000
0000
1000
0000
0001
0000
0000
0001
0000
0000
0100
0000
,
0000
0000
0000
0000
0000
0010
0100
0000
,
0110
0000
0001
0100
1000
0100
0001
0000
,
0110
0000
0001
0100
1000
0100
0001
0000
,
0110
0000
0001
0100
1000
0100
0001
0000
,
0110
0000
0001
0100
1000
0100
0001
0000
,
0110
0000
1000
0010
0001
0010
1000
0000
,
0110
0000
1000
0010
0001
0010
1000
0000
,
0110
0000
1000
0010
0001
0010
1000
0000
,
0110
0000
1000
0010
0001
0010
1000
0000
,
1001
0010
1000
1000
,
0001
0000
0000
0000
0001
0000
0000
0000
0010
0000
0000
0100
0000
0000
1000
0000
,
0010
1000
0010
0100
,
0001
0000
0000
0000
0010
0000
0000
0000
0001
0000
0000
1000
0000
0000
0001
0000
,
0100
0010
1000
0100
,
0010
0000
0000
0000
0100
0000
0000
0000
1000
0000
0000
0001
0000
0000
1000
0000
,
0100
0010
0001
0100
,
0010
0100
0001
1001
,
1000
0100
0010
0100
,
1000
0000
0000
0000
0010
0000
0000
0000
0100
0000
0000
0001
0000
0000
1000
0000
,
0100
0010
0100
1000
,
0001
0000
0000
0000
0010
0000
0000
0000
0100
0000
0000
0010
0000
0000
0001
0000
,
0100
0010
0100
0001
,
1000
0000
0000
0000
0010
0000
0000
0000
1000
0000
0000
0100
0000
0000
0010
0000
,
0001
0010
0100
1000
,
0001
0000
0000
0000
1000
0000
0000
0000
0010
0000
0000
1000
0000
0000
0001
0000
,
1000
0000
0000
0000
0000
0000
1000
0000
0100
0000
0000
0100
0000
0000
0200
0000
,
0000
0000
0000
0300
,
0010
0000
0000
0000
0000
0000
0010
0000
0001
0000
0000
0001
0000
0000
0200
0000
,
0000
0000
0000
0300
,
0010
0000
0000
0000
0000
0000
0100
0000
0001
0000
0000
0001
0000
0000
2000
0000
,
0000
0000
0000
3000
,
0010
0000
0000
0000
0000
0000
0010
0000
1000
0000
0000
1000
0000
0000
0010
0000
,
0200
0000
0300
0000
;

//---------------dance-single - ----------------
#NOTEDATA:;
#CHARTNAME:[Ness];
#CHARTHASH:2459169658;
#STEPSTYPE:dance-single;
#BANNER:;
#DESCRIPTION:[Ness];
#CHARTSTYLE:;
#DIFFICULTY:Hard;
#METER:8;
#METERF:0.000000;
#LASTSECONDHINT:140.552063;
#RADARVALUES:0.426112,0.498293,0.243919,0.097568,0.358910,428.000000,393.000000,35.000000,14.000000,0.000000,0.000000,0.000000,0.000000,0.000000,0.426112,0.498293,0.243919,0.097568,0.358910,428.000000,393.000000,35.000000,14.000000,0.000000,0.000000,0.000000,0.000000,0.000000;
#CREDIT:[Ness];
#NOTES:
0000
0000
0000
0000
,
0000
0000
0000
0000
,
0000
0000
0000
0000
,
0000
0000
0000
0000
,
0000
0000
0000
0000
,
0000
0000
0000
0000
,
0000
0000
0000
0000
,
0000
0000
0000
0000
,
0101
0000
0000
0101
0000
0000
1000
0000
1100
0000
0000
1100
0000
0000
0001
0000
,
0010
0000
0000
0100
0000
0000
1000
0000
0001
0000
0000
0100
0000
0000
0010
0000
,
1000
0000
0000
0001
0000
0000
0010
0000
0100
0000
0000
0010
0000
0000
0001
0000
,
1000
0000
0000
0010
0000
0000
0100
0000
0001
0000
0000
1000
0000
0000
0001
0000
,
0010
0000
0000
0100
0000
0000
1000
0000
0001
0000
0000
1000
0000
0000
0100
0000
,
0010
0000
0000
0001
0000
0000
1000
0000
0010
0000
0000
0100
0000
0000
0010
0000
,
1000
0000
0000
0100
0000
0000
0010
0000
0100
0000
0000
1000
0000
0000
0001
0000
,
0100
0000
0000
0000
0000
0010
0100
0000
,
0101
0000
0000
0001
0000
0000
1000
0000
0100
0000
0000
1000
0000
0000
0001
0000
,
0010
0000
0000
0100
0000
0000
0010
0000
0001
0000
0000
1000
0000
0010
0100
0000
,
0010
0000
0000
1000
0000
0000
0001
0000
0010
0000
0000
0100
0000
1000
0100
0000
,
0010
0000
0001
0000
1000
0000
0100
0000
0010
0000
0000
0001
0000
1000
0100
0000
,
1000
0000
0000
0001
0000
0000
0100
0000
0001
0000
1000
0000
0100
0000
0010
0000
,
0001
0000
1000
0001
0100
0010
1000
0001
,
1000
0000
0010
1000
0100
1000
0010
1000
,
0100
0000
0010
0001
0100
0001
0010
0100
,
1000
0000
0000
0001
0000
0100
0001
0000
0010
0000
0000
0100
0000
1000
0100
0000
,
1000
0000
0000
0001
0000
0100
0010
0000
1000
0000
0001
0000
0100
0000
0000
0000
,
0010
0000
0000
1000
0000
0001
0010
0000
0100
0000
0000
1000
0000
0010
0100
0000
,
0001
0000
0000
0010
0000
0100
1000
0000
0001
0000
0100
0000
0001
0000
0000
0000
,
1000
0000
0000
0010
0000
0100
0001
0000
0001
0000
0000
0010
0000
0100
1000
0000
,
0010
0000
0000
0100
0000
0001
1000
0000
0100
0000
0000
0010
0000
0001
1000
0000
,
0010
0000
0000
0100
0000
0001
0100
0000
0001
0000
0000
1000
0000
0010
1000
0000
,
0100
0000
0000
0010
0000
0001
0010
0000
0100
0000
1000
0000
0001
0000
0000
0000
,
0101
0000
0000
0101
0000
0000
0000
0000
1100
0000
0000
1100
0000
0000
0000
0000
,
0110
0000
0000
0110
0000
0000
0000
0000
1001
0000
0000
1001
0000
0000
0010
0000
,
0100
0000
0000
0110
0000
0000
0000
0000
0011
0000
0000
0011
0000
0000
0000
0000
,
1010
0000
0000
1010
0000
0000
0000
0000
0110
0000
0000
0110
0000
0000
1000
0000
,
0100
0000
0000
1001
0000
0000
0000
0000
0011
0000
0000
0011
0000
0000
0000
0000
,
1001
0000
0000
1001
0000
0000
0000
0000
0010
0000
0000
0100
0000
0000
0001
0000
,
0010
0000
0000
0110
0000
0000
0000
0000
1100
0000
0000
1100
0000
0000
0000
0000
,
1001
0000
0000
1001
0000
0000
0000
0000
0000
0000
0001
0100
0000
0010
1000
0000
,
1100
0000
0001
0000
0100
0000
1000
0000
0100
0000
0001
0100
0000
0010
0100
0000
,
0001
0000
0100
0000
1000
0000
0100
0000
0001
0000
1000
0010
0000
0100
0001
0000
,
1000
0000
0010
0000
0001
0000
0010
0000
1000
0000
0001
0100
0000
1000
0100
0000
,
0001
0000
1000
0000
0010
0000
0001
0000
1000
0000
0100
0001
0000
1000
0100
0000
,
0001
0000
1000
0000
0010
0000
0001
0000
1000
0000
0100
0001
0000
0100
1000
0000
,
0001
0000
0010
0000
1000
0000
0001
0000
0100
0000
1000
0001
0000
0010
0100
0000
,
1000
0000
0001
0000
0010
0000
1000
0000
0010
0000
0001
1000
0000
0100
0010
0000
,
0001
0000
1000
0000
0100
0000
0010
0000
0001
0000
1000
0000
1000
0100
0000
0100
,
2000
0010
0001
0010
,
3001
0000
0000
0000
0100
0000
0000
0000
0010
0000
0000
1000
0000
0000
0100
0000
,
0102
0000
0000
0000
0010
0000
1000
0000
1000
0000
0000
0100
0000
0000
0100
0000
,
1003
0000
0000
0000
0010
0000
0000
0000
0100
0000
0000
0001
0000
0000
0001
0000
,
0120
0000
0000
0000
0001
0000
0100
0000
0100
0000
0000
0001
0000
0000
0100
0000
,
0130
0000
0000
0000
1000
0000
0000
0000
0001
0000
0000
1000
0000
0000
0100
0000
,
0020
0000
0000
0000
0001
0000
0001
0000
0001
0000
0000
0100
0000
0000
0001
0000
,
0031
1000
0001
0101
,
0100
0001
1000
0000
0010
1000
0100
0000
,
2000
0000
3001
0000
0200
0000
0310
1000
,
0002
0010
0100
1003
,
0001
0000
0000
0001
1000
0000
0000
1000
0010
0000
0000
0010
0100
0000
0000
0100
,
0001
0000
0000
0000
1000
0000
0100
0000
0100
0000
0000
0010
0000
0000
0011
0000
,
0000
0000
0000
0000
1000
0000
0000
0000
0010
0000
0000
0100
0000
0000
0100
0000
,
0001
0000
0000
0000
1000
0000
0001
0000
0100
0000
0000
0010
0000
0000
1000
0000
,
0100
0000
0100
0010
0002
0000
1003
0001
,
0200
0000
0010
0000
0010
0000
0010
0000
0010
0000
0000
0001
0000
0000
0301
0000
,
0001
0000
0000
0100
0000
0000
0100
0000
0100
0000
0000
0000
0000
0000
0000
0000
,
0020
0000
1000
0000
1000
0000
1000
0000
1000
0000
0000
1030
0000
0000
0002
0000
,
0000
0000
0003
0000
,
2000
0000
0100
0000
0100
0000
0100
0000
0100
0000
0000
0100
0000
0000
3100
0000
,
0020
0000
0000
0000
0000
0000
0031
0000
1000
0000
0000
1000
0000
0000
0001
0000
,
0100
0000
0000
0000
0000
0000
0010
0000
1000
0000
0000
1000
0000
0000
0010
0000
,
0200
0000
0300
0000
;

//---------------dance-single - ----------------
#NOTEDATA:;
#CHARTNAME:[Ness];
#CHARTHASH:3076896;
#STEPSTYPE:dance-single;
#BANNER:;
#DESCRIPTION:[Ness];
#CHARTSTYLE:;
#DIFFICULTY:Beginner;
#METER:1;
#METERF:0.000000;
#LASTSECONDHINT:138.586304;
#RADARVALUES:0.113497,0.196529,0.006969,0.027877,0.000000,114.000000,113.000000,1.000000,4.000000,0.000000,0.000000,0.000000,0.000000,0.000000,0.113497,0.196529,0.006969,0.027877,0.000000,114.000000,113.000000,1.000000,4.000000,0.000000,0.000000,0.000000,0.000000,0.000000;
#CREDIT:[Ness];
#NOTES:
// measure 0
0000
0000
0000
0000
,  // measure 1
0000
0000
0000
0000
,  // measure 2
0000
0000
0000
0000
,  // measure 3
0000
0000
0000
0000
,  // measure 4
0000
0000
0000
0000
,  // measure 5
0000
0000
0000
0000
,  // measure 6
0000
0000
0000
0000
,  // measure 7
0000
0000
0000
0000
,  // measure 8
0010
0000
0000
0000
,  // measure 9
0100
0000
0000
0000
,  // measure 10
0001
0000
0000
0000
,  // measure 11
1000
0000
0000
0000
,  // measure 12
0100
0000
0100
0000
,  // measure 13
0010
0000
0010
0000
,  // measure 14
0100
0000
0100
0000
,  // measure 15
0001
0000
0000
0000
,  // measure 16
1000
0000
1000
0000
,  // measure 17
1000
0000
1000
0000
,  // measure 18
0001
0000
0001
0000
,  // measure 19
0001
0000
0001
0000
,  // measure 20
0100
0000
0010
0000
,  // measure 21
0100
0000
0010
0000
,  // measure 22
1000
0000
0000
0000
,  // measure 23
0001
0000
0000
0000
,  // measure 24
0010
0000
0010
0000
,  // measure 25
0010
0000
0100
0000
,  // measure 26
0001
0000
0001
0000
,  // measure 27
0001
0000
0100
0000
,  // measure 28
1000
0000
1000
0000
,  // measure 29
1000
0000
0010
0000
,  // measure 30
0100
0000
0100
0000
,  // measure 31
0001
0000
0001
0000
,  // measure 32
1000
0000
1000
0000
,  // measure 33
0001
0000
0001
0000
,  // measure 34
1000
0000
1000
0000
,  // measure 35
0010
0000
0010
0000
,  // measure 36
0100
0000
0100
0000
,  // measure 37
0001
0000
0001
0000
,  // measure 38
1000
0000
1000
0000
,  // measure 39
0100
0000
0010
0000
,  // measure 40
0001
0001
0001
0000
,  // measure 41
0001
0001
0001
0000
,  // measure 42
1000
1000
1000
0000
,  // measure 43
1000
1000
1000
0000
,  // measure 44
0010
0010
0010
0000
,  // measure 45
0010
0010
0010
0000
,  // measure 46
0100
0100
0100
0000
,  // measure 47
0100
0100
0100
0000
,  // measure 48
1001
0000
0010
0000
,  // measure 49
0001
0000
0000
0000
,  // measure 50
1000
0000
0010
0000
,  // measure 51
1000
0000
0000
0000
,  // measure 52
0001
0000
0100
0000
,  // measure 53
0001
0000
0000
0000
,  // measure 54
1000
0000
0100
0000
,  // measure 55
1000
0000
0000
0000
,  // measure 56
0010
0000
0010
0000
,  // measure 57
0100
0000
0100
0000
,  // measure 58
1000
0000
1000
0000
,  // measure 59
0001
0000
0010
0000
,  // measure 60
0100
0000
1000
0000
,  // measure 61
0001
0000
0010
0000
,  // measure 62
0100
0000
1000
0000
,  // measure 63
0001
0000
1000
0000
,  // measure 64
0002
0000
0003
0000
,  // measure 65
0000
0000
0000
0000
,  // measure 66
0020
0000
0030
0000
,  // measure 67
0000
0000
0000
0000
,  // measure 68
0200
0000
0300
0000
,  // measure 69
0000
0000
0000
0000
,  // measure 70
2000
0000
3000
0000
;
