#VERSION:0.83;
#TITLE:Take A Walk;
#SUBTITLE:;
#ARTIST:Passion Pit;
#TITLETRANSLIT:;
#SUBTITLETRANSLIT:;
#ARTISTTRANSLIT:;
#GENRE:Gossamer;
#ORIGIN:;
#CREDIT:;
#BANNER:Take A Walk-bn.png;
#BACKGROUND:Black.png;
#PREVIEWVID:Take A Walk-preview.avi;
#JACKET:Take A Walk-jacket.png;
#CDIMAGE:;
#DISCIMAGE:;
#LYRICSPATH:;
#CDTITLE:;
#MUSIC:Take A Walk.mp3;
#OFFSET:-0.035464;
#SAMPLESTART:66.104965;
#SAMPLELENGTH:19.455444;
#SELECTABLE:YES;
#BPMS:0.000=101.000;
#STOPS:;
#DELAYS:;
#WARPS:;
#TIMESIGNATURES:0.000=4=4;
#TICKCOUNTS:0.000=2;
#COMBOS:0.000=1;
#SPEEDS:0.000=1.000=0.000=0;
#SCROLLS:0.000=1.000;
#FAKES:;
#LABELS:0.000=Song Start;
#LASTSECONDHINT:107.006538;
#BGCHANGES:0.000=Take A Walk-video.avi=1.000=0=0=1=====,
99999=-nosongbg-=1.000=0=0=0 // don't automatically add -songbackground-
;
#KEYSOUNDS:;
#ATTACKS:
;

//---------------dance-single - ----------------
#NOTEDATA:;
#CHARTNAME:;
#STEPSTYPE:dance-single;
#DESCRIPTION:;
#CHARTSTYLE:;
#DIFFICULTY:Hard;
#METER:7;
#RADARVALUES:0.384860,0.472572,0.447511,0.134253,0.049226,301.000000,251.000000,50.000000,15.000000,0.000000,0.000000,0.000000,0.000000,0.000000,0.384860,0.472572,0.447511,0.134253,0.049226,301.000000,251.000000,50.000000,15.000000,0.000000,0.000000,0.000000,0.000000,0.000000;
#CREDIT:;
#NOTES:
// measure 0
0000
0000
0000
0000
,  // measure 1
0000
0000
0000
0000
,  // measure 2
0000
0000
0000
0000
,  // measure 3
0000
0000
0000
0000
,  // measure 4
0010
0000
1000
0000
0100
0000
1000
0000
0001
0000
0000
0100
0000
0000
0010
0000
,  // measure 5
0100
0000
0001
0000
1000
0000
0001
0000
0010
0000
0000
0100
0000
0000
1000
0000
,  // measure 6
0010
0000
1000
0000
0001
0000
1000
0000
0100
0000
1000
0100
0000
0000
1000
0000
,  // measure 7
0010
0000
0100
0000
0001
0000
0100
0000
0010
0000
0100
0001
0000
0000
0000
0000
,  // measure 8
2010
0000
0001
0000
0100
0000
3010
0001
,  // measure 9
0200
0010
0001
0310
,  // measure 10
1000
0001
0010
0000
0100
0100
1000
0001
,  // measure 11
1000
0000
0000
0010
0000
0000
0100
0000
0001
0000
1000
0000
0100
0000
0000
0000
,  // measure 12
0020
0000
0001
0000
0100
0000
0031
1000
,  // measure 13
0002
0000
0100
0000
0010
0000
1003
0010
,  // measure 14
0200
0000
0301
0000
1000
0010
0100
0001
,  // measure 15
1000
0000
0000
0100
0000
0000
0010
0000
0001
0000
0010
0000
0100
0000
0000
0000
,  // measure 16
2010
3001
1002
0013
,  // measure 17
0001
0100
0010
0100
0001
0100
1000
0100
,  // measure 18
0001
0101
2010
3100
,  // measure 19
0010
0000
0001
0000
1000
0000
0001
0000
0100
0000
0001
1000
0000
0001
1000
0000
,  // measure 20
0100
1000
0100
1000
0001
1000
0100
0100
,  // measure 21
1000
0001
1000
0001
0100
0001
1000
0010
,  // measure 22
0100
0001
0100
0001
1000
0010
0100
0001
,  // measure 23
1000
0000
0001
0000
0100
0010
1001
0000
,  // measure 24
0020
0100
0100
0130
,  // measure 25
0002
1000
1000
1003
,  // measure 26
0200
0010
0010
0010
0010
0010
0010
0310
,  // measure 27
0002
1000
1000
1000
1000
1000
1000
1003
,  // measure 28
1001
0000
0110
0010
0110
0000
0110
0010
,  // measure 29
0110
0000
0110
0010
0110
0000
1001
0000
,  // measure 30
1100
0000
0110
0010
0110
0000
1001
0010
,  // measure 31
0200
0000
0000
0000
0001
0000
0000
0000
1000
0000
0000
0000
0310
0000
0100
0010
,  // measure 32
0100
0000
1001
0100
1001
0000
1001
0100
,  // measure 33
1001
0000
1001
0100
1001
0000
0110
0000
,  // measure 34
1010
0000
1001
0100
1001
0000
1001
0010
,  // measure 35
0002
0000
0000
0000
0100
0000
0000
0000
0010
0000
0000
0000
1003
0000
0001
1000
,  // measure 36
0001
0001
0101
0001
0101
0001
0101
0001
,  // measure 37
0101
0001
0101
0001
0101
0001
1000
0001
,  // measure 38
0100
0001
0101
0001
0101
0001
0101
0010
,  // measure 39
2000
0000
0000
0000
0100
0000
0000
0000
0010
0000
0000
0000
3001
0000
1000
0001
,  // measure 40
1000
0000
1100
0010
0101
0000
1100
0010
,  // measure 41
0101
0000
1100
0010
0101
0000
1000
0001
,  // measure 42
0100
0000
0101
0010
1100
0000
0101
0010
,  // measure 43
1100
0000
0101
0010
1100
0000
0001
0000
,  // measure 44
0010
0000
0000
0000
;

//---------------dance-single - ----------------
#NOTEDATA:;
#CHARTNAME:;
#STEPSTYPE:dance-single;
#DESCRIPTION:;
#CHARTSTYLE:;
#DIFFICULTY:Medium;
#METER:5;
#RADARVALUES:0.242935,0.275667,0.080552,0.161104,0.000000,190.000000,181.000000,9.000000,18.000000,0.000000,0.000000,0.000000,0.000000,0.000000,0.242935,0.275667,0.080552,0.161104,0.000000,190.000000,181.000000,9.000000,18.000000,0.000000,0.000000,0.000000,0.000000,0.000000;
#CREDIT:;
#NOTES:
0000
0000
0000
0000
,
0000
0000
0000
0000
,
0000
0000
0000
0000
,
0000
0000
0000
0000
,
0010
1000
0010
0000
1000
0000
1001
0000
,
0010
0001
1000
0000
0010
0000
1001
0000
,
0100
0001
1000
0000
0100
0000
1001
0000
,
0010
1000
0100
0000
0010
0000
0110
0000
,
0002
1000
0100
1003
,
0020
0000
0100
0000
0100
0100
0130
0000
,
2000
0100
0001
3010
,
0002
0000
2000
3003
,
0002
0100
0010
1003
,
2000
0010
0100
3001
,
0002
0000
0010
0000
1000
1000
1003
0000
,
2000
0000
0002
3003
,
1000
0010
1000
0000
1000
0100
1000
0000
,
0001
0000
0010
0000
0001
0100
0001
0000
,
0010
0001
1000
0001
,
0100
0000
0010
0000
1000
0000
0100
0100
,
0100
0010
0001
1000
,
0010
0000
0100
0000
0001
0001
0001
0000
,
1000
0001
0010
0100
,
1000
0000
0001
0000
0100
0100
0100
0000
,
0002
0000
2003
0000
,
3010
0100
0010
0100
,
0002
0000
2003
0000
,
3100
0010
0001
1000
,
1001
0000
0010
0001
1000
0000
0010
0001
,
1000
0000
0010
0001
1000
0000
0000
0000
,
0000
0000
1000
0010
0100
0000
1000
0010
,
0002
1000
0100
0013
,
0011
0000
1000
0001
0100
0000
1000
0001
,
0100
0000
1000
0001
0100
0000
0000
0000
,
0000
0000
0001
1000
0010
0000
0001
0010
,
2000
0001
0100
3010
,
1010
0000
0001
1000
0010
0000
0001
1000
,
0010
0000
0001
1000
0010
0000
0100
0000
,
0100
0000
0001
1000
0010
0000
1000
0100
,
0002
1000
0010
0103
,
0101
0000
1000
0100
0010
0000
1000
0100
,
0010
0000
1000
0100
0010
0000
0010
0000
,
0010
0000
0001
0010
0100
0000
0001
0010
,
2000
0001
0010
3100
,
1100
0000
0000
0000
;

//---------------dance-single - ----------------
#NOTEDATA:;
#CHARTNAME:;
#STEPSTYPE:dance-single;
#DESCRIPTION:;
#CHARTSTYLE:;
#DIFFICULTY:Easy;
#METER:3;
#RADARVALUES:0.182840,0.195786,0.035801,0.017900,0.000000,143.000000,139.000000,4.000000,2.000000,0.000000,0.000000,0.000000,0.000000,0.000000,0.182840,0.195786,0.035801,0.017900,0.000000,143.000000,139.000000,4.000000,2.000000,0.000000,0.000000,0.000000,0.000000,0.000000;
#CREDIT:;
#NOTES:
0000
0000
0000
0000
,
0000
0000
0000
0000
,
0000
0000
0000
0000
,
0000
0000
0000
0000
,
1000
1000
1000
0100
,
0001
0001
0001
0100
,
1000
1000
1000
0100
,
0001
0001
0001
0100
,
1000
0001
1000
0001
,
0010
0001
1000
0001
,
1000
0010
1000
0010
,
0200
0000
0000
0300
,
0010
0100
0010
0100
,
0001
0100
0010
0100
,
0010
1000
0010
1000
,
0002
0000
0000
0003
,
0010
0010
0001
0001
,
1000
1000
0010
0010
,
0100
0010
0100
0010
,
0100
0100
0100
0000
,
0001
0001
0001
0100
,
1000
1000
1000
0100
,
0001
0001
0001
1000
,
0001
0000
0010
0000
,
0100
0000
1000
0000
,
0001
0000
1000
0000
,
0010
0000
0100
0000
,
0001
0000
1000
0000
,
1001
0010
0010
1000
,
1000
0010
0010
0000
,
0000
0001
0001
0010
,
0010
0001
0001
0010
,
0011
0100
0100
1000
,
1000
0100
0100
0000
,
0000
1000
1000
0010
,
0010
1000
1000
0010
,
1010
0100
0100
0001
,
0001
0100
0100
0100
,
0100
0001
0001
0100
,
0100
0001
0100
0001
,
0101
1000
0001
1000
,
0001
1000
0100
1000
,
0100
1000
0001
1000
,
0100
1000
0001
0100
;

//---------------dance-single - ----------------
#NOTEDATA:;
#CHARTNAME:;
#STEPSTYPE:dance-single;
#DESCRIPTION:;
#CHARTSTYLE:;
#DIFFICULTY:Beginner;
#METER:1;
#RADARVALUES:0.104846,0.156629,0.035801,0.000000,0.000000,82.000000,78.000000,4.000000,0.000000,0.000000,0.000000,0.000000,0.000000,0.000000,0.104846,0.156629,0.035801,0.000000,0.000000,82.000000,78.000000,4.000000,0.000000,0.000000,0.000000,0.000000,0.000000,0.000000;
#CREDIT:;
#NOTES:
0000
0000
0000
0000
,
0000
0000
0000
0000
,
0000
0000
0000
0000
,
0000
0000
0000
0000
,
0010
0000
0010
0000
,
1000
0000
1000
0000
,
0001
0000
0001
0000
,
0010
0000
0010
0000
,
0100
0000
1000
0000
,
0100
0000
1000
0000
,
0001
0000
0100
0000
,
0001
0000
0000
0000
,
0010
0000
0100
0000
,
0010
0000
0100
0000
,
1000
0000
0001
0000
,
1000
0000
0001
0000
,
0100
0000
0010
0000
,
0100
0000
0010
0000
,
1000
0000
0100
0000
,
0010
0000
0001
0000
,
1000
0000
0001
0000
,
1000
0000
0100
0000
,
0001
0000
0100
0000
,
1000
0000
0001
0000
,
0100
0000
0000
0000
,
0010
0000
0000
0000
,
1000
0000
0000
0000
,
0001
0000
0000
0000
,
1001
0000
0010
0000
,
0010
0000
0010
0000
,
1000
0000
1000
0000
,
1000
0000
0000
0000
,
0110
0000
0100
0100
,
0100
0000
0010
0000
,
1000
0000
0001
0001
,
0001
0000
0010
0000
,
1001
1001
0000
0100
,
0000
0001
0000
0100
,
0000
1000
0000
0010
,
0000
0100
0000
0010
,
0010
0010
0000
0010
,
0000
1000
0000
0001
,
0000
0010
0000
0001
,
0000
1000
0000
0100
;
