#TITLE:Tacones Rojos;
#SUBTITLE:;
#ARTIST:Sebastian Yatra;
#TITLETRANSLIT:;
#SUBTITLETRANSLIT:;
#ARTISTTRANSLIT:;
#GENRE:Dharma;
#CREDIT:;
#BANNER:Tacones Rojos-bn.png;
#BACKGROUND:Black.png;
#LYRICSPATH:;
#CDTITLE:;
#MUSIC:Tacones Rojos.mp3;
#OFFSET:-0.015000;
#SAMPLESTART:21.958157;
#SAMPLELENGTH:17.317074;
#LASTBEATHINT:231.515259;
#SELECTABLE:YES;
#BPMS:0.000000=123.000000
;
#STOPS:
;
#BGCHANGES:0.000=Tacones Rojos-video.avi=1.000=0=0=0=StretchNoLoop====,
99999=-nosongbg-=1.000=0=0=0 // don't automatically add -songbackground-
;
#KEYSOUNDS:;
#ATTACKS:;

//---------------dance-single - ----------------
#NOTES:
     dance-single:
     :
     Hard:
     8:
     0.463512,0.562554,0.071153,0.369996,0.032019,456.000000,446.000000,10.000000,52.000000,0.000000,0.000000,0.463512,0.562554,0.071153,0.369996,0.032019,456.000000,446.000000,10.000000,52.000000,0.000000,0.000000:
0000
0000
0000
0000
,
0000
0000
0000
0000
,
0000
0000
0000
0000
,
0000
0000
1000
0001
0100
1000
0100
0002
,
0000
0000
1003
0001
0010
1000
0010
0200
,
0000
1300
0010
1000
0100
1000
0001
0020
,
0000
0031
1000
0002
0000
0103
0001
1000
,
0000
0000
0100
1000
0010
0100
0010
1000
,
0100
0010
0100
0000
0000
2000
0000
3002
,
0000
0000
0103
0001
0010
0001
0100
1000
,
0100
0000
0020
0000
0000
0000
0130
0001
0100
0000
0010
0000
1000
0000
0002
0000
,
0000
0000
1003
0100
0010
0010
0100
2000
,
0000
3000
1100
1000
0010
1000
0001
0200
,
0000
0310
0000
1000
0100
0100
0010
0001
,
0200
0000
0300
0001
1000
0010
0100
0001
,
1000
1000
0100
1000
0001
1000
0100
2000
,
0000
0000
3001
1000
0100
1000
0001
0020
,
0000
0130
1000
0010
0100
0001
0010
0100
,
1000
0000
0010
1000
0001
0010
1000
0020
,
0000
0031
1000
0001
0100
0010
1000
0200
,
0000
0310
0100
1000
0001
1000
0010
0200
,
0000
0300
0001
1000
0100
1000
0010
0200
,
0000
0301
0010
0100
1000
0001
0100
0020
,
0000
0030
1000
0100
1000
0010
0100
0010
,
0000
1000
0001
1000
0000
1000
0100
0001
,
0100
0010
0001
0010
1000
0010
0100
1000
,
0001
0010
0100
1000
0010
0100
0010
1000
,
0000
0002
0000
0100
0000
1000
1003
0001
,
0101
0000
1000
0001
0100
0000
0010
0001
,
0100
0000
1000
0001
0100
0010
0100
0010
,
1000
0001
1100
0000
1000
0001
1100
0000
,
1000
0001
1000
0001
1000
0001
1100
0000
,
0010
0000
0001
1000
0010
0000
0001
1000
,
0100
0000
0001
1000
0010
0010
0001
1000
,
0001
0001
0010
0100
1000
1000
0010
0100
,
0001
0000
0000
0000
1000
0000
0000
0000
0100
0000
1000
0001
1000
0000
0001
1000
,
0001
0000
0100
0001
0100
0000
0010
0000
1000
0000
1000
0000
0001
1000
0001
0000
,
0010
0000
0100
1000
0100
0000
0010
0000
0001
0000
0001
0000
0100
0000
0000
0000
,
0001
0000
1000
0000
0001
0100
0001
0000
1000
0000
0100
0000
0000
0000
1100
0000
,
0000
0000
0010
0100
0010
0000
1000
0001
1000
0000
0010
0000
0100
0000
0002
0000
,
0000
1003
0100
0010
0100
1000
0001
0020
,
0000
0031
0100
0010
0100
0001
1000
0002
,
0000
1003
0010
0100
0010
1000
0100
2000
,
0000
3100
0010
0001
0010
1000
0010
0002
,
0000
2000
0003
0200
,
3000
0020
0300
0200
,
0030
2300
3002
0203
,
0320
0032
2003
3200
,
0302
0000
1003
0001
1000
0001
0100
0010
,
0000
1000
0001
1000
0100
0010
0001
1000
,
0101
0000
0001
1000
0100
0010
0100
1000
,
0001
0001
0010
0001
1000
0010
0100
0001
,
1000
0000
0010
0100
0001
1000
0100
0020
,
0000
0031
1000
0001
0100
0010
0100
0001
,
1100
0000
0001
1000
0010
0010
0100
0002
,
0000
1003
0010
0100
0001
0010
0100
2000
,
0000
3001
0010
0100
0010
0001
1000
0200
,
0000
0000
1300
0001
0100
0100
0010
2000
,
0000
3001
0010
0100
0010
0001
1000
0200
,
0000
0000
0310
0001
0100
1000
0100
0002
,
0000
1003
0001
0200
0000
0310
1000
0100
,
0010
0001
1000
0001
0100
0010
0100
0001
,
1000
0100
1000
0010
0100
0001
0010
0100
,
0000
0010
0000
2100
0000
0001
3001
0000
,
1001
0000
0200
1000
0300
0000
0020
0001
,
0030
0000
0010
1000
0010
0100
0100
1000
,
0001
1000
0000
1000
0010
0001
0010
2000
,
0000
0000
3001
0000
0100
0001
1000
0100
,
0010
0000
0002
0100
0003
0000
0020
1000
,
0030
0000
0200
0001
0301
0000
2000
0010
,
3010
0100
0001
0000
0010
0100
0001
0001
,
1000
0100
1000
0000
0000
1000
0010
0001
;

//---------------dance-single - ----------------
#NOTES:
     dance-single:
     :
     Medium:
     6:
     0.320189,0.357366,0.049807,0.256151,0.000000,315.000000,308.000000,7.000000,36.000000,0.000000,0.000000,0.320189,0.357366,0.049807,0.256151,0.000000,315.000000,308.000000,7.000000,36.000000,0.000000,0.000000:
0000
0000
0000
0000
,
0000
0000
0000
0000
,
0000
0000
0000
0000
,
0000
0000
1000
0000
1000
0000
0100
0002
,
0000
0003
0100
0000
0100
0000
0001
0020
,
0000
0030
0001
1000
0001
0000
1000
0000
,
0010
0010
0100
0100
,
0002
0003
1000
0001
,
1000
0100
2000
0000
3000
0000
0001
0000
,
0010
0100
0100
0010
,
0001
2000
0000
3000
1000
0001
1000
0000
,
0010
0100
0100
0010
,
0120
0000
1030
0000
0100
0000
1000
0100
,
0001
0000
0100
0000
0010
0001
0010
0000
,
2002
0000
3003
0000
0001
0100
1000
0100
,
0001
0000
0001
0000
0001
0100
1000
0100
,
0002
0000
0003
0000
1000
0010
0001
0010
,
1000
0000
1000
0000
0001
1000
0100
1000
,
0002
0000
0003
0000
1000
0010
0001
0000
,
0001
0010
1000
0000
0001
0000
1000
0010
,
0000
0010
0100
0000
0001
0000
1000
0200
,
0000
0300
1100
0000
0100
0000
0010
0001
,
0000
1000
0010
0000
1000
0000
0001
0020
,
0000
0030
0100
0000
0001
0000
0100
1000
,
0000
0001
0000
0100
0000
0010
0000
1000
,
0000
0100
0000
0001
0000
0100
0000
1000
,
0000
0001
0000
1000
0000
0001
0010
0100
,
0000
0010
0000
0002
0000
1003
0000
0000
,
1001
0000
1000
0200
0000
0300
0010
0200
,
0000
0300
1000
0001
1000
0000
0010
0000
,
1000
0001
0000
0000
0001
0100
0000
0000
,
0100
0010
0000
0000
0010
1000
0000
0000
,
1000
0000
0001
0020
0000
0030
0100
2000
,
0000
3000
0001
1000
0001
0000
0100
0000
,
0010
1000
0000
0000
1000
0100
0000
0000
,
0100
0010
0000
0000
0010
0001
0000
0000
,
1000
0000
1000
0000
0001
0001
0010
0000
,
0001
0000
0100
0000
0010
0010
0100
0000
,
0001
0001
1000
0000
0100
0100
0000
0120
,
0000
0000
0001
0031
,
1000
0100
1000
0000
0001
0100
0010
0000
,
1000
0100
0001
0000
0001
0100
1000
0000
,
0001
0100
0001
0100
0010
0000
1000
0000
,
0001
0010
1000
0010
0001
0000
1000
0000
,
0020
0000
0230
0000
,
0302
0000
2003
0000
,
3200
1000
0310
0000
,
0002
0100
1003
0000
,
0102
0000
0103
0000
0010
0000
0100
2000
,
0000
3000
0100
0000
0010
0000
1000
0100
,
2000
3000
0001
1000
,
0010
0001
0010
0000
1000
0000
0001
0200
,
0000
0300
0010
0000
0100
0000
0010
2000
,
0000
3000
0100
0000
0010
0001
1000
0001
,
0200
0300
0010
0100
,
0001
0000
1000
0001
0100
0000
0010
0010
,
0010
0000
1000
0100
0001
0000
0100
0100
,
0100
0000
1000
0100
0001
0100
1000
0000
,
0010
0010
0010
0000
0100
0100
0100
0000
,
0001
0000
0100
0010
1000
0000
0001
0010
,
0000
0100
0000
0010
0000
0001
0000
1000
,
0000
0010
0000
0100
0000
0010
0000
1000
,
0000
0001
0000
1000
0000
0100
0010
0100
,
0000
1000
0000
0002
0000
0103
0000
0000
,
0110
0000
1000
0200
0000
0300
0010
0002
,
0000
0003
1000
0010
1000
0000
0001
0000
,
0100
0010
0000
0000
0010
1000
0000
0000
,
1000
0001
0000
0000
0001
0010
0000
0000
,
0010
0000
0001
2000
0000
3000
0010
0200
,
0000
0300
1000
0100
1000
0000
0100
0000
,
0001
0100
0000
0000
0100
1000
0000
0000
,
1000
0001
0000
0000
0002
0000
0103
0000
;

//---------------dance-single - ----------------
#NOTES:
     dance-single:
     :
     Easy:
     4:
     0.208377,0.255262,0.035577,0.419803,0.000000,205.000000,200.000000,5.000000,59.000000,0.000000,0.000000,0.208377,0.255262,0.035577,0.419803,0.000000,205.000000,200.000000,5.000000,59.000000,0.000000,0.000000:
// measure 0
0000
0000
0000
0000
,  // measure 1
0000
0000
0000
0000
,  // measure 2
0000
0000
0000
0000
,  // measure 3
0000
0000
0000
0000
,  // measure 4
0000
0002
0003
0020
,  // measure 5
0030
0200
0300
2000
,  // measure 6
3000
0020
0030
0200
,  // measure 7
0300
0002
0003
2000
,  // measure 8
3000
0020
0030
0002
,  // measure 9
0003
0200
0300
2000
,  // measure 10
3000
0002
0003
2000
,  // measure 11
3000
0100
0010
0100
,  // measure 12
1001
0100
0002
0003
,  // measure 13
2000
3000
0001
0010
,  // measure 14
0200
0300
1000
0100
,  // measure 15
0001
0100
1000
1000
,  // measure 16
0002
0003
1000
0010
,  // measure 17
2000
3000
0100
0010
,  // measure 18
0002
0003
1000
0001
,  // measure 19
0100
0010
1000
0100
,  // measure 20
0002
0003
1000
0001
,  // measure 21
0200
0300
0001
1000
,  // measure 22
0010
0010
0001
0010
,  // measure 23
2000
3000
0001
1000
,  // measure 24
0100
0001
0100
1000
,  // measure 25
0001
0100
1000
0100
,  // measure 26
0001
1000
0010
0001
,  // measure 27
0100
1000
0001
1000
,  // measure 28
2002
0000
3003
0020
,  // measure 29
0000
2030
0000
3002
,  // measure 30
0010
0013
0000
2000
,  // measure 31
0100
3100
0000
0010
,  // measure 32
2002
0000
3003
0020
,  // measure 33
0000
2030
0000
3002
,  // measure 34
0100
0103
0000
2000
,  // measure 35
0010
3010
0000
0100
,  // measure 36
0001
0001
1000
1000
,  // measure 37
0100
0001
0100
0100
,  // measure 38
1000
1000
0001
0000
,  // measure 39
1001
0000
0000
0000
,  // measure 40
0010
0001
0010
0010
,  // measure 41
1000
0010
1000
1000
,  // measure 42
0100
0100
0010
0010
,  // measure 43
0001
0001
1000
0001
,  // measure 44
2000
0000
0000
0000
,  // measure 45
3020
0000
0000
0000
,  // measure 46
0230
0000
0000
0000
,  // measure 47
0302
0000
0000
0003
,  // measure 48
2002
3003
0001
0100
,  // measure 49
0001
0001
1000
0010
,  // measure 50
0200
0300
0010
1000
,  // measure 51
0001
0010
0001
1000
,  // measure 52
0200
0300
0010
0100
,  // measure 53
2000
3000
0001
1000
,  // measure 54
0200
0300
0010
0100
,  // measure 55
0010
0010
0001
1000
,  // measure 56
0002
0000
0103
0010
,  // measure 57
2000
0000
3100
0010
,  // measure 58
0100
0100
0010
0001
,  // measure 59
2000
0000
3001
1000
,  // measure 60
0010
0001
0010
1000
,  // measure 61
0001
0100
1000
0100
,  // measure 62
0001
0100
1000
0100
,  // measure 63
0001
1000
0200
0300
,  // measure 64
0002
0000
0003
2000
,  // measure 65
3000
0020
0030
0100
,  // measure 66
0100
0002
0003
1000
,  // measure 67
0001
2000
3000
0001
,  // measure 68
0010
0200
0300
0020
,  // measure 69
0030
0001
1000
0100
,  // measure 70
0100
0020
0030
0200
,  // measure 71
0300
2000
3000
0001
;

//---------------dance-single - ----------------
#NOTES:
     dance-single:
     :
     Beginner:
     1:
     0.115878,0.151556,0.007115,0.000000,0.000000,114.000000,113.000000,1.000000,0.000000,0.000000,0.000000,0.115878,0.151556,0.007115,0.000000,0.000000,114.000000,113.000000,1.000000,0.000000,0.000000,0.000000:
// measure 0
0000
0000
0000
0000
,  // measure 1
0000
0000
0000
0000
,  // measure 2
0000
0000
0000
0000
,  // measure 3
0000
0000
0000
0000
,  // measure 4
0000
0001
0000
0001
,  // measure 5
0000
0001
0000
0001
,  // measure 6
0000
1000
0000
1000
,  // measure 7
0000
1000
0000
1000
,  // measure 8
0000
0001
0000
1000
,  // measure 9
0000
0001
0000
1000
,  // measure 10
0000
0001
0000
1000
,  // measure 11
0000
0000
0000
0000
,  // measure 12
1001
0000
0010
0000
,  // measure 13
0001
0000
0010
0000
,  // measure 14
0100
0000
1000
0000
,  // measure 15
0100
0000
0100
0000
,  // measure 16
0010
0000
0010
0000
,  // measure 17
0001
0000
0001
0000
,  // measure 18
1000
0000
1000
0000
,  // measure 19
0010
0000
0100
0000
,  // measure 20
0001
0000
0010
0000
,  // measure 21
0100
0000
1000
0000
,  // measure 22
1000
0000
0001
0000
,  // measure 23
1000
0000
0100
0000
,  // measure 24
0010
0000
0010
0000
,  // measure 25
0001
0000
0001
0000
,  // measure 26
1000
0000
1000
0000
,  // measure 27
0100
0000
0010
0000
,  // measure 28
0100
0000
0000
0000
,  // measure 29
0000
1000
0000
1000
,  // measure 30
0000
0001
0000
0001
,  // measure 31
0000
1000
0000
1000
,  // measure 32
0000
0000
0000
0010
,  // measure 33
0000
0001
0000
0100
,  // measure 34
0000
1000
0000
0100
,  // measure 35
0000
0010
0000
0000
,  // measure 36
0001
0000
0000
0000
,  // measure 37
1000
0000
0000
0000
,  // measure 38
0010
0000
0000
0000
,  // measure 39
0100
0000
0000
0000
,  // measure 40
0001
0000
0001
0000
,  // measure 41
1000
0000
1000
0000
,  // measure 42
0100
0000
0100
0000
,  // measure 43
0010
0000
0001
0000
,  // measure 44
1000
0000
0000
0000
,  // measure 45
1000
0000
0000
0000
,  // measure 46
0001
0000
0000
0000
,  // measure 47
0010
0000
0000
0000
,  // measure 48
0001
0000
0001
0000
,  // measure 49
0100
0000
0010
0000
,  // measure 50
1000
0000
0100
0000
,  // measure 51
0010
0000
0001
0000
,  // measure 52
1000
0000
0000
0000
,  // measure 53
0001
0000
0000
0000
,  // measure 54
0100
0000
0010
0000
,  // measure 55
0100
0000
0010
0000
,  // measure 56
1000
0000
0100
0000
,  // measure 57
0010
0000
0001
0000
,  // measure 58
1000
0000
0001
0000
,  // measure 59
1000
0000
0001
0000
,  // measure 60
0100
0000
0010
0000
,  // measure 61
1000
0000
0100
0000
,  // measure 62
0010
0000
0001
0000
,  // measure 63
0100
0000
0010
0000
,  // measure 64
1000
0000
0000
0000
,  // measure 65
0001
0000
0000
0000
,  // measure 66
0100
0000
0000
0000
,  // measure 67
0100
0000
0000
0000
,  // measure 68
0010
0000
0000
0000
,  // measure 69
1000
0000
0000
0000
,  // measure 70
0001
0000
0000
0000
,  // measure 71
0010
0000
0000
0000
;
