#VERSION:0.83;
#TITLE:TREN TINH BAN DUOI TINH YEU;
#SUBTITLE:;
#ARTIST:MIN;
#TITLETRANSLIT:TREN TINH BAN DUOI TINH YEU;
#SUBTITLETRANSLIT:;
#ARTISTTRANSLIT:;
#GENRE:50/50;
#ORIGIN:;
#CREDIT:;
#BANNER:TREN TINH BAN DUOI TINH YEU-bn.png;
#BACKGROUND:Black.png;
#PREVIEWVID:TREN TINH BAN DUOI TINH YEU-preview.avi;
#JACKET:TREN TINH BAN DUOI TINH YEU-jacket.png;
#CDIMAGE:;
#DISCIMAGE:TREN TINH BAN DUOI TINH YEU-bg.png;
#LYRICSPATH:;
#CDTITLE:;
#MUSIC:TREN TINH BAN DUOI TINH YEU.mp3;
#OFFSET:-0.006000;
#SAMPLESTART:42.913715;
#SAMPLELENGTH:19.266052;
#SELECTABLE:YES;
#BPMS:0.000=109.000;
#STOPS:;
#DELAYS:;
#WARPS:;
#TIMESIGNATURES:0.000=4=4;
#TICKCOUNTS:0.000=2;
#COMBOS:0.000=1;
#SPEEDS:0.000=1.000=0.000=0;
#SCROLLS:0.000=1.000;
#FAKES:;
#LABELS:0.000=Song Start;
#LASTSECONDHINT:126.643433;
#BGCHANGES:0.000=TREN TINH BAN DUOI TINH YEU-video.avi=1.000=1=0=1===CrossFade==,
99999=-nosongbg-=1.000=0=0=0 // don't automatically add -songbackground-
;
#KEYSOUNDS:;
#ATTACKS:
;

//---------------dance-single - ----------------
#NOTEDATA:;
#CHARTNAME:;
#STEPSTYPE:dance-single;
#DESCRIPTION:;
#CHARTSTYLE:;
#DIFFICULTY:Hard;
#METER:7;
#RADARVALUES:0.349548,0.360150,0.232696,0.162182,0.179811,347.000000,314.000000,33.000000,23.000000,0.000000,0.000000,0.000000,0.000000,0.000000,0.349548,0.360150,0.232696,0.162182,0.179811,347.000000,314.000000,33.000000,23.000000,0.000000,0.000000,0.000000,0.000000,0.000000;
#CREDIT:;
#NOTES:
0000
0000
0000
0000
,
0000
0000
0000
0000
,
0000
0000
0000
0000
,
0000
0000
0000
0000
0000
0000
0000
0000
2000
0000
0000
0010
0000
0000
0100
0000
,
3001
0000
0101
0000
0001
0000
0010
0100
,
1000
0000
1010
0000
0100
0001
1000
0000
,
0100
0000
0010
0000
0001
0000
1000
0010
,
0100
0000
0000
0000
0000
0000
0000
0000
0002
0000
0000
0010
0000
0000
0100
0000
,
1003
0000
1001
0000
1000
0000
0010
1000
,
0001
0000
1100
0000
0100
0000
0010
0001
,
0100
0000
0010
0000
1000
0000
0001
1000
,
0100
0000
0000
0000
0010
0001
0100
0010
,
1000
0001
2000
0000
0000
3100
0010
0001
,
1000
0001
0200
0000
0000
0310
0100
0001
,
1000
0100
0020
0000
0000
0031
1000
0001
,
0010
0100
2000
0000
0000
3001
0010
0100
,
1000
0100
2002
0000
3003
1000
0010
0100
,
0001
0100
2002
0000
3003
0001
0100
0010
,
1000
0000
0000
1100
0000
0000
0010
0000
0011
0000
0000
0100
0000
0000
1001
0000
,
0000
0000
0000
0000
0000
0000
0000
0000
0001
1000
0000
0010
0100
0000
0100
0000
,
0202
0000
0000
0000
0303
1000
0010
0001
,
0020
0000
0000
0000
0000
0000
0000
0000
0030
0000
1000
0100
1000
0000
0001
0000
,
0200
0000
0000
0000
0000
0000
0000
0000
0300
0000
0010
1000
0001
0000
0010
0000
,
0200
0000
0000
0000
0000
0000
0000
0000
1300
0010
0000
0100
0001
0000
0001
0000
,
1001
0000
0010
0000
0010
0100
0001
1000
,
0100
0000
0000
0000
0010
0000
0000
0000
0010
0000
0001
0100
0001
0000
1000
0000
,
0010
0000
0000
0000
0010
0000
0000
0000
0010
0000
0100
0001
0010
0000
0100
0000
,
1000
0000
0000
0000
0001
1000
0001
0000
0010
0000
0000
0100
0000
0000
1000
0000
,
1100
0000
0000
0000
1000
0001
1000
0000
0010
0000
0000
0100
0000
0000
0001
0000
,
0101
0000
0000
0000
0001
1000
0001
0000
0010
0000
0000
0100
0000
0000
1000
0000
,
1100
0000
0001
1001
0000
0100
0101
0000
,
1000
1001
0000
0100
0010
0100
0010
2000
,
0100
0000
0001
0000
0010
0000
3001
1000
,
0002
0000
0000
0010
0000
0010
0000
1000
0000
0000
0000
0000
0003
0000
0200
0000
,
0010
0000
0000
0001
0000
0001
0000
0001
0000
0000
0000
0000
0300
0000
1000
0000
,
0010
0000
0000
0100
0000
0001
0000
1000
0000
0000
0000
0000
0000
0000
0100
0000
,
0010
0000
0011
0000
0010
0000
0011
0001
,
1000
0000
0000
0010
0000
0100
0000
0001
0000
0000
0000
0000
0000
0000
1000
0000
,
0100
0000
1100
0000
0100
1000
0001
0100
,
0001
0000
0000
1000
0000
0000
0010
0000
1000
0001
0000
0010
0100
0000
0100
0000
,
2100
0000
0010
0000
3100
0001
0010
1000
,
0020
0000
0000
0000
1000
0000
0000
0000
0130
0000
0001
0100
0001
0000
1000
0000
,
0200
0000
0000
0000
0010
0000
0000
0000
1300
0000
0010
0001
1000
0000
0010
0000
,
0200
0000
0000
0000
0001
0000
0000
0000
0310
0100
0000
0010
0100
0000
0100
0000
,
1001
0000
0010
0000
0010
1000
0001
0010
,
0100
0000
0000
0000
1000
0000
0000
0000
1000
0000
0001
0100
0010
0000
1000
0000
,
0100
0000
0000
0000
0010
0000
0000
0000
0001
0000
1000
0010
0100
0000
0001
0000
,
1000
0000
0000
0000
0100
1000
0100
0000
0010
0000
0000
0001
0000
0000
0100
0000
,
0101
0000
0000
0000
0001
1000
0001
0000
0010
0000
0000
0100
0000
0000
1000
0000
,
1100
0000
0000
0000
1000
0001
1000
0000
0010
0000
0000
0100
0000
0000
0001
0000
,
0101
0000
1000
1001
0000
0100
1100
0000
,
0001
0000
1000
0000
0010
0100
0010
0000
1000
0000
0000
0100
0000
0000
0010
0000
,
0011
0000
0000
0000
0001
0100
0001
0000
1000
0000
0000
0010
0000
0000
0100
0000
,
0110
0000
0000
0000
0010
1000
0010
0000
1000
0000
0000
0001
0000
0000
0010
0000
,
0110
0000
1000
0110
0000
0100
1001
0000
,
0001
0110
0000
0010
0001
0100
1000
0010
,
0200
0000
0000
0300
;

//---------------dance-single - ----------------
#NOTEDATA:;
#CHARTNAME:;
#STEPSTYPE:dance-single;
#DESCRIPTION:;
#CHARTSTYLE:;
#DIFFICULTY:Challenge;
#METER:9;
#RADARVALUES:0.441216,0.520217,0.267953,0.112822,0.324364,438.000000,400.000000,38.000000,16.000000,0.000000,0.000000,0.000000,0.000000,0.000000,0.441216,0.520217,0.267953,0.112822,0.324364,438.000000,400.000000,38.000000,16.000000,0.000000,0.000000,0.000000,0.000000,0.000000;
#CREDIT:;
#NOTES:
0000
0000
0000
0000
,
0000
0000
0000
0000
,
0000
0000
0000
0000
,
0000
0000
0000
0000
0000
0000
0000
0000
0001
1000
0000
0010
0000
0100
0001
0000
,
0100
0000
0000
0000
1001
0000
0000
0000
0001
0000
0010
0100
1000
0000
0001
0000
,
0100
0000
0000
0010
1000
0000
0000
0000
0100
0000
0010
0001
0100
0000
0010
0000
,
1000
0000
0000
1000
0100
0000
0000
0000
0001
0000
0000
0001
0010
0000
0100
0000
,
1000
0000
0000
0000
0000
0000
0000
0000
0001
0010
0000
0100
0000
1000
0001
0000
,
0100
0000
0000
0000
2000
0000
0100
0000
0000
0000
3100
0010
0001
0000
1000
0000
,
0010
0000
0000
0100
0002
0000
0100
0000
0000
0000
0103
0010
1000
0000
0001
0000
,
0010
0000
0000
0010
0100
0000
0000
0000
1000
0000
0000
1000
0010
0000
0001
0000
,
0100
0000
0000
0110
0000
0000
0110
0000
1000
0000
0001
0000
0100
0000
0010
0000
,
1000
0100
2000
0001
0000
3100
0010
0001
,
1000
0001
0200
0010
0000
0310
0100
0001
,
1000
0000
0010
0000
0200
0000
0000
0000
0000
0000
0301
1000
0010
0000
0100
0000
,
0001
0000
1000
0000
0200
0000
0000
0000
0000
0000
1300
0010
0100
0000
0001
0000
,
1000
0100
1002
0100
0003
1000
0010
0100
,
0001
0100
2001
0100
3000
0001
0100
0010
,
1000
0000
0000
1100
0000
0000
0010
0000
1010
0000
0000
0100
0000
0000
1001
0000
,
0000
0000
0000
0000
0000
0000
0000
0000
0001
1000
0000
0010
0100
0000
0001
0000
,
0101
0000
0000
0001
1000
0000
0100
0000
0000
0000
1000
0000
0010
0000
0001
0000
,
0010
0000
0000
1000
0010
0000
0100
0000
0000
0000
0001
1000
0100
0000
0010
0000
,
0001
0000
0000
1000
0010
0000
0100
0000
0000
0000
0001
0010
0100
0000
1000
0000
,
0010
0000
0000
0000
0110
0000
0000
0000
1000
0010
0000
0100
0001
0000
0001
0000
,
1001
0000
0000
0001
0010
0000
0100
0000
0000
0000
1000
0000
0001
0000
0010
0000
,
0100
0000
0000
1000
0100
0000
0010
0000
0000
0000
0001
0100
0010
0000
1000
0000
,
0100
0000
0000
0010
0001
0000
1000
0000
0000
0000
0010
0100
0001
0000
1000
0000
,
0100
0000
0000
0000
0010
0001
1000
0000
0010
0000
0100
0001
0000
1000
0001
0000
,
1100
0000
0000
0000
1000
0010
0100
0000
0010
0000
1000
0100
0000
0010
0001
0000
,
0101
0000
0000
0000
0001
0010
0100
0000
1000
0000
0001
0010
0000
0001
1000
0000
,
1100
0000
0010
1001
0000
0010
0101
0000
,
0010
1001
0000
0100
0010
0100
0010
2000
,
0100
0000
0000
0000
0001
0000
0000
0000
0010
0000
0000
0000
3001
0000
0010
0001
,
1000
0000
0010
0100
0000
0010
0000
2000
0000
0000
0000
0000
0000
0000
3100
0010
,
0001
0000
1000
0010
0000
0100
0000
0002
0000
0000
0000
0000
0000
0000
1003
0000
,
0010
0000
0100
0001
0000
1000
0000
0100
0000
0000
0000
0000
0000
0000
1000
0000
,
0010
0000
0000
0000
0011
0000
0000
0000
0010
0000
0000
0000
1010
0000
0001
0100
,
0010
0000
1000
0001
0000
0010
0000
0100
0000
0000
0000
0000
0000
0000
1000
0000
,
0100
0000
0000
1001
0000
0000
0010
0000
0101
0000
0100
0000
1001
0000
0100
0000
,
0001
0000
0001
1000
0001
0000
0011
0000
1000
0100
0010
0001
1000
0100
0010
0001
,
1001
0000
0000
0010
0100
0000
0001
0000
0000
0000
0001
0000
0010
0000
1000
0000
,
0020
0000
0000
0000
0001
0000
0100
0000
0031
0000
1000
0100
0010
0000
0001
0000
,
0100
0000
0000
0010
1000
0000
0001
0000
0000
0000
0010
0100
1000
0000
0010
0000
,
0100
0000
0001
1000
0010
0000
0100
0000
0001
0010
0000
0100
1000
0000
1000
0000
,
1200
0001
0010
1300
0000
1000
0010
0001
,
0200
0000
1000
0000
0010
0000
0301
0000
1000
0000
0001
0100
0010
0000
1000
0000
,
0200
0000
0001
0000
0010
0000
1300
0000
0001
0000
1000
0010
0100
0000
0001
0000
,
1000
0000
1001
0000
0010
1000
0100
0000
0010
0000
0001
1000
0000
0001
0100
0000
,
0110
0000
0100
0000
0001
0010
0100
0000
1000
0000
0010
0100
0000
0001
0010
0000
,
0011
0000
0100
0000
1000
0010
0100
0000
0001
0000
1000
0100
0000
0010
0001
0000
,
0110
0000
0010
1100
0000
0010
1001
0000
,
0010
0000
0101
0000
0010
1000
0001
0000
0010
0000
0100
1000
0000
0001
0100
0000
,
0101
0000
0010
0000
1000
0001
0100
0000
0010
0000
1000
0100
0000
0010
0001
0000
,
1001
0000
0010
0000
0001
0100
0010
0000
1000
0000
0100
0010
0000
0001
0100
0000
,
0110
0000
1000
0101
0000
0010
1001
0000
,
0010
1100
0000
0010
0001
0100
1000
0010
,
0200
0000
0000
0300
;

//---------------dance-single - ----------------
#NOTEDATA:;
#CHARTNAME:;
#STEPSTYPE:dance-single;
#DESCRIPTION:;
#CHARTSTYLE:;
#DIFFICULTY:Medium;
#METER:5;
#RADARVALUES:0.247806,0.233225,0.098720,0.077565,0.045834,246.000000,232.000000,14.000000,11.000000,0.000000,0.000000,0.000000,0.000000,0.000000,0.247806,0.233225,0.098720,0.077565,0.045834,246.000000,232.000000,14.000000,11.000000,0.000000,0.000000,0.000000,0.000000,0.000000;
#CREDIT:;
#NOTES:
0000
0000
0000
0000
,
0000
0000
0000
0000
,
0000
0000
0000
0000
,
0000
0000
0000
0000
0000
0000
0000
0000
0001
0000
0000
0010
0000
0000
0100
0000
,
1000
0000
1000
0000
1000
0001
0100
0000
,
0010
0000
0010
0000
1000
0001
0010
0000
,
0100
0000
1000
0000
0001
0000
1000
0100
,
1000
0000
0000
0000
0000
0000
0000
0000
0001
0000
0000
0010
0000
0000
0100
0000
,
1000
0000
0001
0000
1000
0010
1000
0000
,
0001
0000
1000
0000
0010
0100
0001
0000
,
0010
0000
0100
0000
0010
0000
0001
1000
,
0001
0000
0000
0000
0100
0010
1000
0001
,
0100
0000
0101
0000
0000
0000
0100
0010
,
1000
0000
1010
0000
0000
0000
1000
0001
,
0010
0000
0110
0000
0000
0000
1000
0001
,
1000
0000
1100
0000
0000
0000
0001
0100
,
0010
0000
1001
0000
0000
0000
1000
0010
,
0100
0000
0110
0000
0000
0000
0001
0010
,
0100
0000
0000
1000
0000
0000
0100
0000
0010
0000
0000
0001
0000
0000
0010
0000
,
0000
0000
0000
0000
0002
0000
1000
1000
,
1003
0000
1001
0000
0000
0000
0010
0100
,
0010
0000
0110
0000
0000
1000
0100
0001
,
0100
0000
0000
0000
0000
0010
1000
0010
,
0100
0000
0001
0000
0020
0000
0100
0100
,
0130
0000
0110
0000
0000
0000
1000
0001
,
1000
0000
1001
0000
0000
0001
0010
0100
,
1000
0000
0000
0000
0000
1000
0010
0100
,
0001
0000
0000
0000
1000
0000
0000
0000
0001
0000
0000
0010
0000
0000
0001
0000
,
0010
0000
0000
0000
0100
0000
0000
0000
1000
0000
0000
0001
0000
0000
1000
0000
,
0100
0000
0000
0000
1000
0000
0000
0000
0010
0000
0000
1000
0000
0000
0010
0000
,
0100
0000
0001
0100
0000
0001
0100
0000
,
0001
0100
0000
0000
0001
0000
1000
0000
,
0200
0000
0000
0310
,
0002
1000
0103
0000
,
0020
1000
0130
0000
,
2000
0010
3001
0000
,
0200
0010
1000
0310
,
0002
0010
1000
0013
,
0200
1000
0010
1300
,
0001
0000
0010
0000
0200
0000
1000
1000
,
1300
0000
1100
0000
0000
0000
1000
0001
,
1000
0000
1001
0000
0000
0001
0100
0010
,
1000
0000
0000
0000
0000
1000
0010
0100
,
0001
0000
0010
0000
0200
0000
0010
0010
,
0310
0000
1001
0000
0000
0000
0001
1000
,
0010
0000
1001
0000
0000
1000
0001
0100
,
0010
0000
0000
0000
0000
1000
0010
0100
,
0001
0000
0000
0000
0010
0000
0100
0000
0010
0000
0000
0001
0000
0000
1000
0000
,
0001
0000
0000
0000
0100
0000
0000
0000
0010
0000
0000
1000
0000
0000
0010
0000
,
0100
0000
0000
0000
0001
0000
0000
0000
1000
0000
0000
0100
0000
0000
1000
0000
,
0001
0000
1000
0001
0000
1000
0001
0000
,
1000
0000
0001
0000
0000
0000
0000
0000
1000
0000
0000
0010
0000
0000
0100
0000
,
0001
0000
0000
0000
0010
0000
0000
0000
0001
0000
0000
0010
0000
0000
0100
0000
,
1000
0000
0000
0000
0010
0000
0000
0000
1000
0000
0000
0010
0000
0000
0100
0000
,
0001
0000
1000
0001
0000
1000
0001
0000
,
1000
0001
0000
0000
0000
0000
0000
0000
;

//---------------dance-single - ----------------
#NOTEDATA:;
#CHARTNAME:;
#STEPSTYPE:dance-single;
#DESCRIPTION:;
#CHARTSTYLE:;
#DIFFICULTY:Easy;
#METER:3;
#RADARVALUES:0.147072,0.194795,0.035257,0.275004,0.000000,146.000000,141.000000,5.000000,39.000000,0.000000,0.000000,0.000000,0.000000,0.000000,0.147072,0.194795,0.035257,0.275004,0.000000,146.000000,141.000000,5.000000,39.000000,0.000000,0.000000,0.000000,0.000000,0.000000;
#CREDIT:;
#NOTES:
0000
0000
0000
0000
,
0000
0000
0000
0000
,
0000
0000
0000
0000
,
0000
0000
0001
0100
,
1000
0000
0000
0010
,
0100
1000
0000
0001
,
1000
0001
1000
0001
,
0100
0000
0010
1000
,
0100
0000
0000
0010
,
0001
1000
0000
0001
,
0100
0010
0100
0010
,
1000
0000
0001
1000
,
0100
0100
0000
0010
,
0100
0010
0000
0001
,
1000
0001
0000
1000
,
0010
0100
0000
0001
,
0100
0001
0000
1000
,
0001
1000
0000
0100
,
1000
0000
0001
0000
,
0010
0000
0100
0100
,
2002
0000
3003
0010
,
0002
0000
0003
0010
,
2000
0000
3000
0001
,
0200
0000
0310
0010
,
2002
0000
3003
0010
,
2000
0000
3000
0100
,
0002
0000
0003
0100
,
2000
0000
3001
1000
,
0200
0000
1300
0001
,
2000
0000
3001
0100
,
0002
1003
0002
1003
,
0002
1003
0010
0100
,
2002
0000
3003
0000
,
0020
0000
0030
0000
,
0002
0000
0003
0000
,
2000
0000
3000
0000
,
0010
0010
0000
0010
,
0100
0100
0000
0100
,
0001
0000
1000
0000
,
0100
0000
0010
0010
,
2002
0000
3003
1000
,
0020
0000
0030
0001
,
0200
0000
0300
1000
,
0200
0300
0010
0100
,
2002
0000
3003
0010
,
0002
0000
0003
0010
,
2000
0000
3000
0100
,
0010
0100
0010
0100
,
2000
0000
3001
1000
,
0002
0000
0013
0001
,
0020
0130
0020
0130
,
0020
0130
1000
0001
,
0200
0000
0310
1000
,
0200
0000
0310
0001
,
2000
3001
2000
3001
,
2000
3001
0000
0000
;

//---------------dance-single - ----------------
#NOTEDATA:;
#CHARTNAME:;
#STEPSTYPE:dance-single;
#DESCRIPTION:;
#CHARTSTYLE:;
#DIFFICULTY:Beginner;
#METER:1;
#RADARVALUES:0.079580,0.155131,0.112822,0.141028,0.000000,79.000000,63.000000,16.000000,20.000000,0.000000,0.000000,0.000000,0.000000,0.000000,0.079580,0.155131,0.112822,0.141028,0.000000,79.000000,63.000000,16.000000,20.000000,0.000000,0.000000,0.000000,0.000000,0.000000;
#CREDIT:;
#NOTES:
0000
0000
0000
0000
,
0000
0000
0000
0000
,
0000
0000
0000
0000
,
0000
0000
0000
0000
,
1000
0000
0000
0000
,
1000
0000
0000
0000
,
0001
0000
0000
0000
,
0001
0000
0000
0000
,
0100
0000
0000
0000
,
0010
0000
0000
0000
,
1000
0000
0000
0000
,
0001
0000
0000
0000
,
0010
0000
0000
0000
,
0100
0000
0000
0000
,
1000
0000
0000
0000
,
0001
0000
0000
0000
,
0100
0000
0000
0000
,
1000
0000
0000
0000
,
0100
0000
0000
0000
,
0010
0000
0000
0000
,
2002
0000
3003
0000
,
0020
0000
0030
0000
,
0200
0000
0300
0000
,
0002
0000
0003
0000
,
2002
0000
3003
0000
,
0020
0000
0030
0000
,
0200
0000
0300
0000
,
1000
0000
1000
0000
,
1001
0000
0001
0000
,
1001
0000
1000
0000
,
1001
0000
0000
0000
,
1001
0000
0000
0000
,
0020
0000
0030
0000
,
0000
0000
0000
0000
,
0200
0000
0300
0000
,
0000
0000
0000
0000
,
1000
0000
1000
0000
,
0100
0000
0100
0000
,
0001
0000
0001
0000
,
0010
0000
0100
0000
,
2002
0000
3003
0000
,
0020
0000
0030
0000
,
0200
0000
0300
0000
,
0002
0000
0003
0000
,
2002
0000
3003
0000
,
0020
0000
0030
0000
,
0200
0000
0300
0000
,
1000
0000
1000
0000
,
1001
0000
0001
0000
,
1001
0000
1000
0000
,
1001
0000
0000
0000
,
1001
0000
0010
0000
,
1001
0000
0010
0000
,
1001
0000
0010
0000
,
1001
0000
0000
0000
,
1001
0000
0000
0000
;

//---------------dance-double - ----------------
#NOTEDATA:;
#CHARTNAME:;
#STEPSTYPE:dance-double;
#DESCRIPTION:;
#CHARTSTYLE:;
#DIFFICULTY:Challenge;
#METER:9;
#RADARVALUES:0.451289,0.540225,0.275004,0.112822,0.345518,448.000000,409.000000,39.000000,16.000000,0.000000,0.000000,0.000000,0.000000,0.000000,0.451289,0.540225,0.275004,0.112822,0.345518,448.000000,409.000000,39.000000,16.000000,0.000000,0.000000,0.000000,0.000000,0.000000;
#CREDIT:;
#NOTES:
00000000
00000000
00000000
00000000
,
00000000
00000000
00000000
00000000
,
00000000
00000000
00000000
00000000
,
00000000
00000000
00000000
00000000
00000000
00000000
00000000
00000000
00000100
00010000
00000000
00001000
00000000
01000000
00100000
00000000
,
10000000
00000000
00000000
00000000
10010000
00000000
00000000
00000000
00100000
00000000
00001000
00010000
00000010
00000000
00000100
00000000
,
00000001
00000000
00000000
00001000
00000100
00000000
00000000
00000000
00010000
00000000
00001000
00010000
00000010
00000000
00000100
00000000
,
00000001
00000000
00000000
00000001
00000010
00000000
00000000
00000000
00001000
00000000
00000000
00001000
00000100
00000000
00010000
00000000
,
00001000
00000000
00000000
00000000
00000000
00000000
00000000
00000000
00000000
00000010
00000000
00000100
00000000
00000001
00000010
00000000
,
00000100
00000000
00000000
00000000
00020000
00000000
00001000
00000000
00000000
00000000
00031000
01000000
00100000
00000000
10000000
00000000
,
01000000
00000000
00000000
00100000
00020000
00000000
00100000
00000000
00000000
00000000
00130000
01000000
10000000
00000000
00010000
00000000
,
01000000
00000000
00000000
01000000
00001000
00000000
00000000
00000000
00010000
00000000
00000000
00010000
00000010
00000000
00000100
00000000
,
00000001
00000000
00000000
00001001
00000000
00000000
00001001
00000000
00000010
00000000
00000100
00000000
00010000
00000000
00001000
00000000
,
01000000
00100000
02000000
10000000
03000000
01000000
00100000
00010000
,
00001000
00000100
00000020
00001000
00000000
00001030
00000100
00000010
,
00000001
00000000
00000010
00000000
00000200
00000000
00000000
00000000
00000000
00000000
00010300
00001000
01000000
00000000
01000000
00000000
,
00100000
00000000
10000000
00000000
02000000
00000000
00000000
00000000
00000000
00000000
13000000
00100000
01000000
00000000
00010000
00000000
,
00100000
00001000
00021000
00000100
00030000
00000010
00000001
00001000
,
00000010
00000100
00001002
00000100
00000003
00000010
00000100
00010000
,
00001000
00000000
00000000
00011000
00000000
00000000
00100000
00000000
01100000
00000000
00000000
01000000
00000000
00000000
10010000
00000000
,
00000000
00000000
00000000
00000000
00000000
00000000
00000000
00000000
10000000
00100000
00000000
01000000
00010000
00000000
00010000
00000000
,
00101000
00000000
00000000
00001000
00010000
00000000
00000010
00000000
00000000
00000000
00000001
00000000
00000010
00000000
00001000
00000000
,
00000100
00000000
00000000
00010000
00001000
00000000
00100000
00000000
00000000
00000000
01000000
10000000
00100000
00000000
01000000
00000000
,
00001000
00000000
00000000
00010000
00000010
00000000
00000100
00000000
00000000
00000000
00000001
00000010
00000100
00000000
00010000
00000000
,
00001000
00000000
00000000
00000000
00011000
00000000
00000000
00000000
01000000
00100000
00000000
10000000
01000000
00000000
00100000
00000000
,
01001000
00000000
00000000
00001000
00010000
00000000
00000010
00000000
00000000
00000000
00000100
00000000
00000010
00000000
00010000
00000000
,
00001000
00000000
00000000
01000000
00100000
00000000
01000000
00000000
00000000
00000000
00010000
10000000
00100000
00000000
01000000
00000000
,
00001000
00000000
00000000
00100000
01000000
00000000
10000000
00000000
00000000
00000000
00100000
01000000
00001000
00000000
00010000
00000000
,
00000010
00000000
00000000
00000000
00000100
00000001
00001000
00000000
00000010
00000000
00010000
00001000
00000000
00010000
00001000
00000000
,
01010000
00000000
00000000
00000000
10000000
00100000
01000000
00000000
00100000
00000000
10000000
01000000
00000000
00100000
00010000
00000000
,
01001000
00000000
00000000
00000000
00010000
00100000
00001000
00000000
00000010
00000000
00000100
00000001
00000000
00001000
00000100
00000000
,
00000011
00000000
00000100
00010010
00000000
00001000
00110000
00000000
,
00100000
11000000
00000000
01000000
10000000
01000000
00100000
00002000
,
01000000
00000000
00000000
00000000
00010000
00000000
00000000
00000000
00100000
00000000
00000000
00000000
00013000
00000000
00001000
00010000
,
00000100
00000000
00001000
00000001
00000000
00000100
00000000
00000020
00000000
00000000
00000000
00000000
00000000
00000000
00001030
00000100
,
00010000
00000000
01000000
00100000
00000000
01000000
00000000
00020000
00000000
00000000
00000000
00000000
00000000
00000000
10030000
00000000
,
00100000
00000000
01000000
00010000
00000000
00100000
00000000
01000000
00000000
00000000
00000000
00000000
00000000
00000000
10000000
00000000
,
00100000
00000000
00000000
00000000
00101000
00000000
00000000
00000000
00000010
00000000
00000000
00000000
00010010
00000000
00000100
00010000
,
00001000
00000000
01000000
00010000
00000000
10000000
00000000
01000000
00000000
00000000
00000000
00000000
00000000
00000000
00100000
00000000
,
00010000
00000000
00000000
00011000
00000000
00000000
00000010
00000000
00000110
00000000
00000100
00000000
00000110
00000000
00000001
00000000
,
00001000
00000000
00010000
00100000
01000000
00000000
01100000
00000000
10000000
01000000
00100000
00010000
10000000
01000000
00100000
00010000
,
00001000
00000000
00000000
00000010
00000100
00000000
00000001
00000000
00000000
00000000
00000001
00000000
00000010
00000000
00001000
00000000
,
00201000
00000000
00000000
00000000
00010000
00000000
01000000
00000000
00310000
00000000
10000000
00010000
01000000
00000000
00001000
00000000
,
00011000
00000000
00000000
00000010
00000100
00000000
00000001
00000000
00000000
00000000
00000010
00000100
00010000
00000000
00001000
00000000
,
01000000
00000000
00100000
10000000
01000000
00000000
00100000
00000000
00001000
00100000
00000000
00001000
00010000
00000000
01000000
00000000
,
12000000
00010000
00100000
13000000
00000000
10000000
00100000
00010000
,
00000200
00000000
00001000
00000000
00000010
00000000
00000301
00000000
00000000
00000000
00001000
00000010
00000100
00000000
00000001
00000000
,
00002000
00000000
00000100
00000000
00010000
00000000
00003100
00000000
00000000
00000000
00010000
00001000
00100000
00000000
01000000
00000000
,
10000000
00000000
10010000
00000000
00100000
10000000
01000000
00000000
00100000
00000000
00010000
01000000
00000000
00001000
00010000
00000000
,
00011000
00000000
00000010
00000000
00000100
00000001
00000010
00000000
00000100
00000000
00001000
00000010
00000000
00010000
00001000
00000000
,
00011000
00000000
01000000
00000000
00100000
10000000
01000000
00000000
00100000
00000000
00001000
00010000
00000000
00000010
00000100
00000000
,
00000101
00000000
00000010
00000100
00000010
00000000
00001100
00000000
00000100
00010000
00001000
00000000
00011000
00000000
01000000
00100000
,
10000000
00000000
11000000
00000000
10000000
00010000
01000000
00000000
00100000
00000000
10000000
01000000
00000000
00100000
00001000
00000000
,
00011000
00000000
00000010
00000000
00000100
00000001
00000010
00000000
00000100
00000000
00010000
00001000
00000000
00010000
00001000
00000000
,
01010000
00000000
00100000
00000000
01000000
10000000
00100000
00000000
01000000
00000000
00010000
00100000
00000000
00001000
00010000
00000000
,
00001100
00000000
00000010
00000100
00000010
00000000
00001001
00000000
00000010
00000100
00000010
00000000
00001001
00000000
00000010
00010000
,
00001000
00011000
00000000
00100000
00010000
01000000
10000000
00100000
,
02000000
00000000
00000000
03000000
;

//---------------dance-double - ----------------
#NOTEDATA:;
#CHARTNAME:;
#STEPSTYPE:dance-double;
#DESCRIPTION:;
#CHARTSTYLE:;
#DIFFICULTY:Hard;
#METER:7;
#RADARVALUES:0.356599,0.440183,0.225645,0.162182,0.190388,354.000000,322.000000,32.000000,23.000000,0.000000,0.000000,0.000000,0.000000,0.000000,0.356599,0.440183,0.225645,0.162182,0.190388,354.000000,322.000000,32.000000,23.000000,0.000000,0.000000,0.000000,0.000000,0.000000;
#CREDIT:;
#NOTES:
00000000
00000000
00000000
00000000
,
00000000
00000000
00000000
00000000
,
00000000
00000000
00000000
00000000
,
00000000
00000000
00000000
00000000
00000000
00000000
00000000
00000000
20000000
00000000
00000000
00100000
00000000
00000000
01000000
00000000
,
30010000
00000000
00011000
00000000
00000010
00000000
00000100
00000001
,
00001000
00000000
00001001
00000000
00000100
00010000
00001000
00000000
,
01000000
00000000
00100000
00000000
00001000
00000000
00000010
00000100
,
00001000
00000000
00000000
00000000
00000000
00000000
00000000
00000000
00000002
00000000
00000000
00000010
00000000
00000000
00000100
00000000
,
00001003
00000000
00001001
00000000
00000010
00000000
00000100
00010000
,
00001000
00000000
00011000
00000000
01000000
00000000
00100000
10000000
,
01000000
00000000
00100000
00000000
00001000
00000000
00010000
00000010
,
00000100
00000000
00000000
00000000
00000001
00000010
00000100
00010000
,
00001000
01000000
00200000
00000000
00000000
10300000
00100000
01000000
,
00001000
00010000
00000020
00000000
00000000
00000130
00000001
00001000
,
00000100
00000010
00000002
00000000
00000000
00001003
00000100
00010000
,
00001000
01000000
20000000
00000000
00000000
31000000
00100000
10000000
,
00010000
01000000
02002000
00000000
03003000
00010000
00100000
00001000
,
00010000
00000010
00020020
00000000
00030030
00000100
00000001
00001000
,
00000100
00000000
00000000
00001100
00000000
00000000
00000010
00000000
00001010
00000000
00000000
00000100
00000000
00000000
00011000
00000000
,
00000000
00000000
00000000
00000000
00000000
00000000
00000000
00000000
00010000
00100000
00000000
01000000
10000000
00000000
10000000
00000000
,
22000000
00000000
00000000
00000000
33000000
10000000
00100000
00001000
,
00200000
00000000
00000000
00000000
00000000
00000000
00000000
00000000
00300000
00000000
01000000
00010000
01000000
00000000
00001000
00000000
,
00020000
00000000
00000000
00000000
00000000
00000000
00000000
00000000
00030000
00000000
00000100
00000010
00000001
00000000
00000010
00000000
,
00000200
00000000
00000000
00000000
00000000
00000000
00000000
00000000
00001300
00000010
00000000
00000100
00000001
00000000
00000001
00000000
,
00001001
00000000
00000010
00000000
00000010
00000100
00010000
00001000
,
01000000
00000000
00000000
00000000
00100000
00000000
00000000
00000000
00100000
00000000
10000000
00010000
10000000
00000000
01000000
00000000
,
00100000
00000000
00000000
00000000
00001000
00000000
00000000
00000000
00010000
00000000
00000100
00000010
00000100
00000000
00001000
00000000
,
00000001
00000000
00000000
00000000
00000100
00000010
00000100
00000000
00000001
00000000
00000000
00000010
00000000
00000000
00000100
00000000
,
00001100
00000000
00000000
00000000
00010000
00001000
00010000
00000000
01000000
00000000
00000000
00100000
00000000
00000000
10000000
00000000
,
10100000
00000000
00000000
00000000
01000000
00010000
01000000
00000000
00010000
00000000
00000000
00100000
00000000
00000000
00001000
00000000
,
00011000
00000000
00000010
00011000
00000000
01000000
00011000
00000000
,
00100000
00011000
00000000
00000100
00000010
00000001
00000100
00000002
,
00000010
00000000
00001000
00000000
00000100
00000000
00000013
00000100
,
00020000
00000000
00000000
00001000
00000000
00000100
00000000
00001000
00000000
00000000
00000000
00000000
00030000
00000000
02000000
00000000
,
00100000
00000000
00000000
10000000
00000000
00100000
00000000
10000000
00000000
00000000
00000000
00000000
03000000
00000000
00100000
00000000
,
00010000
00000000
00000000
01000000
00000000
00001000
00000000
00100000
00000000
00000000
00000000
00000000
00000000
00000000
01000000
00000000
,
10000000
00000000
11000000
00000000
00100000
00000000
00101000
00010000
,
00000010
00000000
00000000
00000100
00000000
00000001
00000000
00001000
00000000
00000000
00000000
00000000
00000000
00000000
00000100
00000000
,
00000010
00000000
00000011
00000000
00001000
00000100
00010000
00001000
,
00010000
00000000
00000000
01000000
00000000
00000000
00100000
00000000
00010000
00100000
00000000
01000000
10000000
00000000
10000000
00000000
,
21000000
00000000
00100000
00000000
31000000
00100000
00001000
00010000
,
00000020
00000000
00000000
00000000
00000001
00000000
00000000
00000000
00000130
00000000
00000010
00000100
00000010
00000000
00001000
00000000
,
00000200
00000000
00000000
00000000
00010000
00000000
00000000
00000000
00001300
00000000
00000100
00010000
00001000
00000000
01000000
00000000
,
00020000
00000000
00000000
00000000
00100000
00000000
00000000
00000000
01030000
10000000
00000000
00010000
01000000
00000000
01000000
00000000
,
10010000
00000000
00100000
00000000
01000000
00010000
00100000
00001000
,
00010000
00000000
00000000
00000000
00000010
00000000
00000000
00000000
00000100
00000000
00000001
00000010
00000100
00000000
00000010
00000000
,
00000001
00000000
00000000
00000000
00001000
00000000
00000000
00000000
00000100
00000000
00010000
00001000
00010000
00000000
00001000
00000000
,
01000000
00000000
00000000
00000000
00100000
10000000
00100000
00000000
01000000
00000000
00000000
00001000
00000000
00000000
00010000
00000000
,
00011000
00000000
00000000
00000000
00000100
00000010
00000100
00000000
00000010
00000000
00000000
00000001
00000000
00000000
00000100
00000000
,
00000101
00000000
00000000
00000000
00000001
00001000
00000001
00000000
00001000
00000000
00000000
00000100
00000000
00000000
00010000
00000000
,
00011000
00000000
01000000
00011000
00000000
00000010
00011000
00000000
,
00100000
00000000
00011000
00000000
00001000
00010000
00001000
00000000
01000000
00000000
00001000
00010000
00000000
00001000
00010000
00000000
,
00000100
00000000
00010000
00000000
00001000
01000000
00010000
00000000
01000000
00000000
00100000
10000000
00000000
00100000
01000000
00000000
,
00001000
00000000
00010000
00000000
00000100
00010000
00000100
00000000
00001000
00000000
00000100
00000010
00000000
00000100
00010000
00000000
,
00011000
00000000
01000000
00011000
00000000
00000010
00011000
00000000
,
01000000
00011000
00000000
00000010
00000001
00000100
00001000
00000010
,
00000200
00000000
00000000
00000300
;

//---------------dance-double - ----------------
#NOTEDATA:;
#CHARTNAME:;
#STEPSTYPE:dance-double;
#DESCRIPTION:;
#CHARTSTYLE:;
#DIFFICULTY:Medium;
#METER:5;
#RADARVALUES:0.250828,0.252660,0.098720,0.077565,0.045834,249.000000,235.000000,14.000000,11.000000,0.000000,0.000000,0.000000,0.000000,0.000000,0.250828,0.252660,0.098720,0.077565,0.045834,249.000000,235.000000,14.000000,11.000000,0.000000,0.000000,0.000000,0.000000,0.000000;
#CREDIT:;
#NOTES:
// measure 0
00000000
00000000
00000000
00000000
,  // measure 1
00000000
00000000
00000000
00000000
,  // measure 2
00000000
00000000
00000000
00000000
,  // measure 3
00000000
00000000
00000000
00000000
00000000
00000000
00000000
00000000
00010000
00000000
00000000
00100000
00000000
00000000
01000000
00000000
,  // measure 4
10000000
00000000
00100000
00000000
01000000
00001000
00010000
00000000
,  // measure 5
00100000
00000000
00001000
00000000
00000010
00000100
00000001
00000000
,  // measure 6
00000010
00000000
00000100
00000000
00010000
00000000
00001000
01000000
,  // measure 7
00010000
00000000
00000000
00000000
00000000
00000000
00000000
00000000
00100000
00000000
00000000
00001000
00000000
00000000
00010000
00000000
,  // measure 8
00000010
00000000
00000100
00000000
00000001
00001000
00000100
00000000
,  // measure 9
00000010
00000000
00000001
00000000
00001000
00000100
00010000
00000000
,  // measure 10
00001000
00000000
01000000
00000000
00100000
00000000
10000000
01000000
,  // measure 11
00010000
00000000
00000000
00000000
00100000
00001000
00010000
00000010
,  // measure 12
00001000
00000000
00001100
00000000
00000000
00000000
00000010
00000001
,  // measure 13
00000010
00000000
00000011
00000000
00000000
00000000
00010000
00001000
,  // measure 14
01000000
00000000
01010000
00000000
00000000
00000000
00100000
10000000
,  // measure 15
01000000
00000000
11000000
00000000
00000000
00000000
00100000
00001000
,  // measure 16
00010000
00000000
00011000
00000000
00000000
00000000
00000010
00000100
,  // measure 17
00000001
00000000
00000101
00000000
00000000
00000000
00000010
00000100
,  // measure 18
00010000
00000000
00000000
00001000
00000000
00000000
01000000
00000000
00100000
00000000
00000000
10000000
00000000
00000000
01000000
00000000
,  // measure 19
00000000
00000000
00000000
00000000
00200000
00000000
00001000
00001000
,  // measure 20
00301000
00000000
00011000
00000000
00000000
00000000
00000010
00000100
,  // measure 21
00000010
00000000
00000110
00000000
00000000
00010000
00001000
01000000
,  // measure 22
00100000
00000000
00000000
00000000
00000000
10000000
01000000
00100000
,  // measure 23
00010000
00000000
01000000
00000000
00002000
00000000
00010000
00010000
,  // measure 24
00013000
00000000
00011000
00000000
00000000
00000000
00000010
00000100
,  // measure 25
00000001
00000000
00000101
00000000
00000000
00000001
00000010
00000100
,  // measure 26
00001000
00000000
00000000
00000000
00000000
00010000
00001000
01000000
,  // measure 27
00100000
00000000
00000000
00000000
10000000
00000000
00000000
00000000
00010000
00000000
00000000
00100000
00000000
00000000
01000000
00000000
,  // measure 28
10000000
00000000
00000000
00000000
00100000
00000000
00000000
00000000
01000000
00000000
00000000
00001000
00000000
00000000
00100000
00000000
,  // measure 29
00010000
00000000
00000000
00000000
00100000
00000000
00001000
00000000
00010000
00000000
00000000
00000010
00000000
00000000
00000100
00000000
,  // measure 30
00000001
00000000
00000100
00000001
00000000
00000100
00000001
00000000
,  // measure 31
00000100
00000001
00000000
00000000
00000010
00000000
00000100
00000000
,  // measure 32
00020000
00000000
00000000
00031000
,  // measure 33
02000000
00100000
03010000
00000000
,  // measure 34
00002000
00100000
01003000
00000000
,  // measure 35
00020000
00000100
00031000
00000000
,  // measure 36
00000020
00000100
00001000
00000130
,  // measure 37
00000002
00000010
00001000
00000013
,  // measure 38
00000200
00001000
00000010
00001300
,  // measure 39
00010000
00000000
00100000
00000000
02000000
00000000
00010000
00010000
,  // measure 40
03010000
00000000
01010000
00000000
00000000
00000000
10000000
00100000
,  // measure 41
10000000
00000000
10010000
00000000
00000000
00100000
00001000
00010000
,  // measure 42
00000010
00000000
00000000
00000000
00000000
00000100
00000001
00001000
,  // measure 43
00000100
00000000
00000010
00000000
00000002
00000000
00001000
00001000
,  // measure 44
00001003
00000000
00001001
00000000
00000000
00000000
00000010
00010000
,  // measure 45
00001000
00000000
00011000
00000000
00000000
01000000
00100000
10000000
,  // measure 46
00100000
00000000
00000000
00000000
00000000
01000000
00001000
00010000
,  // measure 47
00001000
00000000
00000000
00000000
00100000
00000000
00010000
00000000
00100000
00000000
00000000
01000000
00000000
00000000
10000000
00000000
,  // measure 48
00010000
00000000
00000000
00000000
01000000
00000000
00000000
00000000
00001000
00000000
00000000
00010000
00000000
00000000
00000100
00000000
,  // measure 49
00000010
00000000
00000000
00000000
00000001
00000000
00000000
00000000
00001000
00000000
00000000
00000100
00000000
00000000
00000010
00000000
,  // measure 50
00000001
00000000
00001000
00000100
00000000
00001000
00000100
00000000
,  // measure 51
00001000
00000000
00000100
00000000
00000000
00000000
00000000
00000000
00010000
00000000
00000000
00001000
00000000
00000000
01000000
00000000
,  // measure 52
00100000
00000000
00000000
00000000
10000000
00000000
00010000
00000000
00100000
00000000
00000000
01000000
00000000
00000000
10000000
00000000
,  // measure 53
00010000
00000000
00000000
00000000
00100000
00000000
00001000
00000000
00010000
00000000
00000000
00000010
00000000
00000000
00000100
00000000
,  // measure 54
00000010
00000000
00010000
00001000
00000000
00010000
00001000
00000000
,  // measure 55
00010000
00001000
00000000
00000000
00000000
00000000
00000000
00000000
;

//---------------dance-double - ----------------
#NOTEDATA:;
#CHARTNAME:;
#STEPSTYPE:dance-double;
#DESCRIPTION:;
#CHARTSTYLE:;
#DIFFICULTY:Easy;
#METER:3;
#RADARVALUES:0.147072,0.194795,0.035257,0.275004,0.000000,146.000000,141.000000,5.000000,39.000000,0.000000,0.000000,0.000000,0.000000,0.000000,0.147072,0.194795,0.035257,0.275004,0.000000,146.000000,141.000000,5.000000,39.000000,0.000000,0.000000,0.000000,0.000000,0.000000;
#CREDIT:;
#NOTES:
// measure 0
00000000
00000000
00000000
00000000
,  // measure 1
00000000
00000000
00000000
00000000
,  // measure 2
00000000
00000000
00000000
00000000
,  // measure 3
00000000
00000000
00000001
00000100
,  // measure 4
00001000
00000000
00000000
00001000
,  // measure 5
00010000
01000000
00000000
10000000
,  // measure 6
00010000
10000000
00010000
10000000
,  // measure 7
01000000
00000000
00100000
00001000
,  // measure 8
00010000
00000000
00000000
00000010
,  // measure 9
00000100
00000001
00000000
00001000
,  // measure 10
00000100
00000010
00000100
00000010
,  // measure 11
00000001
00000000
00001000
00000100
,  // measure 12
00010000
00010000
00000000
00001000
,  // measure 13
01000000
00010000
00000000
01000000
,  // measure 14
00100000
01000000
00000000
00010000
,  // measure 15
10000000
01000000
00000000
00100000
,  // measure 16
00001000
00010000
00000000
00001000
,  // measure 17
01000000
00100000
00000000
01000000
,  // measure 18
00001000
00000000
00010000
00000000
,  // measure 19
00000010
00000000
00000100
00000100
,  // measure 20
00002002
00000000
00003003
00000010
,  // measure 21
00000002
00000000
00000003
00000010
,  // measure 22
00000200
00000000
00000300
00010000
,  // measure 23
00002000
00000000
01003000
01000000
,  // measure 24
02200000
00000000
03300000
00100000
,  // measure 25
20000000
00000000
30000000
01000000
,  // measure 26
00200000
00000000
00300000
00001000
,  // measure 27
00020000
00000000
00030010
00001000
,  // measure 28
00000200
00000000
00001300
00000010
,  // measure 29
00020000
00000000
00031000
01000000
,  // measure 30
00200000
10300000
00020000
10030000
,  // measure 31
02000000
13000000
00010000
01000000
,  // measure 32
02020000
00000000
03030000
00000000
,  // measure 33
20000000
00000000
30000000
00000000
,  // measure 34
00020000
00000000
00030000
00000000
,  // measure 35
00002000
00000000
00003000
00000000
,  // measure 36
00000010
00000010
00000000
00000010
,  // measure 37
00000100
00000100
00000000
00000100
,  // measure 38
00010000
00000000
00001000
00000000
,  // measure 39
01000000
00000000
00100000
00100000
,  // measure 40
20020000
00000000
30030000
10000000
,  // measure 41
00200000
00000000
00300000
00010000
,  // measure 42
00000020
00000000
00000030
00000100
,  // measure 43
00000002
00000003
00000010
00000100
,  // measure 44
00002002
00000000
00003003
00000010
,  // measure 45
00000002
00000000
00000003
00000010
,  // measure 46
00020000
00000000
00030000
01000000
,  // measure 47
00100000
01000000
00100000
01000000
,  // measure 48
20000000
00000000
30010000
00001000
,  // measure 49
00000020
00000000
00000031
00000100
,  // measure 50
00000020
00000130
00000020
00000130
,  // measure 51
00000020
00000130
00001000
00010000
,  // measure 52
02000000
00000000
03100000
00010000
,  // measure 53
00200000
00000000
00310000
01000000
,  // measure 54
00002000
00013000
00002000
00013000
,  // measure 55
00002000
00013000
00000000
00000000
;
