#TITLE:Synesthetic;
#SUBTITLE:;
#ARTIST:SGX;
#TITLETRANSLIT:;
#SUBTITLETRANSLIT:;
#ARTISTTRANSLIT:;
#GENRE:Synesthetic;
#CREDIT:;
#BANNER:Synesthetic-bn.png;
#BACKGROUND:Synesthetic-bg.png;
#LYRICSPATH:;
#CDTITLE:;
#MUSIC:Synesthetic.mp3;
#OFFSET:-1.675000;
#SAMPLESTART:78.107841;
#SAMPLELENGTH:13.150681;
#LASTBEATHINT:281.924469;
#SELECTABLE:YES;
#DISPLAYBPM:146.000000;
#BPMS:0.000000=146.000000
,177.750000=124.999992
,177.875000=100.000000
,178.000000=75.000000
,180.000000=146.000000
;
#STOPS:
;
#BGCHANGES:;
#KEYSOUNDS:;
#ATTACKS:;

//---------------dance-single - ----------------
#NOTES:
     dance-single:
     Blank:
     Hard:
     9:
     0.581839,0.654700,0.212214,0.244862,0.477481,443.000000,26.000000,30.000000,0.000000,0.000000,0.000000,0.581839,0.654700,0.212214,0.244862,0.477481,443.000000,26.000000,30.000000,0.000000,0.000000,0.000000:
// measure 0
0000
0000
0000
0000
,  // measure 1
0000
0000
0000
0000
,  // measure 2
0000
0000
0000
0000
,  // measure 3
0000
0000
0000
0000
,  // measure 4
0000
0000
0000
0000
,  // measure 5
0000
0000
0000
0000
,  // measure 6
0000
0000
0000
0000
,  // measure 7
1000
0000
0000
1000
0010
0000
0000
0010
0100
0000
0001
0000
1001
0000
0000
0000
,  // measure 8
0011
0000
0001
0000
0010
0001
0000
0010
0000
0000
0001
0000
1000
0000
0001
1000
,  // measure 9
0000
0000
0010
0000
1000
0100
0000
1000
0000
0000
0100
0000
0010
0000
0001
0010
,  // measure 10
0000
0000
0001
0000
1000
0001
0000
1000
0000
0000
0010
0000
1000
0000
0010
0100
,  // measure 11
0000
0000
0001
0000
0100
0001
0000
0100
0000
0000
0010
0000
1000
0000
0100
1000
,  // measure 12
0000
0000
0100
0000
0010
0001
0000
0010
0000
0000
0001
0000
1000
0000
0001
1000
,  // measure 13
0000
0000
0010
0000
1000
0010
0000
1000
0000
0000
0010
0000
0100
0000
0001
1000
,  // measure 14
0000
0000
0001
0000
0010
0001
0000
0010
0000
0000
0100
0000
1000
0000
0100
1000
,  // measure 15
0000
0000
0001
0000
0100
0001
0000
0100
0000
0000
0010
0000
1000
0000
0001
1000
,  // measure 16
0001
0000
0001
0000
0000
0000
0000
0100
0000
0100
0010
0000
0000
0000
1000
0000
,  // measure 17
0010
0000
1010
0000
0000
0000
0000
0000
0001
0000
0000
1100
0000
1000
0001
1000
,  // measure 18
0001
0000
0100
0000
0000
0000
0000
0010
0000
1000
0010
0000
0000
0000
1000
0000
,  // measure 19
0001
0000
0101
0000
0000
0000
0000
0000
0100
0000
0000
1010
0000
0010
1000
0010
,  // measure 20
2000
0100
3100
0000
0100
1000
0001
0010
,  // measure 21
0002
0100
0103
0000
0100
0001
1000
0010
,  // measure 22
2000
0100
3100
0000
0100
1000
0001
0010
,  // measure 23
0002
0100
0103
0000
0100
0001
1000
0010
,  // measure 24
2000
0001
0001
0000
3100
1000
0010
0100
,  // measure 25
0002
1000
1000
0000
0103
0001
0010
0100
,  // measure 26
2000
0001
0001
0000
3100
1000
0010
0100
,  // measure 27
0002
1000
1000
0000
0103
0001
0010
0100
,  // measure 28
1001
2000
0010
3000
0001
0000
1100
0000
,  // measure 29
1001
0002
0010
0003
1000
0000
0101
0000
,  // measure 30
1001
2000
0010
3000
0001
0000
1100
0000
,  // measure 31
1001
0002
0010
0003
1000
0000
0101
0000
,  // measure 32
0100
0000
0010
0000
1000
1000
0000
1000
0000
0000
0100
0000
0010
0000
0100
0000
,  // measure 33
0000
0000
0010
0000
0001
0001
0000
0001
0000
0000
0100
0000
0001
0000
0010
0000
,  // measure 34
0000
0000
0100
0000
1000
1000
0000
1000
0000
0000
0001
0000
0100
0000
0010
0000
,  // measure 35
0000
0000
0100
0000
0001
0001
0000
0001
0000
0000
1000
0000
0001
0000
1000
0000
,  // measure 36
0100
0000
0100
0000
1100
0000
0000
0100
0010
0100
0010
0100
0010
0100
0000
0000
,  // measure 37
0010
0000
0001
0000
0000
0000
1000
0000
1000
0000
1000
0000
1000
0010
1000
0010
,  // measure 38
0100
0000
0001
0000
1001
0000
0000
0001
1000
0001
1000
0001
1000
0001
0000
0000
,  // measure 39
0000
0010
0000
0010
0000
0000
0100
1000
0000
0000
0001
0100
0001
0100
0000
0000
,  // measure 40
1000
0010
1000
0001
0001
0001
0011
1001
,  // measure 41
0101
0000
0000
0000
0100
0010
0100
0010
0100
0000
0000
0010
0000
0010
1000
0000
,  // measure 42
0100
0000
0100
0000
0010
0000
0000
0001
1000
0000
1000
0000
1000
0001
1000
0001
,  // measure 43
1000
0000
0100
0000
0001
0010
1000
0100
,  // measure 44
0010
0000
0001
0000
1000
0001
1000
0100
0000
0000
0000
0000
0000
0000
0000
0000
,  // measure 45
0120
0100
0100
0130
,  // measure 46
1001
0000
1000
0000
0001
1000
0000
0001
0000
0000
0100
0000
0010
0000
1000
0010
,  // measure 47
0000
0000
1000
0000
0100
0001
0000
0100
2000
0000
0000
0000
3001
0000
1000
0000
,  // measure 48
0110
0000
0100
0000
0001
0100
0000
0001
0000
0000
1000
0000
0010
0000
0001
0010
,  // measure 49
0200
0000
0001
0000
0301
1000
0000
0001
0000
0000
0010
0000
0001
0000
1000
0100
,  // measure 50
0000
0000
0010
0000
0100
0010
0000
0001
0000
0000
1000
0000
0001
0000
0100
0010
,  // measure 51
0000
0000
1000
0000
0010
1000
0000
0100
0000
0000
1000
0000
0001
0000
0100
0001
,  // measure 52
0000
0000
1000
0000
0010
1000
0000
0001
0000
0000
0010
0000
0100
0000
1000
0010
,  // measure 53
0000
0000
1000
0000
0010
0100
0000
0001
0000
0000
1000
0000
0010
0000
0100
0010
,  // measure 54
0100
0000
0001
0000
0001
1000
0000
1000
0001
0000
0010
0000
0100
0000
0100
1000
,  // measure 55
0000
0000
0001
0000
0100
0001
0000
0001
0200
0000
0000
0000
0301
0000
1000
0000
,  // measure 56
1100
0000
0100
0000
0010
0100
0000
0100
0000
0000
0010
0000
0001
0000
1000
0001
,  // measure 57
0100
0000
0001
0000
0001
1000
0000
1000
0010
0000
1000
0000
0100
0000
0010
0001
,  // measure 58
0010
0000
0001
0000
1000
0001
0000
0100
0000
0000
1010
0000
1000
0000
0001
1000
,  // measure 59
0000
0000
0100
0000
0010
0001
0000
1000
0000
0000
0101
0000
0001
0000
1000
0001
,  // measure 60
0000
0000
1000
0000
0100
0010
0100
0010
0000
0001
0010
0001
0010
0000
0001
1000
,  // measure 61
0001
0000
0100
0001
0100
0000
0010
0100
0010
0100
0001
0000
0100
0000
0010
1000
,  // measure 62
0000
0120
0000
0000
0000
2000
0000
0030
,  // measure 63
0000
0000
0200
0000
0000
0000
3000
0000
0000
0000
0020
0000
0000
0000
0000
0330
,  // measure 64
0000
0020
0000
0000
0000
0002
0000
0030
,  // measure 65
0000
0000
0200
0000
0000
0000
0003
0000
0000
0000
0020
0000
0000
0000
0000
0330
,  // measure 66
0000
1000
2000
0000
0000
0002
3000
0000
,  // measure 67
0000
0000
0200
0000
0003
0000
0000
0000
0000
0000
0020
0000
0000
0000
0000
0330
,  // measure 68
0000
2000
0000
0000
0000
3002
0000
0000
,  // measure 69
0103
0000
0000
1000
0000
0000
0100
0000
;

//---------------dance-single - ----------------
#NOTES:
     dance-single:
     [Ness]:
     Medium:
     7:
     0.364961,0.398513,0.318321,0.048972,0.024486,268.000000,39.000000,6.000000,0.000000,0.000000,0.000000,0.364961,0.398513,0.318321,0.048972,0.024486,268.000000,39.000000,6.000000,0.000000,0.000000,0.000000:
0000
0000
0000
0000
,
0000
0000
0000
0000
,
0000
0000
0000
0000
,
0000
0000
0000
0000
,
0000
0000
0000
0000
,
0000
0000
0000
0000
,
0000
0000
0000
0000
,
1001
1000
0001
1001
,
0110
0010
0100
0110
,
1001
0000
1000
0000
0001
0000
1000
0001
,
1000
0010
0100
0110
,
1001
0000
0001
0000
1000
0000
0001
1000
,
0001
0000
0110
0000
1001
0000
0010
1000
,
0010
0000
0110
0000
1001
0000
0010
0001
,
0010
0000
0110
0000
1001
0000
0100
1000
,
0100
0000
0110
0000
1001
0000
0100
0001
,
0100
0010
1000
0100
,
0010
0010
0010
0000
0001
0001
0001
0000
,
1000
1000
1000
0000
0001
0001
0001
0000
,
0100
0010
1000
0100
,
0010
0010
0010
0000
0100
0000
1000
0000
,
0001
0001
0001
0000
1000
0000
0010
0000
,
0100
0100
0100
0000
0001
0000
1000
0000
,
0010
0010
0010
0000
1000
0000
0100
0000
,
0010
0100
0010
0000
0001
0000
0100
0000
,
0010
0100
0010
0000
1000
0000
0100
0000
,
0010
0100
0010
0000
0001
0000
0100
0000
,
0010
0100
0010
0000
1000
0000
0100
0000
,
1100
0001
0010
0001
,
1100
0001
0010
0001
,
1100
0001
0010
0001
,
1000
0001
0100
0000
0001
1000
0100
0000
,
0101
1000
0010
1000
,
0101
1000
0010
1000
,
0101
1000
0010
1000
,
0001
1000
0100
0000
1000
0001
0100
0000
,
1001
0100
0100
0000
0010
0010
0010
0000
,
0010
0001
0000
1000
1000
0000
0010
0010
,
0100
0000
1001
0000
1000
1000
1000
0000
,
0000
0010
0000
0000
0000
0000
0100
0000
0000
0000
0001
0000
1000
0000
0000
0000
,
1000
0010
0100
0000
0000
0000
0010
1000
,
0001
0000
0000
0000
0100
0000
0100
0000
0100
0000
0000
0010
0000
0000
1000
0000
,
0100
0000
0000
0000
0010
0000
0000
0001
1000
0000
0000
0000
0001
0000
1000
0000
,
0001
0000
0100
0000
0001
1000
0001
1000
,
0001
1000
0001
1000
0000
0000
0000
0000
,
0120
0100
0100
0130
,
0001
0000
0000
0000
0010
0000
0000
0000
0100
0000
1000
0000
0100
0000
0000
1000
,
0000
0010
0010
0000
2001
0000
0000
0001
,
3001
0000
0000
0000
0010
0000
0000
0000
0100
0000
0010
0000
0100
0000
0000
0010
,
0001
1000
0101
0001
,
1001
0000
0000
0000
0010
0000
0000
0000
1000
0000
0100
0000
1000
0000
0000
0100
,
0000
0010
0010
0001
0000
0000
0100
0000
,
1001
0010
1000
0010
,
1001
0000
0000
0101
0000
0000
0011
0000
,
1001
1000
0010
0100
,
1000
0000
0100
0000
0201
0000
0000
0001
,
0301
0010
0100
0110
,
1001
0010
1001
1000
,
1001
1000
0010
0100
,
1000
0000
0100
0001
0010
0000
0100
0000
,
1001
0000
0100
0000
0010
0001
0000
0100
,
0001
0000
1000
0001
0000
1000
0001
0000
,
2001
0000
0000
0000
,
0000
0000
0000
0000
,
3020
0000
0000
0000
,
0000
0000
0000
0000
,
0230
0000
0000
0000
,
0000
0000
0000
0000
,
0300
0000
0000
0000
,
0001
0000
0000
1000
0000
0000
0100
0000
;

//---------------dance-single - ----------------
#NOTES:
     dance-single:
     [Ness]:
     Easy:
     5:
     0.271680,0.284652,0.081621,0.024486,0.000000,220.000000,10.000000,3.000000,0.000000,0.000000,0.000000,0.271680,0.284652,0.081621,0.024486,0.000000,220.000000,10.000000,3.000000,0.000000,0.000000,0.000000:
0000
0000
0000
0000
,
0000
0000
0000
0000
,
0000
0000
0000
0000
,
0000
0000
0000
0000
,
0000
0000
0000
0000
,
0000
0000
0000
0000
,
0000
0000
0000
0000
,
1000
0100
0001
0100
,
1000
0010
1000
0010
,
1000
0010
0001
0010
,
1000
0100
1000
0100
,
1000
0100
0001
0100
,
1000
0010
1000
0100
,
0010
0001
0100
0001
,
0010
0100
1000
0001
,
0100
0010
1000
0100
,
0110
0010
0100
1000
,
0001
1000
0001
0010
,
0100
1000
0010
1000
,
0001
0010
0100
1000
,
0001
0100
0001
0000
1000
0000
0001
0000
,
1000
0010
0100
0001
,
1000
0100
1000
0000
0001
0000
0010
0000
,
0100
1000
0010
0100
,
0001
0100
0001
0000
0010
0000
0100
0000
,
1000
0010
1000
0100
,
0010
0100
0010
0000
0001
0000
1000
0000
,
0010
0100
0010
0100
,
1001
0100
0010
0100
,
1001
0100
0010
0100
,
1001
0100
0010
0100
,
1001
0100
0010
0100
,
1001
0100
0010
0100
,
1001
0100
0010
0100
,
1001
0100
0010
0100
,
1001
1000
0001
1000
,
0010
1000
0100
0010
,
0100
0100
0010
0000
,
0001
0000
0100
0000
,
0000
0010
0000
0000
0000
1000
0000
0000
,
0000
0100
0000
0000
0000
0000
0001
0000
,
0000
0001
0000
1000
,
0000
0001
0000
0100
,
0000
0010
0010
0100
,
0010
0100
0000
0000
,
0110
0100
0100
0100
,
0001
1000
0001
1000
,
0010
0100
0001
0100
,
1000
0100
0001
0010
,
0100
0000
0010
0000
0001
0100
1000
0000
,
0001
1000
0010
0100
,
0001
1000
0001
0010
,
0100
1000
0010
0100
,
0001
0000
0010
0000
0100
1000
0001
0000
,
0100
0010
0100
0001
,
0010
0100
1000
0010
,
1000
0100
0010
0001
,
1000
0000
0001
0000
1000
0100
0001
0000
,
0100
0010
0001
0100
,
0010
1000
0001
1000
,
0010
0100
0001
0010
,
0100
0000
1000
0000
0001
1000
0010
0000
,
0200
0000
0000
0000
,
0300
0000
0000
0000
,
0020
0000
0000
0000
,
0030
0000
0000
0000
,
2000
0000
0000
0000
,
3000
0000
0000
0000
,
0000
0000
0000
0000
,
0001
0000
0000
1000
0000
0000
0100
0000
;

//---------------dance-single - ----------------
#NOTES:
     dance-single:
     [Ness]:
     Beginner:
     1:
     0.100277,0.140796,0.000000,0.000000,0.000000,86.000000,0.000000,0.000000,0.000000,0.000000,0.000000,0.100277,0.140796,0.000000,0.000000,0.000000,86.000000,0.000000,0.000000,0.000000,0.000000,0.000000:
0000
0000
0000
0000
,
0000
0000
0000
0000
,
0000
0000
0000
0000
,
0000
0000
0000
0000
,
0000
0000
0000
0000
,
0000
0000
0000
0000
,
0000
0000
0000
0000
,
0010
0000
0010
0000
,
1000
0000
0000
0000
,
0100
0000
0000
0000
,
1000
0000
0000
0000
,
0001
0000
0000
0000
,
0100
0000
0000
0000
,
0001
0000
0000
0000
,
1000
0000
0000
0000
,
0100
0000
0000
0000
,
0010
0000
0010
0000
,
0010
0000
0000
0000
,
0100
0000
0100
0000
,
0100
0000
0000
0000
,
1000
0000
0000
0000
,
0001
0000
0000
0000
,
1000
0000
0000
0000
,
0001
0000
0000
0000
,
1000
0000
0000
0000
,
0001
0000
0000
0000
,
1000
0000
0000
0000
,
0001
0000
0000
0000
,
0010
0000
0010
0000
,
0010
0000
0010
0000
,
0010
0000
0010
0000
,
0010
0000
0010
0000
,
0100
0000
0100
0000
,
0100
0000
0100
0000
,
0100
0000
0100
0000
,
0100
0000
0100
0000
,
0010
0000
0010
0000
,
0100
0000
0100
0000
,
0001
0000
0001
0000
,
0000
0000
1000
0000
,
0000
0000
0000
0100
,
0000
0100
0000
0010
,
0000
0010
0000
0010
,
0000
0001
0000
1000
,
0000
0001
0000
0000
,
0100
0100
0100
0100
,
0100
0000
0000
0000
,
0010
0000
1000
0000
,
1000
0000
0000
0000
,
0100
0000
0010
0000
,
0100
0000
0000
0000
,
0000
0000
1000
0000
,
0001
0000
0000
0000
,
0100
0000
0010
0000
,
0100
0000
0000
0000
,
0100
0000
0001
0000
,
0001
0000
0000
0000
,
1000
0000
0001
0000
,
1000
0000
0000
0000
,
0000
0000
0100
0000
,
0010
0000
0000
0010
,
0010
0000
0001
0000
,
1000
0000
0000
0000
,
0000
0000
0000
0000
,
0001
0000
0000
0000
,
0000
0000
0000
0000
,
1000
0000
0000
0000
,
0000
0000
0000
0000
,
0000
0000
0000
0000
,
0010
0000
0000
0000
;

//---------------dance-double - ----------------
#NOTES:
     dance-double:
     [Ness]:
     Hard:
     9:
     0.572511,0.654700,0.204052,0.220376,0.465238,439.000000,25.000000,27.000000,0.000000,0.000000,0.000000,0.572511,0.654700,0.204052,0.220376,0.465238,439.000000,25.000000,27.000000,0.000000,0.000000,0.000000:
00000000
00000000
00000000
00000000
,
00000000
00000000
00000000
00000000
,
00000000
00000000
00000000
00000000
,
00000000
00000000
00000000
00000000
,
00000000
00000000
00000000
00000000
,
00000000
00000000
00000000
00000000
,
00000000
00000000
00000000
00000000
,
00011000
00000000
00000000
00010000
00001000
00000000
00000000
00001000
00010000
00000000
00011000
00000000
00011000
00000000
00010000
00001000
,
00010000
00000000
00000100
00000000
00000100
00000010
00000000
00000100
00000000
00000000
00000010
00000000
00000001
00000000
00000100
00000001
,
00000000
00000000
00000100
00000000
00000010
00001000
00000000
00000010
00000000
00000000
00001000
00000000
00000100
00000000
00010000
00000100
,
00000000
00000000
00010000
00000000
00001000
00010000
00000000
00001000
00000000
00000000
01000000
00000000
00100000
00000000
10000000
00100000
,
00000000
00000000
10000000
00000000
01000000
10000000
00000000
01000000
00000000
00000000
00100000
00000000
00001000
00000000
00010000
00001000
,
00000000
00000000
00010000
00000000
00000010
00000100
00000000
00000010
00000000
00000000
00000100
00000000
00000001
00000000
00001000
00000001
,
00000000
00000000
00000010
00000000
00000001
00000010
00000000
00000100
00000000
00000000
00010000
00000000
00001000
00000000
00010000
00001000
,
00000000
00000000
01000000
00000000
00010000
10000000
00000000
01000000
00000000
00000000
00010000
00000000
01000000
00000000
00100000
00010000
,
00000000
00000000
01000000
00000000
00001000
00010000
00000000
00001000
00000000
00000000
00010000
00000000
00000100
00000000
00000010
00000001
,
00000010
00000000
00000010
00000000
00000000
00000000
00000000
00000001
00000000
00000100
00000001
00000000
00000000
00000000
00001000
00000000
,
00000100
00000000
00001100
00000000
00000000
00000000
00000000
00000000
00000100
00000000
00000000
00010000
00000000
00001000
00010000
00001000
,
00010000
00000000
00011000
00000000
00000000
00000000
00000000
01000000
00000000
00100000
01000000
00000000
00000000
00000000
00100000
00000000
,
10000000
00000000
10100000
00000000
00000000
00000000
00000000
00000000
10000000
00000000
00000000
00010000
00000000
00100000
00010000
00100000
,
00010000
00000000
01000000
00000000
00010000
00000000
00000000
00010000
00000000
00000000
00100000
00000000
00001000
00000000
00010000
00000000
,
00000000
00000000
00000010
00000000
00000100
00000000
00000000
00000100
00000000
00000000
00000001
00000000
00000010
00000000
00000100
00000000
,
00000000
00000000
00000010
00000000
00000001
00000000
00000000
00000001
00000000
00000000
00001000
00000000
00000100
00000000
00000010
00000000
,
00000000
00000000
00000100
00000000
00010000
00000000
00000000
00001000
00000000
00000000
01000000
00000000
00100000
00000000
01000000
00000000
,
00000000
00000000
00010000
00000000
00100000
00000000
00000000
01000000
00000000
00000000
10000000
00000000
00100000
00000000
10000000
00000000
,
00000000
00000000
00010000
00000000
00100000
00000000
00000000
00001000
00000000
00000000
00010000
00000000
00000010
00000000
00000100
00000000
,
00000000
00000000
00000001
00000000
00000010
00000000
00000000
00000110
00000000
00000000
00000100
00000000
00010000
00000000
00001000
00000000
,
00000000
00000000
01000000
00000000
00100000
00000000
00000000
01100000
00000000
00000000
00100000
00000000
10000000
00000000
00010000
00000000
,
00200000
00010000
00310000
00000000
01000000
00001000
00010000
00000100
,
00002000
00000010
00003010
00000000
00001000
00000100
00010000
00001000
,
02000000
00100000
03100000
00000000
01000000
00010000
00100000
00001000
,
00020000
00000010
00030010
00000000
00010000
00001000
01000000
00010000
,
00200000
00010000
00310000
00000000
01000000
00010000
00100000
00001000
,
00020000
00000100
00030100
00000000
00010000
00000100
00001000
00000010
,
00002000
00000100
00003100
00000000
00001000
00000100
00010000
00001000
,
02000000
00010000
03010000
00000000
10000000
00010000
01000000
00000000
,
01010000
00000000
01000000
00000000
00100000
00000000
00000000
10000000
00010000
10000000
00010000
10000000
00010000
10000000
00000000
00000000
,
01000000
00000000
00100000
00000000
00001000
00000000
00001000
00000000
00001000
00000000
00000000
01000000
00001000
00010000
00001000
00010000
,
00000100
00000000
00000100
00000000
00000010
00000000
00000000
00000001
00001000
00000001
00001000
00000001
00001000
00000001
00000000
00000000
,
00000000
00000100
00000000
00000100
00000000
00000000
00001001
00000000
00000000
00000000
00000001
00001000
00000001
00001000
00000000
00000000
,
00000100
00010000
00001000
00001000
00001000
00001000
00101000
00011000
,
01001000
00000000
00000000
00000000
01000000
00100000
01000000
00100000
01000000
00000000
00000000
00100000
00000000
00100000
10000000
00100000
,
10000000
00000000
10000000
00000000
01000000
00000000
00000000
01000000
00010000
00000000
00010000
00000000
00100000
00000000
00100000
00000000
,
00001000
00001000
00000010
00000010
00000001
00000100
00001000
00000001
,
00000010
00000000
00001000
00000000
00010000
00001000
00010000
01000000
00000000
00000000
00000000
00000000
00000000
00000000
00000000
00000000
,
10010000
00001000
00001001
00010000
,
00011000
00000000
00001000
00000000
01000000
00010000
00000000
01000000
00000000
00000000
00100000
00000000
10000000
00000000
01000000
00100000
,
00000000
00001000
00010000
00000100
00002100
00000000
00003100
00000010
,
00001001
00000000
00000001
00000000
00000100
00000001
00000000
00000100
00000000
00000000
00000010
00000000
00010000
00000000
00001000
00010000
,
00002000
00000000
01000000
00000000
01003000
00000000
00000000
01000000
00200000
00000000
10000000
00000000
10300000
00000000
10000000
01000000
,
00000000
00000000
00100000
00000000
00001000
00010000
00000000
00001000
00000000
00000000
00010000
00000000
00000010
00000000
00000100
00000001
,
00000000
00000000
00000010
00000000
00000001
00001000
00000000
00000001
00000000
00000000
00000010
00000000
00000100
00000000
00010000
00001000
,
00000000
00000000
01000000
00000000
00010000
10000000
00000000
00010000
00000000
00000000
00100000
00000000
01000000
00000000
10000000
00100000
,
00000000
00000000
10000000
00000000
00100000
10000000
00000000
00010000
00000000
00000000
00110000
00000000
00110000
00000000
00001000
00100000
,
00000000
00000000
00001000
00000000
00010000
00001000
00000000
00010000
00000000
00000000
00000100
00000000
00000010
00000000
00000001
00000100
,
00000000
00000000
00001000
00000000
00000100
00000001
00000000
00000100
00000020
00000000
00000000
00000000
00010030
00000000
00001000
00000000
,
00011000
00000000
00001000
00000000
01000000
00010000
00000000
01000000
00000000
00000000
00100000
00000000
10000000
00000000
01000000
00100000
,
02000000
00000000
10000000
00000000
13000000
00010000
00000000
10000000
00020000
00000000
01000000
00000000
01030000
00000000
00010000
01000000
,
00010000
00000000
00100000
00000000
00001000
00100000
00000000
00001000
00000000
00000000
00010000
00000000
00000010
00000000
00001000
00000010
,
00000000
00000000
00000100
00000000
00000001
00000100
00000000
00000001
00000000
00000000
00000010
00000000
00000100
00000000
00010000
00001000
,
00000000
00000000
00010000
00000000
00001000
01000000
00001000
01000000
00000000
00100000
01000000
00100000
01000000
00000000
00100000
10000000
,
00100000
00000000
10000000
00010000
10000000
00000000
01000000
00100000
01000000
00100000
00001000
00000000
00010000
00000000
00001000
00000010
,
00000000
00000002
00000000
00000000
00000000
00000200
00000000
00000003
,
00000000
00000000
00000020
00000000
00000000
00000000
00000300
00000000
00000000
00000000
00020000
00000000
00000000
00000000
00000000
00030030
,
00000000
00022000
00000000
00000000
00030000
02000000
00000000
00003000
,
00000000
00000000
00200000
00000000
00000000
00000000
03000000
00000000
00000000
00000000
20000000
00000000
00000000
00000000
00000000
30300000
,
00000000
20000000
00000000
00000000
00000000
02000000
00000000
30000000
,
00000000
00000000
00200000
00000000
00000000
00000000
03000000
00000000
00000000
00000000
00002000
00000000
00000000
00000000
00000000
00303000
,
00000000
00000000
00000000
00000000
,
10010000
00000000
00000000
00011000
00000000
00000000
00001001
00000000
;

//---------------dance-double - ----------------
#NOTES:
     dance-double:
     [Ness]:
     Medium:
     7:
     0.381285,0.370048,0.204052,0.097945,0.036729,290.000000,25.000000,12.000000,0.000000,0.000000,0.000000,0.381285,0.370048,0.204052,0.097945,0.036729,290.000000,25.000000,12.000000,0.000000,0.000000,0.000000:
00000000
00000000
00000000
00000000
,
00000000
00000000
00000000
00000000
,
00000000
00000000
00000000
00000000
,
00000000
00000000
00000000
00000000
,
00000000
00000000
00000000
00000000
,
00000000
00000000
00000000
00000000
,
00000000
00000000
00000000
00000000
,
00001000
00000000
00000000
00001000
00010000
00000000
00000000
00010000
00001000
00000000
00010000
00000000
00001000
00000000
00000000
00000000
,
00011000
00000000
01000000
00000000
00010000
10000000
00010000
00000000
,
00100000
00001000
00010000
00000010
,
00000100
00000000
00000001
00000000
00001000
00000001
00000100
00000000
,
00000010
00001000
00000100
00010000
,
00001000
00000000
01000000
00000000
00100000
10000000
01000000
00000000
,
10000000
00010000
00100000
00001000
,
00010000
00000000
00000010
00000000
00001000
00000001
00000010
00000000
,
00000100
00010000
00001000
01000000
,
00010000
00010000
00100000
00000000
00010000
01000000
00010000
00000000
,
10000000
10000000
01000000
00000000
00100000
00000000
00011000
00000000
,
00000100
00000100
00000010
00000000
00000001
00000100
00000001
00000000
,
00001000
00001000
00000010
00000000
00010000
00000000
00011000
00000000
,
01000000
01000000
00100000
00000000
10000000
00010000
01000000
00000000
,
00010000
00010000
00100000
00000000
00001000
00000000
00011000
00000000
,
00010000
00010000
00000010
00000000
00000100
00000001
00001000
00000000
,
00000010
00000010
00000100
00000000
00000010
00000000
00001001
00000000
,
00001000
00001000
00000100
00000000
00010000
00001000
01000000
00000000
,
00010000
00010000
00100000
00000000
01000000
00000000
10010000
00000000
,
10000000
10000000
00100000
00000000
01000000
00010000
10000000
00000000
,
01000000
01000000
00100000
00000000
00001000
00010000
00011000
00000000
,
00000100
00001000
00000001
00001100
,
00000010
00010000
00001000
00110000
,
01000000
00010000
10000000
00110000
,
01000000
00100000
10000000
01010000
,
00001000
00010000
00000100
00001010
,
00000001
00001000
00000010
00001100
,
00000100
00010000
00001000
01010000
,
01000000
00000000
00100000
00000000
10000000
00010000
00100000
00000000
,
00110000
00000000
00100000
00000000
00010000
00000000
00000000
01000000
00000000
00000000
00000000
01000000
00000000
00000000
00000000
00000000
,
00100000
10000000
00010000
00000000
00100000
00000000
00011000
00000000
,
00000100
00000000
00001000
00000000
00000010
00000000
00000000
00000100
00000000
00000000
00000000
00000100
00000000
00000000
00000000
00000000
,
00000000
00000010
00000000
00000000
00000000
00000000
00001001
00000000
00001000
00000000
00000100
00000000
00000000
00000000
00000000
00000000
,
00010000
00001000
00010000
00000000
00000000
00000000
01100000
00100000
,
01000000
00000000
00000000
00000000
00100000
00000000
00100000
00000000
00100000
00000000
00000000
00100000
00000000
00000000
00100000
00000000
,
10000000
00000000
00000000
00000000
10000000
00000000
00000000
00010000
01000000
00000000
00000000
00000000
01000000
00000000
00000000
00000000
,
00001000
00000000
00010000
00000000
00000100
00000010
00000100
00000010
,
00000100
00000010
00000100
00000010
00000000
00000000
00000000
00000000
,
00000001
00000010
00001000
00000010
,
00001001
00000100
00000010
00000000
00001000
00000000
00001100
00000000
,
00000100
00010000
00001000
00000000
01000000
00000000
00010000
10000000
,
00010000
00000000
00100000
00000000
01000000
10000000
01000000
00000000
,
10010000
00010000
01100000
00100000
,
00001000
00010000
00001000
00000000
00010000
00000000
00000100
00000000
,
00000010
00000100
00000010
00000000
00000001
00000000
00000100
00000000
,
00000001
00001000
00000001
00000000
00001000
00000000
00000100
00000000
,
00010000
00001000
01000000
00000000
00010000
01000000
00100000
00000000
,
10000000
01000000
00100000
00000000
00001000
00000000
00010000
00000000
,
00000100
00000010
00000001
00000000
00001000
00000000
00000001
00001000
,
00000010
00000100
00000010
00000000
00010000
00000000
00001000
00000000
,
00011000
01000000
01100000
00010000
,
10010000
00010000
10000000
00000000
00100000
00000000
10000000
00000000
,
01000000
00100000
00001000
00010000
00000000
00000000
00001000
00000000
,
00010000
00000100
00001000
00000000
00000010
00000100
00000001
00000000
,
00000010
00000001
00001000
00000000
00000100
00010000
00001000
00000000
,
00000000
00002000
00000000
00000000
00000000
02003000
00000000
00000000
,
00000000
03200000
00000000
00000000
00000000
20300000
00000000
00000000
,
00000000
32000000
00000000
00000000
00000000
03200000
00000000
00000000
,
00000000
00302000
00000000
00000000
00000000
00023000
00000000
00000000
,
00000000
00030200
00000000
00000000
00000000
00000320
00000000
00000000
,
00000000
00000230
00000000
00000000
00000000
00020300
00000000
00000000
,
00000000
00030000
00000000
00000000
00000000
00000000
00000000
00000000
,
00100000
00000000
00000000
10000000
00000000
00000000
00010000
00000000
;

//---------------dance-double - ----------------
#NOTES:
     dance-double:
     [Ness]:
     Easy:
     5:
     0.290336,0.284652,0.122431,0.065297,0.000000,226.000000,15.000000,8.000000,0.000000,0.000000,0.000000,0.290336,0.284652,0.122431,0.065297,0.000000,226.000000,15.000000,8.000000,0.000000,0.000000,0.000000:
00000000
00000000
00000000
00000000
,
00000000
00000000
00000000
00000000
,
00000000
00000000
00000000
00000000
,
00000000
00000000
00000000
00000000
,
00000000
00000000
00000000
00000000
,
00000000
00000000
00000000
00000000
,
00000000
00000000
00000000
00000000
,
00000100
00000010
00000100
00001001
,
00000001
00001000
00000100
00000100
,
00010000
00001000
00100000
00010000
,
01000000
00100000
10000000
10000000
,
01000000
00100000
00001000
00010000
,
00000100
00000010
00000001
00000001
,
00000010
00000100
00010000
00001000
,
01000000
00010000
10000000
10000000
,
00100000
10000000
01000000
00100000
,
01000000
01000000
00000000
00000000
10000000
00000000
10000000
00000000
,
00010000
00010000
01000000
01000000
,
00001000
00001000
00000000
00000000
00010000
00000000
00010000
00000000
,
00000010
00000010
00000100
00000100
,
00000001
00000010
00000100
00000000
,
00010000
00001000
01000000
00000000
,
00010000
10000000
01000000
00000000
,
00100000
00001000
00010000
00000000
,
00000010
00001000
00000100
00000000
,
00000010
00000001
00001000
00000000
,
00000001
00000100
00000010
00000000
,
00010000
00001000
01000000
00000000
,
10010000
01000000
00010000
01000000
,
10010000
01000000
00010000
01000000
,
01010000
01000000
00001000
01000000
,
01010000
01000000
00001000
01000000
,
00011000
00000100
00010000
00000100
,
00011000
00000100
00010000
00000100
,
00001100
00000010
00001000
00000010
,
00001100
00000010
00000100
00000001
,
00001001
00000010
00000100
00000100
,
00000010
00000000
00001000
00001000
,
00000100
00010000
00001000
00001000
,
01000000
00000000
00000000
01000000
00000000
01000000
00000000
00000000
,
00000000
00000000
00000000
00000000
00000000
00000000
00010000
00010000
,
00010000
00000000
10000000
00010000
10000000
00000000
01000000
00000000
,
00010000
00001000
00000010
00000001
,
00001000
00000010
00000210
00000010
,
00000010
00000310
00000000
00000000
,
00000210
00000010
00000010
00000310
,
00010000
00001000
01000000
00100000
,
10000000
00000000
01000000
00000000
00100000
00000000
00010000
01000000
,
00010000
10000000
00100000
01000000
,
00001000
00010000
00000100
00000010
,
00000001
00000100
00000010
00001000
,
00000001
00000000
00001000
00000100
00001000
00000000
00000100
00000000
,
00001001
00000100
00010000
00001000
,
01000000
00010000
10000000
00010000
,
00100000
01000000
10000000
00100000
,
01000000
00000000
00001000
00000000
00010000
00000000
00000100
00010000
,
00001000
01000000
00100000
10000000
,
00010000
00100000
00001000
00010000
,
00000010
00000100
00000001
00000010
,
00000100
00000000
00010000
00001000
00010000
00000000
00001000
00000000
,
01000000
00100000
10000000
00010000
,
00100000
01100000
00100000
10010000
,
20000000
00000000
31000000
00000000
,
00020000
00000000
00130000
00000000
,
00002000
00000000
00003100
00000000
,
00000002
00000000
00000013
00000000
,
00000200
00000000
00001300
00000000
,
00000002
00000000
00000103
00000000
,
00000000
00000000
00000000
00000000
,
00000010
00000000
00000000
00000100
00000000
00000000
00000001
00000000
;
