#TITLE:Superflat;
#SUBTITLE:;
#ARTIST:The M Machine;
#TITLETRANSLIT:;
#SUBTITLETRANSLIT:;
#ARTISTTRANSLIT:;
#GENRE:Superflat;
#CREDIT:;
#BANNER:Superflat-bn.png;
#BACKGROUND:Superflat-bg.png;
#LYRICSPATH:;
#CDTITLE:;
#MUSIC:Superflat.mp3;
#OFFSET:-0.023000;
#SAMPLESTART:60.008759;
#SAMPLELENGTH:14.995323;
#LASTBEATHINT:284.000000;
#SELECTABLE:YES;
#DISPLAYBPM:128.000000;
#BPMS:0.000000=128.039993
,220.000000=64.019997
,222.000000=128.039993
;
#STOPS:268.000000=0.117000,
268.250000=0.351000
;
#BGCHANGES:;
#KEYSOUNDS:;
#ATTACKS:;

//---------------dance-single - ----------------
#NOTES:
     dance-single:
     :
     Hard:
     9:
     0.559820,0.627311,0.169419,0.110491,0.383035,532.000000,509.000000,23.000000,15.000000,0.000000,0.000000,0.559820,0.627311,0.169419,0.110491,0.383035,532.000000,509.000000,23.000000,15.000000,0.000000,0.000000:
// measure 0
0000
0000
0000
0000
,  // measure 1
0000
0000
0000
0000
,  // measure 2
0000
0000
0000
0000
,  // measure 3
0000
0000
0000
0000
,  // measure 4
0100
0001
0010
1000
,  // measure 5
0001
0000
1000
0001
0100
0000
0010
0000
,  // measure 6
1000
0000
0001
1000
0100
0000
0010
0000
,  // measure 7
0002
0000
0000
0103
,  // measure 8
0010
0000
1000
0000
0100
0000
1000
0000
0010
0100
0000
0001
0000
0000
1000
0000
,  // measure 9
0010
0000
1000
0000
0001
0000
1000
0000
0010
0100
0000
0001
0000
0000
0000
0000
,  // measure 10
0001
0000
0100
0000
1000
0000
0100
0000
0010
1000
0000
0001
0000
0000
1000
0000
,  // measure 11
0010
0000
0100
0000
0001
0000
1000
0000
0010
0100
0000
0001
0000
0000
1000
0001
,  // measure 12
1000
0000
0100
0000
0001
0000
0100
0000
1000
0001
0000
0010
0000
0000
0001
0000
,  // measure 13
1000
0000
0100
0000
0001
0000
0100
0000
1000
0001
0000
0010
0000
0000
0000
0000
,  // measure 14
0001
0000
0100
0000
1000
0000
0100
0000
0001
1000
0000
0001
0000
0000
0010
0000
,  // measure 15
0100
0000
1000
0000
0010
0000
0100
0000
0001
1000
0000
0100
0000
0000
0000
0000
,  // measure 16
0010
0000
0001
0000
1000
0000
0100
0010
0000
0001
0000
0001
0100
0000
0010
0000
,  // measure 17
1000
0000
0001
0000
1000
0000
0100
0010
0000
0001
0000
1000
0010
0000
0000
0000
,  // measure 18
0100
0000
0001
0000
1000
0000
0100
0010
0000
0001
0000
1000
0000
0010
0100
0000
,  // measure 19
0010
0000
1000
0000
0100
0000
0010
0001
0000
1000
0000
0010
0100
0000
0001
0000
,  // measure 20
1000
0000
0100
0000
0010
0000
0001
1000
0000
0001
0000
0100
0010
0000
1000
0000
,  // measure 21
0100
0000
0010
0000
0001
0000
1000
0010
0000
1000
0000
0100
0010
0000
0001
0000
,  // measure 22
1000
0000
0001
0000
0100
0000
0000
0010
0000
1000
0000
0001
0000
0000
1000
0000
,  // measure 23
0100
0000
0010
0000
0001
0000
0000
1000
0000
0001
0000
0100
0000
0000
0000
0000
,  // measure 24
1000
0100
1000
0000
0001
0100
0001
0000
1000
0100
1000
0000
0001
0000
1000
0000
,  // measure 25
0001
0010
0001
0000
1000
0010
1000
0000
0001
0010
0001
0000
1000
0000
0001
0000
,  // measure 26
1000
0100
0010
0000
0001
0010
0100
0000
1100
0000
0000
0000
0101
0000
0000
0000
,  // measure 27
0001
0100
0010
0000
1000
0010
0100
0000
0002
0000
0000
0000
1003
0000
0000
0000
,  // measure 28
0100
0001
0100
0000
1000
0010
1000
0000
0100
0001
0100
0000
1000
0000
0001
0000
,  // measure 29
1000
0100
1000
0000
0010
0001
0010
0000
1000
0100
1000
0000
0001
0000
1000
0000
,  // measure 30
0010
1000
0001
0000
0001
1000
0100
0000
0011
0000
0000
0000
1100
0000
0000
0000
,  // measure 31
0010
0100
0001
0000
1000
0001
0100
0000
0020
0000
0000
0000
0030
0000
0000
0000
,  // measure 32
1000
0100
0001
0100
0010
0001
0100
0010
,  // measure 33
1000
0010
0100
0001
1000
0001
0100
0010
,  // measure 34
1100
0000
0011
0000
1100
0000
0010
0100
,  // measure 35
1010
0000
0000
0000
0101
0000
0000
0000
1010
0000
0000
0000
0001
0100
0000
0000
,  // measure 36
0010
1000
0100
1000
0001
0010
0001
0100
,  // measure 37
0010
1000
0100
1000
0001
0100
0010
0100
,  // measure 38
0101
0000
1010
0000
0101
0000
0010
1000
,  // measure 39
0011
0000
1010
0000
0012
0020
0033
0000
,  // measure 40
0100
0000
0001
0000
1000
0000
0001
0100
0000
0010
0000
0010
1000
0000
0100
0000
,  // measure 41
0010
0000
0001
0000
1000
0000
0100
0010
0000
0100
0000
0100
1000
0000
0001
0000
,  // measure 42
0100
0000
0010
0000
1000
0000
0001
0100
0000
0010
0000
0010
1000
0000
0100
0000
,  // measure 43
0010
0000
0001
0000
1000
0000
0010
1000
0000
0001
0000
1000
0100
0000
0000
0000
,  // measure 44
0010
0000
1000
0000
0001
0000
1000
0010
0000
0100
0000
0100
0001
0000
0010
0000
,  // measure 45
0100
0000
1000
0000
0001
0000
0010
0100
0000
0010
0000
0010
0001
0000
1000
0000
,  // measure 46
0010
0000
0100
0000
0001
0000
1000
0010
0000
0100
0000
0100
0001
0000
0010
0000
,  // measure 47
0100
0000
1000
0000
0001
0000
0100
0001
0000
1000
0000
0001
0000
0000
0010
0100
,  // measure 48
0010
0001
1000
0001
0100
0001
1000
0000
,  // measure 49
0010
1000
0100
1000
0001
0100
0001
1000
,  // measure 50
2000
0000
3002
0000
0203
0000
1300
0001
,  // measure 51
0200
0000
0000
0000
0302
0000
0000
0000
0023
0000
0000
0000
0130
0001
0000
0000
,  // measure 52
0100
1000
0010
0100
0001
1000
0010
0000
,  // measure 53
0100
0001
0010
0100
0010
0001
1000
0100
,  // measure 54
0200
0000
0302
0000
2003
0000
3010
0001
,  // measure 55
0020
0000
0000
0000
0130
1000
0001
0100
,  // measure 56
0001
0010
0100
0000
0010
0001
1000
0010
,  // measure 57
0100
0001
1000
0000
0001
1000
0010
0100
,  // measure 58
0001
0100
0001
0000
0001
0010
0100
1000
,  // measure 59
0001
0010
0001
0000
0010
0001
1000
0001
,  // measure 60
0100
1000
0100
1001
0010
1000
0001
1000
,  // measure 61
0100
0001
0100
1001
0010
1000
0100
0001
,  // measure 62
1000
0010
0001
0010
1000
0010
0100
0001
,  // measure 63
0010
0000
1000
0000
0001
0000
1000
0100
1000
0000
0001
0000
0100
0000
0000
0100
,  // measure 64
0001
0000
0000
0001
1000
0000
1001
0000
0001
0000
0010
0000
0001
0000
0000
0001
,  // measure 65
1000
0000
0000
1000
0010
0000
1001
0000
0010
0000
0100
0000
0001
0000
0000
0001
,  // measure 66
0010
0000
0100
1000
0100
0000
1000
0000
0001
0000
1000
0000
0010
0000
0000
0100
,  // measure 67
0001
0000
1000
0000
0100
0000
0010
0000
0001
0000
0000
0001
0100
0000
0000
0100
,  // measure 68
0010
0000
1001
0000
1000
0000
0010
0000
1000
0000
0000
0001
0100
0000
0000
0001
,  // measure 69
1000
0000
1001
0000
0001
0000
0010
0000
0100
0000
0000
1000
0010
0000
0100
0001
,  // measure 70
0100
0000
0000
0000
0010
0000
0000
0000
1000
0000
0000
0000
0100
0000
0000
0000
0010
0000
0000
0000
0000
0000
0000
0000
0100
0000
0000
0000
0000
0000
0000
1001
;

//---------------dance-single - ----------------
#NOTES:
     dance-single:
     :
     Medium:
     6:
     0.368302,0.418392,0.213615,0.095759,0.000000,350.000000,321.000000,29.000000,13.000000,0.000000,0.000000,0.368302,0.418392,0.213615,0.095759,0.000000,350.000000,321.000000,29.000000,13.000000,0.000000,0.000000:
// measure 0
0000
0000
0000
0000
,  // measure 1
0000
0000
0000
0000
,  // measure 2
0000
0000
0000
0000
,  // measure 3
0000
0000
0000
0000
,  // measure 4
0100
0001
0010
0100
,  // measure 5
0010
0000
0010
0001
1000
0000
0100
0000
,  // measure 6
0010
0000
0010
0001
1000
0000
0100
0000
,  // measure 7
0020
0000
0000
0031
,  // measure 8
1000
0001
0100
1001
,  // measure 9
0010
1000
0010
1001
,  // measure 10
0100
0001
1000
1001
,  // measure 11
0010
0100
0010
1001
,  // measure 12
0010
1000
0010
0000
0100
0000
0100
0000
,  // measure 13
0001
1000
0001
0000
0010
0000
0100
0000
,  // measure 14
1000
0100
1000
0000
0010
0000
0010
0000
,  // measure 15
0100
0001
0100
0000
0010
0000
1000
0000
,  // measure 16
0001
0010
0001
0000
0010
0010
0010
0000
,  // measure 17
0100
1000
0100
0000
1000
1000
1000
0000
,  // measure 18
0010
1000
0010
0000
0100
0100
0100
0000
,  // measure 19
0001
1000
0001
0000
0010
0010
0010
0000
,  // measure 20
0001
1000
0001
0010
0100
0000
1001
0000
,  // measure 21
1000
0001
1000
0100
0010
0000
1001
0000
,  // measure 22
0001
1000
0001
0100
0010
0000
1001
0000
,  // measure 23
0010
0100
0010
1000
0001
0000
1000
0000
,  // measure 24
0001
0010
0001
0010
0001
0010
0001
0000
,  // measure 25
0001
0100
0001
0100
0001
0100
0001
0000
,  // measure 26
0001
1000
0001
1000
0001
0000
1001
0000
,  // measure 27
1000
0001
1000
0001
1000
0000
0000
0000
,  // measure 28
0010
1000
0010
1000
0010
1000
0010
0000
,  // measure 29
0010
0001
0010
0001
0010
0001
0010
0000
,  // measure 30
0010
0100
0010
0100
0010
0000
0010
0000
,  // measure 31
0010
1000
0010
1000
0010
0000
0000
0000
,  // measure 32
1000
0010
0100
0110
,  // measure 33
0001
0010
0100
0110
,  // measure 34
0002
2003
3100
1001
,  // measure 35
2000
3002
1003
1001
,  // measure 36
0010
1000
0010
0110
,  // measure 37
1000
0001
0100
1001
,  // measure 38
0200
0302
0013
0011
,  // measure 39
0020
0230
1300
0000
,  // measure 40
0001
0100
1000
0100
,  // measure 41
0001
0010
1000
0010
,  // measure 42
0001
0100
0010
1000
,  // measure 43
0100
0010
0001
0000
,  // measure 44
1000
0010
0100
0001
,  // measure 45
0010
0100
1000
0000
,  // measure 46
0001
0010
0100
1000
,  // measure 47
0010
0100
0001
0000
,  // measure 48
1000
0010
1000
0000
0100
0000
1001
0000
,  // measure 49
0001
0010
0001
0000
0100
0000
1001
0000
,  // measure 50
0020
2030
3010
1001
,  // measure 51
0020
0032
0013
1001
,  // measure 52
1000
0001
1000
0000
0010
0000
0110
0000
,  // measure 53
0001
1000
0001
0000
0010
0000
0110
0000
,  // measure 54
1000
0100
0001
0010
,  // measure 55
1001
0000
0000
0000
0001
1000
0001
0000
,  // measure 56
0010
0000
0001
0000
1000
0001
0100
0000
,  // measure 57
1000
0100
1000
0000
0001
0000
1000
0000
,  // measure 58
0001
0100
0001
0000
1000
0000
0001
0000
,  // measure 59
0010
1000
0010
0000
0001
0000
1000
0000
,  // measure 60
0100
0001
0100
0000
1000
0001
0100
0000
,  // measure 61
1000
0001
1000
0000
0010
1000
0001
0000
,  // measure 62
0010
0001
0100
0000
0001
1000
0100
0000
,  // measure 63
0001
1000
0010
0000
0100
0000
0110
0000
,  // measure 64
1000
0000
1001
0000
0001
0010
0001
0000
,  // measure 65
0100
0000
1001
0000
1000
0100
1000
0000
,  // measure 66
0001
0000
1001
0000
0100
0001
1000
0000
,  // measure 67
0010
0100
1010
0010
,  // measure 68
0100
0010
0101
0010
,  // measure 69
1000
0001
0010
0100
,  // measure 70
1000
0001
0010
0100
,  // measure 71
1001
0000
0000
0000
;

//---------------dance-single - ----------------
#NOTES:
     dance-single:
     :
     Easy:
     4:
     0.299903,0.392242,0.309374,0.169419,0.000000,285.000000,243.000000,42.000000,23.000000,0.000000,0.000000,0.299903,0.392242,0.309374,0.169419,0.000000,285.000000,243.000000,42.000000,23.000000,0.000000,0.000000:
0000
0000
0000
0000
,
0000
0000
0000
0000
,
0000
0000
0000
0000
,
0000
0000
0000
0000
,
1000
0100
0010
0001
,
1000
0001
0100
0010
,
1000
0001
0100
0010
,
2000
0000
0000
3000
,
0001
0010
0200
0300
,
1000
0100
2000
3000
,
0010
1000
0020
0030
,
0100
0001
0200
0300
,
0001
1000
0002
0003
,
0010
0001
0020
0030
,
0100
1000
0002
0003
,
0100
1000
0200
0300
,
0010
1000
0010
1000
,
0001
0010
0001
0010
,
0001
0100
0001
0100
,
1000
0100
1000
0100
,
1000
0001
1000
0001
,
1000
0010
1000
0010
,
0001
0100
0001
0100
,
1000
0010
0100
0001
,
1001
1001
2002
3003
,
0110
0110
0220
0330
,
1000
0001
1001
1001
,
0001
1000
2002
3003
,
1010
1010
0011
0000
,
0101
0101
1100
0000
,
0010
0100
1010
0101
,
0001
0010
0011
1100
,
0100
0100
0010
0010
,
0010
0001
1000
1000
,
1010
1010
1001
0000
,
0011
0011
1001
0000
,
0010
1000
0100
0010
,
0001
0100
0010
1000
,
0101
0101
1100
0010
,
1100
1100
0101
0010
,
0100
0100
0010
0010
,
1000
1000
0001
0001
,
0010
0100
0010
0100
,
1000
0001
1000
0001
,
1000
0010
0001
0100
,
0010
1000
0100
0001
,
1000
0001
0100
0010
,
1000
0100
0010
0001
,
2000
0010
3001
0000
,
0002
0010
1003
0000
,
1001
1001
2002
3003
,
1001
1001
2002
3003
,
0002
0100
1003
0000
,
2000
0100
3001
0000
,
0110
0110
0110
0000
,
1001
0000
0010
1000
,
0100
0010
0100
1000
,
0100
0010
0001
0010
,
0100
0010
0001
1000
,
0001
0100
0010
1000
,
0010
0100
0001
0010
,
0100
1000
0001
0010
,
0100
1000
0010
0001
,
0010
1000
0001
0001
,
0100
0010
0100
0100
,
0010
1000
0010
0010
,
1000
0001
1000
1000
,
0100
0010
0010
0001
,
1000
0001
0001
0100
,
0010
1000
1000
0100
,
0010
0100
0100
0010
,
1001
0000
0000
0000
;

//---------------dance-single - ----------------
#NOTES:
     dance-single:
     :
     Beginner:
     1:
     0.163105,0.209196,0.007366,0.036830,0.000000,155.000000,154.000000,1.000000,5.000000,0.000000,0.000000,0.163105,0.209196,0.007366,0.036830,0.000000,155.000000,154.000000,1.000000,5.000000,0.000000,0.000000:
0000
0000
0000
0000
,
0000
0000
0000
0000
,
0000
0000
0000
0000
,
0000
0000
0000
0000
,
0010
0000
1000
0000
,
0100
0100
0100
0000
,
0100
0100
0100
0000
,
0200
0000
0300
0000
,
0010
0000
0010
0000
,
0001
0000
0001
0000
,
1000
0000
1000
0000
,
0100
0000
0100
0000
,
0010
0000
0010
0000
,
0001
0000
0001
0000
,
1000
0000
1000
0000
,
0100
0000
0100
0000
,
0010
0000
0010
0000
,
0001
0000
0001
0000
,
1000
0000
1000
0000
,
0100
0000
0100
0000
,
0010
0000
0010
0000
,
0001
0000
0001
0000
,
1000
0000
1000
0000
,
0010
0000
0010
0000
,
0100
0100
0100
0000
,
1000
1000
1000
0000
,
0001
0000
0010
0010
,
0010
0000
0100
0100
,
0100
0100
0100
0000
,
0010
0010
0010
0000
,
0001
0001
0001
0001
,
0001
0001
0001
0000
,
0100
0000
0010
0000
,
1000
0000
0100
0000
,
0010
0010
0010
0000
,
0010
0010
0010
0000
,
0001
0000
1000
0000
,
0010
0000
0100
0000
,
0001
0001
0001
0000
,
1000
1000
1000
0000
,
0100
0000
0010
0000
,
0001
0000
1000
0000
,
0010
0000
0100
0000
,
0010
0000
1000
0000
,
0200
0300
0010
0000
,
0200
0300
0010
0000
,
0002
0003
1000
0000
,
0002
0003
1000
0000
,
0010
0000
0001
0000
,
0010
0000
1000
0000
,
0100
0100
0100
0000
,
0010
0010
0010
0000
,
0001
0000
1000
0000
,
0001
0000
0100
0000
,
0010
0010
0010
0000
,
1001
0000
1000
0000
,
1000
0000
0100
0000
,
0010
0000
0001
0000
,
0100
0000
0010
0000
,
1000
0000
0100
0000
,
0010
0000
0100
0000
,
0001
0000
0100
0000
,
1000
0000
0010
0000
,
0100
0000
0001
0000
,
0010
0000
1000
0000
,
0010
0000
0001
0000
,
1000
0000
0100
0000
,
0010
0000
0010
0000
,
0001
0001
0001
0000
,
1000
1000
0000
0001
,
0001
0000
0000
0100
,
0100
0000
0000
0000
;
