#TITLE:Super Mario Bros.;
#SUBTITLE:(House Remix);
#ARTIST:近藤浩治;
#TITLETRANSLIT:;
#SUBTITLETRANSLIT:;
#ARTISTTRANSLIT:Koji Kondo;
#GENRE:Super Mario Bros.;
#CREDIT:;
#BANNER:Super Mario Bros (House Remix)-bn.png;
#BACKGROUND:Super Mario Bros (House Remix)-bg.png;
#LYRICSPATH:;
#CDTITLE:;
#MUSIC:Super Mario Bros. (House Remix).mp3;
#OFFSET:-0.022006;
#SAMPLESTART:75.013939;
#SAMPLELENGTH:15.000000;
#LASTBEATHINT:309.000031;
#SELECTABLE:YES;
#BPMS:0.000000=128.000000
;
#STOPS:
;
#BGCHANGES:;
#KEYSOUNDS:;
#ATTACKS:;

//---------------dance-single - ----------------
#NOTES:
     dance-single:
     :
     Challenge:
     10:
     0.660024,0.815706,0.157195,0.027338,1.223388,676.000000,653.000000,23.000000,4.000000,2.000000,0.000000,0.660024,0.815706,0.157195,0.027338,1.223388,676.000000,653.000000,23.000000,4.000000,2.000000,0.000000:
// measure 0
0000
0000
0000
0000
,  // measure 1
0000
0000
0000
0000
,  // measure 2
0000
0000
0000
0000
,  // measure 3
0000
0000
0000
0000
,  // measure 4
0101
0000
0100
0001
0000
1000
0000
0001
0000
0100
0000
0010
1000
0000
0100
0000
,  // measure 5
1000
0000
0010
1000
0000
0001
0000
0001
0000
0010
0000
0100
0010
0000
1001
0000
,  // measure 6
0100
0000
0100
0001
0000
1000
0000
0100
0000
0010
0000
0100
1000
0000
0001
0000
,  // measure 7
1000
0000
1000
0010
0000
0100
0000
0010
0000
1000
0000
0001
0100
0000
0010
1000
,  // measure 8
0100
0000
1000
0001
0000
1000
0000
0010
0000
0010
0000
0100
0001
0000
1000
0000
,  // measure 9
0100
0000
0010
0100
0000
0100
0000
1000
0000
0001
1000
0000
0010
0000
0100
0000
,  // measure 10
0001
0000
0001
0010
0000
0100
0000
1000
0000
0010
0000
0100
0010
0000
1000
0000
,  // measure 11
0100
0000
0010
0001
0000
0010
0000
0100
0000
1000
0001
0000
0100
0000
0010
0000
,  // measure 12
1000
0010
1000
0010
1000
0001
1000
0001
0100
0001
0100
0001
0100
0010
0100
0000
,  // measure 13
0001
0100
0001
0100
0010
1000
0010
1000
0001
1000
0001
1000
0100
1000
0100
0000
,  // measure 14
0010
0100
0010
0100
0010
0001
0010
0001
1000
0001
1000
0001
0100
0001
0100
0000
,  // measure 15
0010
1000
0010
1000
0100
1000
0100
1000
0001
1000
0001
1000
0001
0010
0001
0000
,  // measure 16
0400
0001
0000
0010
0000
1000
0000
0001
0000
0010
0000
1000
0300
0000
0000
0000
,  // measure 17
0040
1000
0000
0100
0000
0001
0000
1000
0000
0001
0000
0100
0030
0000
0000
0000
,  // measure 18
4000
0100
0000
0001
0000
0010
0000
0001
0000
0100
0000
0010
3000
0000
0000
0000
,  // measure 19
0004
1000
0000
0100
0000
0010
0000
0100
0000
1000
0000
0100
0003
0000
0000
0000
,  // measure 20
2002
0000
0000
0000
,  // measure 21
0000
0000
0000
0000
,  // measure 22
3003
0000
0000
0000
,  // measure 23
0000
0000
0000
0000
,  // measure 24
1000
0000
0000
0001
0000
0000
0100
0000
0000
0001
0000
0010
0000
0100
1000
0000
,  // measure 25
0010
0000
0000
0000
1000
0000
0000
0000
0001
0000
0000
0000
0010
0000
0000
0000
0000
0000
0100
0000
0000
1000
0000
0000
0000
0000
0000
0001
0000
0000
0000
0000
0000
0100
0000
0000
0010
0000
0000
0100
0000
0000
0000
0000
0000
0000
0000
0000
,  // measure 26
0001
0000
0000
1000
0000
0000
0100
0000
0000
1000
0000
0010
0000
0100
0001
0000
,  // measure 27
1000
0000
0000
0000
0100
0000
0000
0000
0010
0000
0000
0000
0001
0000
0000
0000
0000
0000
1000
0000
0000
0010
0000
0000
0000
0000
0000
0100
0000
0000
0000
0000
0000
0010
0000
0000
1000
0000
0000
0001
0000
0000
0000
0000
0000
0000
0000
0000
,  // measure 28
0000
0000
0100
0001
1000
0100
0000
0010
0000
0001
0100
0001
0000
0001
0010
0100
,  // measure 29
0000
0000
0010
0001
1000
0100
0000
1000
0000
0010
0000
0010
0100
0000
0001
0000
,  // measure 30
1000
0000
0001
1000
0100
0010
0000
0001
0000
1000
0100
1000
0000
0001
0010
0100
,  // measure 31
0000
0000
1100
0000
0000
0101
0000
0000
1001
0000
0000
0000
0000
0000
0000
0000
,  // measure 32
0000
0000
0010
1000
0010
0100
0000
0001
0000
0010
0100
1000
0000
1000
0100
0010
,  // measure 33
0000
0000
0001
0100
0010
1000
0000
0001
0000
0010
0000
0010
0100
0000
1000
0000
,  // measure 34
0001
0000
1000
0001
0100
0010
0000
1000
0000
0001
0100
0010
0000
0100
0010
1000
,  // measure 35
0000
0000
0101
0000
0000
1100
0000
0000
1001
0000
0000
0000
0000
0000
0000
0000
,  // measure 36
1000
0100
0000
1000
0000
1000
0001
0000
0010
0001
0000
0001
0100
0000
0000
0000
,  // measure 37
0001
0100
0000
0001
0000
0001
1000
0010
0000
0000
0000
0000
0000
0000
0000
0000
,  // measure 38
1000
0100
1000
0100
0010
0100
0010
0100
0010
0001
0010
0001
1000
0001
1000
0001
,  // measure 39
0100
0000
0000
0010
0000
0000
0000
0000
0000
1000
0000
0000
0000
0000
0000
0001
0000
0000
0100
0000
0000
0000
0000
0000
0010
0000
0000
0000
0000
0000
0000
0000
00M0
0000
0000
0000
0100
0000
0000
0000
0000
0000
0000
0000
0M00
0000
0000
0000
,  // measure 40
1010
0000
1000
0100
0000
0100
0010
0000
0001
1000
0000
0010
0000
0100
0001
0000
,  // measure 41
1000
0000
0000
0000
0100
0000
0000
0000
0010
0000
0000
0000
0100
0000
0000
0000
0000
0000
1000
0000
0000
0010
0000
0000
0000
0000
0000
0100
0000
0000
0000
0000
0000
0001
0000
0000
1000
0000
0000
0100
0000
0000
0010
0000
0000
0000
0000
0000
,  // measure 42
0011
0000
0001
1000
0000
0001
0100
0000
0010
1000
0000
0100
0000
0100
0010
0000
,  // measure 43
0001
0000
0000
0000
1000
0000
0000
0000
0010
0000
0000
0000
0100
0000
0000
0000
0000
0000
0001
0000
0000
0010
0000
0000
0000
0000
0000
0100
0000
0000
0000
0000
0000
1000
0000
0000
0100
0000
0000
0010
0000
0000
0000
0000
0000
0000
0000
0000
,  // measure 44
0001
1000
0000
0100
0000
0000
1000
0000
0001
0010
0000
0010
0100
0000
0000
0000
,  // measure 45
1000
0000
0000
0000
0010
0000
0000
0000
0010
0000
0000
0000
0001
0000
0000
0000
1000
0000
0000
0000
1000
0000
0000
0000
0100
0000
0000
0001
0000
0000
0000
0000
0000
0001
0000
0000
0100
0000
0000
0000
0000
0000
0010
0000
0000
0000
0000
0000
,  // measure 46
1000
0010
0000
0100
0000
0000
0001
0000
1000
0100
0000
0100
0010
0000
0000
0000
,  // measure 47
0001
0000
0000
0000
0010
0000
0000
0000
1000
0000
0000
0000
0001
0000
0000
0000
0100
0000
0000
0000
1000
0000
0000
0000
0100
0000
0000
0010
0000
0000
0000
0000
0000
0001
0000
0000
1000
0000
0000
0000
0000
0000
0000
0000
0000
0000
0000
0000
,  // measure 48
0001
0100
0000
0010
0000
0000
1000
0000
0100
0010
0000
0001
1000
0000
0000
0000
,  // measure 49
0001
0000
0000
0000
0100
0000
0000
0000
1000
0000
0000
0000
0001
0000
0000
0000
0010
0000
0000
0000
0100
0000
0000
0000
0001
0000
0000
1000
0000
0000
0000
0000
0000
0001
0000
0000
0100
0000
0000
0000
0000
0000
0000
0000
0000
0000
0000
0000
,  // measure 50
1000
0100
0000
0001
0000
0000
1000
0000
0100
0010
0000
0010
0100
0000
0000
0000
,  // measure 51
1000
0000
0000
0000
0010
0000
0000
0000
0100
0000
0000
0000
0001
0000
0000
0000
1000
0000
0000
0000
0100
0000
0000
0000
0001
0000
0000
0100
0000
0000
0000
0000
0000
0100
0000
0000
1000
0000
0000
0000
0000
0000
0000
0000
0000
0000
0000
0000
,  // measure 52
1000
0100
0000
0010
0000
0100
1000
0000
0001
0010
0000
0100
1000
0000
0000
0000
,  // measure 53
0001
0100
0000
0010
0000
0100
0001
0100
0000
0000
0000
0000
0010
0000
0000
0000
,  // measure 54
1000
0100
0000
0010
0000
0001
0100
0000
0001
0010
0000
0100
1000
0000
0000
0000
,  // measure 55
1000
0001
1000
0001
0100
0010
0100
0010
0100
0001
1000
0001
1000
0000
0000
0000
,  // measure 56
1001
0000
1000
0010
0000
0010
0100
0000
0001
1000
0000
0001
0000
0010
0100
0000
,  // measure 57
1000
0000
0000
0000
0010
0000
0000
0000
0100
0000
0000
0000
0010
0000
0000
0000
0000
0000
1000
0000
0000
0001
0000
0000
0000
0000
0000
0010
0000
0000
0000
0000
0000
0100
0000
0000
1000
0000
0000
0010
0000
0000
0100
0000
0000
0000
0000
0000
,  // measure 58
0101
0000
0100
1000
0000
0100
0010
0000
0001
1000
0000
0010
0000
0010
0100
0000
,  // measure 59
0001
0000
0000
0000
0010
0000
0000
0000
0100
0000
0000
0000
0010
0000
0000
0000
0000
0000
0001
0000
0000
1000
0000
0000
0000
0000
0000
0010
0000
0000
0000
0000
0000
0100
0000
0000
0010
0000
0000
1000
0000
0000
0000
0000
0000
0000
0000
0000
,  // measure 60
0001
0000
1000
0010
0100
0001
0000
0010
0000
0100
1000
0001
0000
0100
0010
1000
,  // measure 61
0001
0000
0100
0010
1000
0100
0000
0010
0000
0001
0000
1000
0100
0000
0010
0000
,  // measure 62
0001
0000
1000
0100
0010
0001
0000
0100
0000
0010
1000
0001
0000
0001
0100
0010
,  // measure 63
0000
0000
1010
0000
0000
0101
0000
0000
1001
0000
0000
1000
0100
0000
0010
0000
,  // measure 64
0001
0000
0100
0010
1000
0001
0000
0011
0000
1000
0100
0010
0000
0100
1000
0001
,  // measure 65
0000
0000
1000
0010
0100
0001
0000
1100
0000
0010
0000
1000
0010
0000
1000
0000
,  // measure 66
0100
0000
0010
0001
1000
0010
0000
0100
0000
0001
1000
0100
0000
0100
1000
0001
,  // measure 67
0000
0000
0011
0000
0000
1001
0000
0000
1100
0000
0000
0000
1001
0000
0000
0000
,  // measure 68
0001
1000
0000
0100
0000
0000
0010
0000
0001
0100
0000
0010
1000
0000
0000
0000
,  // measure 69
1000
0000
0000
0000
0010
0000
0000
0000
0100
0000
0000
0000
0001
0000
0000
0000
0010
0000
0000
0000
1000
0000
0000
0000
0001
0000
0000
0100
0000
0000
0000
0000
0000
1000
0000
0000
0100
0000
0000
0000
0000
0000
0010
0000
0000
0000
0000
0000
,  // measure 70
0001
0100
0000
0010
0000
0000
1000
0000
0100
0010
0000
0100
1000
0000
0000
0000
,  // measure 71
0001
0000
0000
0000
0010
0000
0000
0000
0100
0000
0000
0000
1000
0000
0000
0000
0010
0000
0000
0000
0100
0000
0000
0000
0001
0000
0000
0010
0000
0000
0000
0000
0000
0001
0000
0000
1000
0000
0000
0000
0000
0000
0000
0000
0000
0000
0000
0000
,  // measure 72
0001
0100
0000
0010
1000
0000
1000
0000
0100
0010
0000
0001
0100
0000
0100
0000
,  // measure 73
0010
0000
0000
0000
1000
0000
0000
0000
0100
0000
0000
0000
0010
0000
0000
0000
0001
0000
0000
0000
1000
0000
0000
0000
0010
0000
0000
1000
0000
0000
0000
0000
0000
0001
0000
0000
0100
0000
0000
0000
0000
0000
0100
0000
0000
0000
0000
0000
,  // measure 74
0010
1000
0000
0100
1000
0000
1000
0000
0100
0010
0000
0010
0100
0000
0100
0000
,  // measure 75
1000
0000
0000
0000
0010
0000
0000
0000
0100
0000
0000
0000
0001
0000
0000
0000
1000
0000
0000
0000
0100
0000
0000
0000
0010
0000
0000
0001
0000
0000
0000
0000
0000
1000
0000
0000
0100
0000
0000
0000
0000
0000
0000
0000
0000
0000
0000
0000
,  // measure 76
0202
0000
0000
0000
,  // measure 77
0303
0000
0000
0000
;

//---------------dance-single - ----------------
#NOTES:
     dance-single:
     :
     Hard:
     8:
     0.465727,0.473636,0.102519,0.061511,0.615111,477.000000,462.000000,15.000000,9.000000,0.000000,0.000000,0.465727,0.473636,0.102519,0.061511,0.615111,477.000000,462.000000,15.000000,9.000000,0.000000,0.000000:
0000
0000
0000
0000
,
0000
0000
0000
0000
,
0000
0000
0000
0000
,
0000
0000
0000
0000
,
0101
0000
0000
1000
0000
0001
0000
0100
0000
0001
0000
1000
0001
0000
0000
0000
,
1100
0000
0000
0001
0000
1000
0000
0100
0000
1000
0000
0001
1000
0000
0100
0000
,
1000
0000
0000
0010
0000
1000
0000
0001
0000
1000
0000
0010
1000
0000
0000
0000
,
0001
0000
0000
0100
0000
0010
0000
0100
0000
0001
0000
0100
0010
0000
1000
0000
,
0001
0000
0000
0010
0000
0001
0000
1000
0000
0001
0000
0010
0001
0000
1000
0000
,
0010
0000
0000
1000
0000
0001
0000
1000
0000
0100
1000
0000
0001
0000
0010
0000
,
0001
0000
0000
0100
0000
0010
0000
0100
0000
0001
0000
1000
0100
0000
0010
0000
,
0100
0000
0000
1000
0000
0010
0000
1000
0000
0001
0010
0000
0100
0000
1000
0000
,
1100
0000
0000
0100
0000
1000
0000
0001
0000
0100
0000
0010
0100
0000
0000
0000
,
1010
0000
0000
0010
0000
0100
0000
0010
0000
1000
0000
0001
0010
0000
0000
0000
,
0011
0000
0000
1000
0000
0001
0000
0100
0000
0010
0000
0100
0001
0000
0000
0000
,
1100
0000
0000
0010
0000
0100
0000
0010
0000
1000
0000
0010
0100
0000
0001
0000
,
1000
0000
0000
0100
0000
0010
0000
0001
0000
1000
0000
0010
1000
0000
0001
0000
,
0010
0000
0000
0100
0000
1000
0000
0001
0000
0100
0010
0000
1000
0000
0001
0000
,
1000
0100
1000
0100
0001
0100
0001
0100
,
1000
0001
1000
0001
0100
0010
1000
0001
,
0200
0000
0000
0000
,
0000
0000
0000
0000
,
0300
0000
0000
0000
,
0000
0000
0000
0000
,
1000
1000
0001
0001
,
0100
0010
1000
0100
,
0010
0010
0100
0100
,
1000
0010
1000
0001
,
0010
0001
1000
0000
0001
1000
0010
0100
,
0001
0100
0001
0000
1000
0010
1000
0000
,
0100
1000
0001
0000
0010
0001
0100
0010
,
1000
0100
0010
0100
1000
0000
0000
0000
,
0100
1000
0010
0000
1000
0000
1000
0000
,
0010
1000
0001
0000
0201
0000
0301
0000
,
0100
0001
0010
0000
0001
1000
0100
0000
,
0010
0100
2100
3001
,
1000
0001
0100
0000
0010
0010
0010
0000
,
1000
0100
0001
0100
1000
1000
1000
0000
,
0001
0010
0100
0000
1000
1000
1000
0000
,
0001
1000
0000
0001
0000
1000
0001
0000
0010
0000
0000
0000
0100
0000
0000
0000
,
1000
0000
0000
0010
0000
0000
1000
0000
0000
0001
0000
0010
0000
0100
1000
0000
,
0001
0000
0000
0000
0000
0000
0000
0000
0001
0000
0000
0000
0100
0000
0000
0000
0000
0000
0000
0000
0000
0010
0000
0000
0000
0000
0000
1000
0000
0000
0000
0000
0000
0001
0000
0000
1000
0000
0000
0000
0000
0000
0000
0000
0000
0000
0000
0000
,
0100
0000
0000
0010
0000
0000
0001
0000
0000
1000
0000
0010
0000
0100
0001
0000
,
1000
0000
0000
0000
0000
0000
0000
0000
1000
0000
0000
0000
0010
0000
0000
0000
0000
0000
0000
0000
0000
0100
0000
0000
0000
0000
0000
0001
0000
0000
0000
0000
0000
1000
0000
0000
0100
0000
0000
0000
0000
0000
0000
0000
0000
0000
0000
0000
,
1000
0001
0000
1000
0000
0000
0001
0000
0010
0001
0000
0010
0001
0000
0000
0000
,
1000
0000
0000
0000
0000
0000
0000
0000
1000
0000
0000
0000
0001
0000
0000
0000
0000
0000
0000
0000
0001
0000
0000
0000
0100
0000
0000
0000
0000
0000
0000
0000
0000
0100
0000
0000
0010
0000
0000
0000
0000
0000
0000
0000
0000
0000
0000
0000
,
1000
0001
0000
1000
0000
0000
0100
0000
0010
0100
0000
0010
0100
0000
0000
0000
,
1000
0000
0000
0000
0000
0000
0000
0000
1000
0000
0000
0000
0010
0000
0000
0000
0000
0000
0000
0000
0010
0000
0000
0000
0100
0000
0000
0000
0000
0000
0000
0000
0000
0100
0000
0000
0001
0000
0000
0000
0000
0000
0000
0000
0000
0000
0000
0000
,
0010
0100
0000
1000
0000
0000
0001
0000
1000
0010
0000
0010
0100
0000
0000
0000
,
0001
0000
0000
0000
0000
0000
0000
0000
0001
0000
0000
0000
0010
0000
0000
0000
0000
0000
0000
0000
0010
0000
0000
0000
1000
0000
0000
0000
0000
0000
0000
0000
0000
1000
0000
0000
0100
0000
0000
0000
0000
0000
0000
0000
0000
0000
0000
0000
,
0001
1000
0000
0001
0000
0000
0100
0000
0010
1000
0000
1000
0001
0000
0000
0000
,
0202
0300
1000
0103
,
0001
0100
0000
0001
0000
0000
0100
0000
0010
1000
0000
0010
1000
0000
0000
0000
,
1000
0100
0000
1000
0000
0000
0100
0000
0010
0000
0001
0000
1000
0000
0000
0000
,
0001
0010
0000
0001
0000
0000
0010
0000
0100
1000
0000
0100
1000
0000
0000
0000
,
0001
1000
0000
0001
0000
1000
0001
0000
0010
0000
0000
0000
0100
0000
0000
0000
,
1100
0000
0000
1000
0000
0000
0001
0000
0000
0100
0000
0010
0000
0100
0001
0000
,
1000
0000
0000
0000
0000
0000
0000
0000
0010
0000
0000
0000
1000
0000
0000
0000
0000
0000
0000
0000
0000
0100
0000
0000
0000
0000
0000
0010
0000
0000
0000
0000
0000
0001
0000
0000
0100
0000
0000
0000
0000
0000
0000
0000
0000
0000
0000
0000
,
0001
0000
0000
0010
0000
0000
0100
0000
0000
1000
0000
0010
0000
0100
0001
0000
,
1000
0000
0000
0000
0000
0000
0000
0000
0010
0000
0000
0000
1000
0000
0000
0000
0000
0000
0000
0000
0000
0001
0000
0000
0000
0000
0000
0100
0000
0000
0000
0000
0000
0010
0000
0000
1000
0000
0000
0000
0000
0000
0000
0000
0000
0000
0000
0000
,
0100
1000
0010
0000
1000
0000
1000
0000
,
0010
1000
0001
0000
0201
0000
0301
0000
,
0100
0001
0010
0000
0001
1000
0100
0000
,
0010
0100
2100
3001
,
1000
0000
0010
1000
0010
0000
0000
1000
0000
0001
0000
1000
0000
0000
0100
0000
,
0010
0000
0001
0010
0001
0000
0000
1000
0000
0001
0000
0100
0001
0000
0000
0000
,
0100
0000
0010
1000
0010
0000
0000
0100
0000
0001
0000
0010
0000
0000
0100
0000
,
1000
0000
0001
0000
0000
1000
0000
0000
0100
0000
0000
0000
1100
0000
0000
0000
,
1000
0010
0000
0100
0000
0000
0001
0000
0010
0001
0000
0001
1000
0000
0000
0000
,
0001
0000
0000
0000
0000
0000
0000
0000
0001
0000
0000
0000
0100
0000
0000
0000
0000
0000
0000
0000
0100
0000
0000
0000
0010
0000
0000
0000
0000
0000
0000
0000
0000
0010
0000
0000
1000
0000
0000
0000
0000
0000
0000
0000
0000
0000
0000
0000
,
0001
1000
0000
0010
0000
0000
0100
0000
0001
0010
0000
0100
1000
0000
0000
0000
,
1000
0000
0000
0000
0000
0000
0000
0000
1000
0000
0000
0000
0100
0000
0000
0000
0000
0000
0000
0000
0100
0000
0000
0000
0001
0000
0000
0000
0000
0000
0000
0000
0000
0001
0000
0000
0100
0000
0000
0000
0000
0000
0000
0000
0000
0000
0000
0000
,
0010
1000
0000
0001
0000
0000
0010
0000
0100
1000
0000
1000
0100
0000
0000
0000
,
0010
0000
0000
0000
0000
0000
0000
0000
0010
0000
0000
0000
0001
0000
0000
0000
0000
0000
0000
0000
0001
0000
0000
0000
1000
0000
0000
0000
0000
0000
0000
0000
0000
1000
0000
0000
0010
0000
0000
0000
0000
0000
0000
0000
0000
0000
0000
0000
,
0100
0001
0000
1000
0000
0000
0100
0000
0010
0100
0000
0100
1000
0000
0000
0000
,
0010
0000
0010
0100
0000
0001
1000
0000
0000
1100
0000
0000
,
2002
0000
0000
0000
,
3003
0000
0000
0000
;

//---------------dance-single - ----------------
#NOTES:
     dance-single:
     :
     Medium:
     5:
     0.330988,0.342070,0.177699,0.095684,0.006835,339.000000,313.000000,26.000000,14.000000,0.000000,0.000000,0.330988,0.342070,0.177699,0.095684,0.006835,339.000000,313.000000,26.000000,14.000000,0.000000,0.000000:
0000
0000
0000
0000
,
0000
0000
0000
0000
,
0000
0000
0000
0000
,
0000
0000
0000
0000
,
1000
0001
1000
1100
,
0001
0101
1000
1100
,
0001
1000
0001
0101
,
1000
1100
0010
0110
,
1000
0001
1000
1010
,
0001
0011
1000
1010
,
0001
1000
0001
0011
,
1000
1010
0001
1001
,
0102
0010
0100
0013
,
2100
0010
0100
3010
,
0210
0001
0010
0301
,
1002
0010
1000
0013
,
0120
0001
0100
0031
,
0201
1000
0001
1300
,
0010
1000
0001
1000
,
0010
0100
0001
1000
,
2002
0000
0000
0000
,
0000
0000
0000
0000
,
3003
0000
0000
0000
,
0000
0000
0000
0000
,
1000
1000
1000
0100
,
0001
0100
1000
0100
,
0001
0001
0001
0100
,
1000
0100
0001
0100
,
1000
0010
0001
0100
,
0001
0010
0100
0100
,
1000
0010
0001
0100
,
0001
0010
0100
1000
,
0001
1000
0001
1000
,
0010
1000
0100
0010
,
0001
1000
0001
0010
,
0100
1000
0001
0000
,
1001
0000
0100
0000
1000
1000
1000
0000
,
0001
0001
0001
0000
0010
0000
0100
0000
,
1000
1000
1000
0000
0001
0001
0001
0000
,
0100
0000
0010
0100
,
1001
0000
0100
0000
0001
0100
0001
0000
,
1000
0100
1000
0000
0010
0100
0010
0000
,
1000
0000
0001
0000
0010
0001
0010
0000
,
0100
1000
0100
0000
1000
0001
1000
0000
,
0010
1000
0100
0010
,
0001
0100
0001
0100
0001
0100
0001
0000
,
1000
0010
0100
0001
,
1000
0100
1000
0100
1000
0000
0100
0000
,
0010
0001
1000
0010
,
0100
0010
0100
0010
0100
0010
0100
0000
,
0001
1000
0100
0010
,
0001
1000
0001
0000
,
2100
0010
3001
0000
,
0012
0100
1003
0000
,
0210
1000
0301
0000
,
0010
0100
0010
1001
,
0010
0000
1000
0000
0001
0001
0001
0000
,
1000
0100
0001
0000
0001
0100
1000
0000
,
0010
0000
0100
0000
0010
0010
0010
0000
,
1000
0100
0001
0000
0001
0100
1000
0000
,
0010
0000
1000
0000
0001
0010
0001
0000
,
1000
0000
0100
0000
0020
0100
0130
0000
,
1000
0000
0010
0000
1000
0100
1000
0000
,
0010
0000
0100
0000
0000
0001
0000
0000
1000
0000
0000
0000
0000
0000
0000
0000
,
0001
0000
0010
0000
0001
0100
1000
0000
,
1000
0100
0001
0000
0100
0010
0010
0000
,
1000
0000
0100
0000
0001
0100
1000
0000
,
0001
0000
0010
0000
0000
0100
0000
0000
1000
0000
0000
0000
0000
0000
0000
0000
,
0100
0000
0010
0000
0001
1000
0001
0000
,
1000
0010
1000
0010
1000
0010
1000
0000
,
0001
0000
1000
0000
0001
0100
0001
0000
,
1000
0100
1000
0100
0010
0000
0001
0000
,
1000
0000
0001
0000
0100
0010
0100
0000
,
0001
1000
0001
1000
0001
1000
0001
0000
,
0010
0000
0100
0000
1000
0100
1000
0000
,
0010
0100
0010
0100
0010
0000
0100
0000
,
2002
0000
0000
0000
,
3003
0000
0000
0000
;

//---------------dance-single - ----------------
#NOTES:
     dance-single:
     :
     Easy:
     4:
     0.253855,0.259714,0.006835,0.013669,0.000000,260.000000,259.000000,1.000000,2.000000,0.000000,0.000000,0.253855,0.259714,0.006835,0.013669,0.000000,260.000000,259.000000,1.000000,2.000000,0.000000,0.000000:
0000
0000
0000
0000
,
0000
0000
0000
0000
,
0000
0000
0000
0000
,
0000
0000
0000
0000
,
1000
0100
1000
1000
,
0001
0001
1000
1000
,
0001
0100
0001
0001
,
1000
1000
0001
0001
,
0010
0001
0010
0010
,
0100
1000
0100
0100
,
1000
0010
1000
1000
,
0010
1000
0010
0010
,
0100
0001
0100
0001
,
0100
0001
0100
0001
,
1000
0001
1000
0001
,
1000
0001
1000
0001
,
1000
0010
1000
0100
,
1000
0010
1000
0100
,
0010
0100
1000
0100
,
0010
0100
1000
0100
,
0010
0000
0000
0000
,
0000
0000
0000
0000
,
0000
0000
0000
0000
,
0001
1000
0010
0000
,
0100
0100
0100
0100
,
0001
0001
0001
0001
,
1000
1000
1000
1000
,
0100
0100
0100
0100
,
0010
0010
0001
0001
,
1000
1000
0001
0001
,
0100
0100
0010
0010
,
1000
0001
0100
0000
,
0001
0001
1000
1000
,
0100
0100
0010
0010
,
0001
1000
0100
0100
,
0010
0100
1000
0000
,
0001
0001
0010
0000
,
1000
1000
0001
0000
,
1000
1000
0100
0000
,
0010
0000
0000
0000
,
1000
0100
1000
0100
,
1000
0001
0100
0001
,
1000
0001
1000
0001
,
1000
0010
1000
0001
,
0010
0001
0010
0001
,
1000
0001
1000
0001
,
1000
0100
1000
0100
,
1000
0001
2000
3000
,
0001
0100
0001
0100
,
0001
0010
0100
1000
,
1000
0010
1000
0010
,
1000
0001
0020
0030
,
0001
1000
0001
0001
,
1000
0001
0100
0000
,
0001
1000
0001
0001
,
0100
0001
0010
0000
,
0100
0100
0100
1000
,
0001
0100
1000
0100
,
0001
0001
0001
1000
,
0001
0010
0100
1000
,
0010
1000
0100
0010
,
0001
1000
0010
0000
,
0010
1000
0001
1000
,
0100
0001
0100
0000
,
0010
0100
1000
0010
,
0100
0001
0010
0001
,
1000
0010
1000
0001
,
0010
0000
1000
0000
,
0001
0001
1000
1000
,
0100
0010
0100
0010
,
0001
0001
1000
1000
,
0001
0100
0001
0000
,
0000
0010
0010
0010
,
1000
1000
0001
0001
,
1000
0100
0001
0100
,
1000
0010
0100
0001
,
1001
0000
0000
0000
;

//---------------dance-single - ----------------
#NOTES:
     dance-single:
     :
     Beginner:
     2:
     0.161101,0.207771,0.041007,0.000000,0.000000,165.000000,159.000000,6.000000,0.000000,0.000000,0.000000,0.161101,0.207771,0.041007,0.000000,0.000000,165.000000,159.000000,6.000000,0.000000,0.000000,0.000000:
0000
0000
0000
0000
,
0000
0000
0000
0000
,
0000
0000
0000
0000
,
0000
0000
0000
0000
,
0000
1000
0000
1000
,
0000
1000
0000
1000
,
0000
0001
0000
0001
,
0000
0001
0000
0001
,
0000
0100
0000
0100
,
0000
0100
0000
0100
,
0000
0010
0000
0010
,
0000
0010
0000
0010
,
0010
0000
1000
0000
,
1000
0000
0010
0000
,
0010
0000
0001
0000
,
0001
0000
0010
0000
,
0010
0000
0100
0000
,
0010
0000
0100
0000
,
1000
0000
0100
0000
,
0001
0000
0100
0000
,
1001
0000
0000
0000
,
0000
0000
0000
0000
,
0000
0000
0000
0000
,
0000
0000
0000
0000
,
0100
0000
0000
0000
,
1000
0000
0000
0000
,
0001
0000
0000
0000
,
0010
0000
0000
0000
,
0100
0000
0100
0000
,
1000
0000
1000
0000
,
0001
0000
0001
0000
,
0100
0000
0100
0000
,
0100
0000
0010
0000
,
1000
0000
0001
0000
,
0100
0000
0010
0000
,
1000
0000
0001
0000
,
1000
0000
1000
0000
,
1000
0000
0010
0000
,
0001
0000
0001
0000
,
1000
0000
0010
0010
,
0010
0000
1000
0000
,
0100
0100
0100
0000
,
0010
0000
0001
0000
,
0100
0100
0100
0000
,
0001
0001
0001
0000
,
1000
1000
1000
1000
,
1000
1000
1000
0000
,
0010
0010
0010
0000
,
0100
0100
0100
0000
,
0001
0001
0001
0001
,
0001
0001
0001
0000
,
0010
0010
0010
0000
,
0100
0000
0100
0000
,
1000
0000
0010
0000
,
0100
0000
0100
0000
,
0001
0000
0010
0000
,
0001
0001
0001
0000
,
1000
1000
1000
0000
,
0010
0010
0010
0000
,
0100
0100
0100
0000
,
0000
0001
0001
0001
,
0000
1000
0000
1001
,
0000
0010
0010
0010
,
0000
0100
0000
0100
,
0000
0001
0001
0001
,
0000
1000
0000
1001
,
0000
1000
1000
1000
,
0000
0010
0000
0110
,
0110
0000
0100
0000
,
0001
0001
0001
0000
,
1000
0000
0100
0000
,
0010
0010
0010
0000
,
0001
0000
1000
0000
,
0100
0100
0100
0000
,
0010
0000
0100
0000
,
1000
1000
1000
0000
,
1001
0000
0000
0000
;
