#VERSION:0.81;
#TITLE:Stitches;
#SUBTITLE:;
#ARTIST:Shawn Mendes;
#TITLETRANSLIT:;
#SUBTITLETRANSLIT:;
#ARTISTTRANSLIT:;
#GENRE:Handwritten;
#ORIGIN:;
#CREDIT:;
#BANNER:Stitches-bn.png;
#BACKGROUND:Stitches-bg.png;
#PREVIEWVID:Stitches-preview.avi;
#JACKET:;
#CDIMAGE:;
#DISCIMAGE:;
#LYRICSPATH:;
#CDTITLE:;
#MUSIC:Stitches.mp3;
#OFFSET:-0.031000;
#SAMPLESTART:43.612202;
#SAMPLELENGTH:14.000000;
#SELECTABLE:YES;
#BPMS:0.000=150.000;
#STOPS:;
#DELAYS:;
#WARPS:;
#TIMESIGNATURES:0.000=4=4;
#TICKCOUNTS:0.000=4;
#COMBOS:0.000=1;
#SPEEDS:0.000=1.000=0.000=0;
#SCROLLS:0.000=1.000;
#FAKES:;
#LABELS:0.000=Song Start;
#LASTSECONDHINT:134.472198;
#BGCHANGES:0.000=Stitches-video.avi=1.000=0=0=0=StretchNoLoop====,
99999=-nosongbg-=1.000=0=0=0 // don't automatically add -songbackground-
;
#KEYSOUNDS:;
#ATTACKS:
;

//---------------dance-single - ----------------
#NOTEDATA:;
#CHARTNAME:;
#STEPSTYPE:dance-single;
#DESCRIPTION:;
#CHARTSTYLE:;
#DIFFICULTY:Hard;
#METER:7;
#RADARVALUES:0.448488,0.433428,0.362810,0.333193,0.003702,330.000000,49.000000,45.000000,0.000000,0.000000,0.000000,0.000000,0.000000,0.448488,0.433428,0.362810,0.333193,0.003702,330.000000,49.000000,45.000000,0.000000,0.000000,0.000000,0.000000,0.000000;
#CREDIT:;
#NOTES:
0000
0000
0000
0000
,
0000
0000
0000
0000
,
0000
0000
0000
0000
,
0000
0000
0000
0000
,
0000
0010
1000
0100
,
0010
0000
0001
0000
1000
0000
0001
0200
,
0000
0000
0300
0000
,
0000
0000
0000
0000
0000
0000
0010
1000
,
0000
0000
1000
0001
0000
0000
0001
0100
,
0000
0010
0000
1000
0000
0001
0000
0200
,
0000
0000
0300
0000
,
0000
0000
0000
0000
,
0000
1000
0100
0010
,
0001
0000
0100
0000
0010
0000
1000
0002
,
0000
0000
0000
0003
,
0000
0000
0000
0000
0000
0010
0100
1000
,
0000
0000
1000
0001
0000
0000
0001
0100
,
0000
0000
0010
1000
0000
0000
0001
2000
,
0000
0000
3000
0000
,
0000
0000
0000
0000
,
0010
0000
1000
0100
0010
0001
1000
0100
,
0010
0011
0100
1100
,
0010
0000
0001
0100
0010
0000
1000
0001
,
1000
0000
1100
0000
0001
0000
1000
0001
,
0100
0000
0010
1000
0100
0000
0010
0001
,
0100
0101
0010
1010
,
0100
0000
0000
0000
1000
0000
0002
0000
0000
0000
0103
0010
0100
0000
0000
0000
,
0000
0001
1000
1001
,
0010
1000
0100
0100
0001
1000
0100
0000
,
0000
0000
1100
0101
,
0010
0001
0100
0010
1000
0001
0100
0000
,
0000
0000
0000
0010
1000
0000
1001
0000
,
1000
0100
0000
0001
0000
0010
0000
0022
,
0000
0033
0000
2200
0000
3300
0000
0000
,
0010
0100
0000
0001
0000
1000
0000
0202
,
0000
0303
0000
2200
0000
3300
0000
0000
,
1000
0010
0100
0100
1000
0001
0100
0000
,
0000
0000
0101
1100
,
0001
0010
0100
1000
0010
0100
0001
0000
,
0000
0000
0000
1000
0010
0000
0110
0000
,
0001
1000
0000
0100
0000
0010
0000
0202
,
0000
0303
0000
2020
0000
3030
0000
0000
,
0100
1000
0000
0001
0000
0100
0000
0220
,
0000
0330
0000
2002
0000
3003
0000
0000
,
0010
0010
0000
1000
0100
0100
0000
0001
,
0100
0100
0000
1000
0100
0100
0000
0001
,
0010
0010
0000
1000
0010
0010
0000
0001
,
0100
0100
0000
1000
0100
0100
0000
0001
,
0100
0010
1000
0100
0010
0000
0001
1000
,
0010
0100
0001
1000
0010
0000
0110
0000
,
1000
0001
0100
0010
0100
0000
0001
1000
,
0100
0110
1001
0000
,
0010
1000
0100
0010
0100
0000
1000
0010
,
0100
0001
1000
0010
0100
0000
0110
0000
,
0001
0100
0010
1000
0100
0000
1000
0010
,
0100
0001
1001
0000
,
0001
0010
0100
0100
1000
0000
1000
0010
,
0100
0001
0100
0100
0010
1000
0100
0000
,
1000
0010
0100
0001
0100
0000
0001
0010
,
0100
0110
1100
0000
,
0001
0010
0100
0100
0010
0000
0001
0100
,
0100
0010
1000
1000
0010
0000
0110
0000
,
0001
1000
0010
0100
0001
0000
1001
0000
,
0000
1000
0100
0010
,
0001
0010
0100
0100
0001
1000
0100
0000
,
0000
0000
1010
0011
,
0001
0100
0010
0010
0001
1000
0010
0000
,
0000
0000
0000
0010
0100
0000
0101
0000
,
0001
1000
0000
0100
0000
0010
0000
0220
,
0000
0330
0000
2002
0000
3003
0000
0000
,
1000
0010
0000
0100
0000
0001
0000
2020
,
0000
3030
0000
2200
0000
3300
0000
0000
,
0100
1000
0001
0001
1000
0010
0001
0000
,
0000
0000
0110
1001
,
0010
0001
0100
0100
0010
0001
0010
0000
,
0000
0000
0000
1000
0010
0000
1001
0000
,
1000
0100
0000
1001
0000
0010
0000
0202
,
0000
0303
0000
2200
0000
3300
0000
0000
,
0001
1000
0000
1100
0000
0010
0000
2002
,
0000
3003
0000
0220
0000
0330
0000
0000
,
1000
0010
0000
0100
0000
0010
0000
2020
,
0000
3030
0000
0202
0000
0303
0000
0000
,
1000
0001
0000
0100
0000
0010
0000
0220
,
0000
0330
0000
2002
0000
3003
0000
0000
;

//---------------dance-single - ----------------
#NOTEDATA:;
#CHARTNAME:;
#STEPSTYPE:dance-single;
#DESCRIPTION:;
#CHARTSTYLE:;
#DIFFICULTY:Medium;
#METER:6;
#RADARVALUES:0.307807,0.370399,0.059234,0.074043,0.000000,273.000000,8.000000,10.000000,0.000000,0.000000,0.000000,0.000000,0.000000,0.307807,0.370399,0.059234,0.074043,0.000000,273.000000,8.000000,10.000000,0.000000,0.000000,0.000000,0.000000,0.000000;
#CREDIT:;
#NOTES:
0000
0000
0000
0000
,
0000
0000
0000
0000
,
0000
0000
0000
0000
,
0000
0000
0000
0000
,
0000
0010
1000
0100
,
0010
0000
0001
0000
1000
0000
0001
0100
,
0000
0000
0000
0000
,
0000
0000
0000
0000
0000
0000
0010
1000
,
0000
0000
0010
1000
0000
0000
0010
1000
,
0000
0010
0000
0100
0000
0001
0000
0100
,
0000
0000
0000
0000
,
0000
0000
0000
0000
,
0000
1000
0100
0010
,
0001
0000
0100
0000
0010
0000
1000
0001
,
0000
0000
0000
0000
,
0000
0000
0000
0000
0000
0010
0100
0010
,
0000
0000
0001
1000
0000
0000
0001
1000
,
0000
0000
0010
0100
0000
0000
0010
0100
,
0000
0000
0000
0000
,
0000
0000
0000
0000
,
0010
0000
1000
0001
1000
0000
0100
0000
,
0010
1001
0100
1001
,
0010
0000
0100
0001
0100
0000
0010
1000
,
0010
0100
0001
0010
,
0100
0000
0010
0001
0010
0000
0100
1000
,
0100
1001
0010
1001
,
0100
0000
0010
1000
0000
1000
0100
0000
,
0000
0010
0100
0010
,
0001
1000
0001
1000
0001
0000
0100
0000
,
0000
0000
0010
0010
,
1000
0001
1000
0001
1000
0000
0010
0000
,
0000
0000
0000
0100
0001
0000
0100
0000
,
0001
0010
0000
0001
0000
0010
0000
0200
,
0000
0000
0000
1300
0000
0000
0000
0000
,
0010
1000
0000
0010
0000
0100
0000
0002
,
0000
0000
0000
0103
0000
0000
0000
0000
,
0010
1000
0010
1000
0010
0000
1000
0000
,
0000
0000
0100
0100
,
0010
0001
0010
0001
0010
0000
0001
0000
,
0000
0000
0000
1000
0010
0000
0100
0000
,
0001
1000
0000
0100
0000
0010
0000
0200
,
0000
0000
0000
1300
0000
0000
0000
0000
,
0010
1000
0000
0100
0000
0010
0000
0200
,
0000
0000
0000
0310
0000
0000
0000
0000
,
0001
0000
0001
0000
,
0100
0000
0100
0000
,
0010
0000
0010
0000
,
1000
0000
1000
0000
,
0100
0100
0100
0100
,
0010
0010
0001
1000
,
0010
0010
0100
0100
,
0001
0001
1000
0000
,
0010
0010
0100
0100
,
0010
0010
1000
0100
,
0010
0010
0001
0001
,
0100
0100
0010
0000
,
1000
0000
0010
0000
1000
0000
0100
1000
,
0100
0010
0001
1001
,
0010
0000
0001
0000
0100
0000
0001
0100
,
0001
0100
0101
0000
,
0010
1000
0010
0000
1000
0000
0100
0000
,
0010
0100
0010
0110
,
0010
0100
0010
0000
0100
0000
0110
0000
,
0000
1000
0010
0100
,
0001
0100
0001
0100
0001
0000
0100
0000
,
0000
0000
0010
0010
,
1000
0010
1000
0010
1000
0000
0100
0000
,
0000
0000
0000
0010
0010
0000
0001
0000
,
0100
0001
0000
0100
0000
0001
0000
2000
,
0000
0000
0000
3010
0000
0000
0000
0000
,
1000
0100
0000
0010
0000
0001
0000
2000
,
0000
0000
0000
3001
0000
0000
0000
0000
,
0010
0100
0010
0100
0010
0000
0100
0000
,
0000
0000
1000
1000
,
0001
1000
0001
1000
0001
0000
0100
0000
,
0000
0000
0010
0010
,
1000
0100
0000
1000
0000
0010
0000
0200
,
0000
0000
0000
0310
0000
0000
0000
0000
,
1000
0010
0000
0100
0000
0001
0000
0020
,
0000
0000
0000
0130
0000
0000
0000
0000
,
1000
0001
0000
0100
0000
0010
0000
0200
,
0000
0000
0000
0301
0000
0000
0000
0000
,
1000
0100
0000
0010
0000
0001
0000
2000
,
0000
0000
0000
3001
0000
0000
0000
0000
;

//---------------dance-single - ----------------
#NOTEDATA:;
#CHARTNAME:;
#STEPSTYPE:dance-single;
#DESCRIPTION:;
#CHARTSTYLE:;
#DIFFICULTY:Easy;
#METER:3;
#RADARVALUES:0.218955,0.216390,0.000000,0.000000,0.000000,207.000000,0.000000,0.000000,0.000000,0.000000,0.000000,0.000000,0.000000,0.218955,0.216390,0.000000,0.000000,0.000000,207.000000,0.000000,0.000000,0.000000,0.000000,0.000000,0.000000,0.000000;
#CREDIT:;
#NOTES:
// measure 0
0000
0000
0000
0000
,  // measure 1
0000
0000
0000
0000
,  // measure 2
0000
0000
0000
0000
,  // measure 3
0000
0000
0000
0000
,  // measure 4
0000
1000
0001
1000
,  // measure 5
0001
0100
0010
0100
,  // measure 6
0010
0000
0000
0000
,  // measure 7
0000
0000
0000
0000
,  // measure 8
1000
0000
0100
0000
,  // measure 9
0010
0100
0010
0100
,  // measure 10
0010
0000
0000
0000
,  // measure 11
0000
0000
0000
0000
,  // measure 12
0000
0001
1000
0001
,  // measure 13
0100
0010
0100
0010
,  // measure 14
0100
0000
0000
0000
,  // measure 15
0010
0000
0000
1000
,  // measure 16
0100
0000
0010
0000
,  // measure 17
0001
1000
0010
0100
,  // measure 18
0001
0000
0000
0000
,  // measure 19
0000
0000
0000
0000
,  // measure 20
1000
0010
0000
0010
,  // measure 21
0000
0010
0000
0010
,  // measure 22
1000
0100
0000
0100
,  // measure 23
0000
0100
0000
0100
,  // measure 24
0001
0010
0000
0010
,  // measure 25
0000
0010
0000
1000
,  // measure 26
0001
0100
0000
0010
,  // measure 27
0000
1000
0010
1000
,  // measure 28
0100
0010
0100
0100
,  // measure 29
0000
0000
0010
0010
,  // measure 30
0001
1000
0010
0010
,  // measure 31
0000
0000
0100
0100
,  // measure 32
0001
0100
1000
0100
,  // measure 33
0001
0000
0001
0000
,  // measure 34
1000
0010
0001
0010
,  // measure 35
1000
0000
1000
0000
,  // measure 36
0010
0100
0010
0100
,  // measure 37
0010
0000
1000
0001
,  // measure 38
0100
0010
0100
0010
,  // measure 39
0100
0000
0001
1000
,  // measure 40
0010
0100
0010
0100
,  // measure 41
0010
0000
0010
0000
,  // measure 42
1000
0100
0010
0001
,  // measure 43
0100
0000
0100
0000
,  // measure 44
0010
0000
0000
0000
,  // measure 45
1000
0000
0000
0000
,  // measure 46
0001
0000
0000
0000
,  // measure 47
0100
0000
0000
0000
,  // measure 48
0010
0000
0010
0000
,  // measure 49
1000
0000
0001
0000
,  // measure 50
0010
0000
0010
0000
,  // measure 51
0100
0000
0100
0000
,  // measure 52
1000
0000
1000
0000
,  // measure 53
0010
0000
0010
0000
,  // measure 54
0100
0000
0100
0000
,  // measure 55
0001
0000
1000
0000
,  // measure 56
0100
0100
0010
0000
,  // measure 57
0001
1000
0010
0100
,  // measure 58
0010
0010
0100
0000
,  // measure 59
0010
1000
0010
0000
,  // measure 60
1000
0100
0010
0000
,  // measure 61
0001
1000
0010
0000
,  // measure 62
0100
0001
1000
0000
,  // measure 63
0000
0000
0000
0000
,  // measure 64
1000
0001
1000
1000
,  // measure 65
0000
0000
0001
0001
,  // measure 66
0100
0010
1000
1000
,  // measure 67
0000
0000
0001
0001
,  // measure 68
0100
0001
0010
0100
,  // measure 69
1000
0000
0100
0000
,  // measure 70
0010
0001
0100
0001
,  // measure 71
0010
0000
0010
0000
,  // measure 72
0001
1000
0001
1000
,  // measure 73
0001
0000
0010
0100
,  // measure 74
1000
0001
1000
0001
,  // measure 75
1000
0000
0100
0010
,  // measure 76
0001
1000
0001
1000
,  // measure 77
0001
0000
0001
0000
,  // measure 78
0010
0001
1000
0100
,  // measure 79
0010
0000
0010
0000
,  // measure 80
0001
1000
0010
0100
,  // measure 81
0001
0000
0001
0000
,  // measure 82
1000
0001
0100
0010
,  // measure 83
1000
0000
1000
0000
;

//---------------dance-single - ----------------
#NOTEDATA:;
#CHARTNAME:;
#STEPSTYPE:dance-single;
#DESCRIPTION:;
#CHARTSTYLE:;
#DIFFICULTY:Beginner;
#METER:1;
#RADARVALUES:0.119526,0.122911,0.000000,0.000000,0.000000,113.000000,0.000000,0.000000,0.000000,0.000000,0.000000,0.000000,0.000000,0.119526,0.122911,0.000000,0.000000,0.000000,113.000000,0.000000,0.000000,0.000000,0.000000,0.000000,0.000000,0.000000;
#CREDIT:;
#NOTES:
// measure 0
0000
0000
0000
0000
,  // measure 1
0000
0000
0000
0000
,  // measure 2
0000
0000
0000
0000
,  // measure 3
0000
0000
0000
0000
,  // measure 4
0010
0000
0000
0000
,  // measure 5
1000
0000
0000
0000
,  // measure 6
0100
0000
0000
0000
,  // measure 7
0000
0000
0000
0000
,  // measure 8
0010
0000
0000
0000
,  // measure 9
0001
0000
0000
0000
,  // measure 10
0100
0000
0000
0000
,  // measure 11
0000
0000
0000
0000
,  // measure 12
0010
0000
0000
0000
,  // measure 13
1000
0000
0000
0000
,  // measure 14
0001
0000
0000
0000
,  // measure 15
0000
0000
0000
0000
,  // measure 16
0010
0000
0000
0000
,  // measure 17
0100
0000
0000
0000
,  // measure 18
1000
0000
0000
0000
,  // measure 19
0000
0000
0000
0000
,  // measure 20
0000
0010
0000
0010
,  // measure 21
0000
0010
0000
0010
,  // measure 22
0000
0100
0000
0100
,  // measure 23
0000
0100
0000
0100
,  // measure 24
0000
0010
0000
0010
,  // measure 25
0000
0010
0000
0010
,  // measure 26
0000
0100
0000
0100
,  // measure 27
0000
0000
0000
0000
,  // measure 28
0001
0000
0010
0000
,  // measure 29
0000
0000
1000
0000
,  // measure 30
0100
0000
0001
0000
,  // measure 31
0000
0000
1000
0000
,  // measure 32
0010
0000
0100
0000
,  // measure 33
0001
0000
0001
0000
,  // measure 34
0010
0000
0100
0000
,  // measure 35
1000
0000
1000
0000
,  // measure 36
0010
0000
0100
0000
,  // measure 37
0000
0000
0001
0000
,  // measure 38
1000
0000
0100
0000
,  // measure 39
0000
0000
0010
0000
,  // measure 40
0001
0000
1000
0000
,  // measure 41
0010
0000
0010
0000
,  // measure 42
1000
0000
0001
0000
,  // measure 43
0010
0000
0010
0000
,  // measure 44
0100
0000
0000
0000
,  // measure 45
1000
0000
0000
0000
,  // measure 46
0010
0000
0000
0000
,  // measure 47
0100
0000
0000
0000
,  // measure 48
0001
0000
0000
0000
,  // measure 49
1000
0000
0000
0000
,  // measure 50
0010
0000
0000
0000
,  // measure 51
0100
0000
0000
0000
,  // measure 52
0010
0000
0000
0000
,  // measure 53
1000
0000
0000
0000
,  // measure 54
0100
0000
0000
0000
,  // measure 55
0010
0000
0000
0000
,  // measure 56
0001
0000
1000
0000
,  // measure 57
0010
0000
0000
0000
,  // measure 58
1000
0000
0001
0000
,  // measure 59
0100
0000
0000
0000
,  // measure 60
0010
0000
0100
0000
,  // measure 61
0001
0000
0000
0000
,  // measure 62
0010
0000
0100
0000
,  // measure 63
1000
0000
0000
0000
,  // measure 64
0010
0000
0010
0000
,  // measure 65
0000
0000
1000
0000
,  // measure 66
0001
0000
0100
0000
,  // measure 67
0000
0000
1000
0000
,  // measure 68
0100
0000
0001
0000
,  // measure 69
0100
0000
0100
0000
,  // measure 70
0001
0000
0100
0000
,  // measure 71
1000
0000
1000
0000
,  // measure 72
0010
0000
1000
0000
,  // measure 73
0000
0000
0001
0000
,  // measure 74
0010
0000
0100
0000
,  // measure 75
0000
0000
0010
0000
,  // measure 76
0100
0000
1000
0000
,  // measure 77
0010
0000
0010
0000
,  // measure 78
1000
0000
0100
0000
,  // measure 79
0010
0000
0010
0000
,  // measure 80
0001
0000
1000
0000
,  // measure 81
0010
0000
0010
0000
,  // measure 82
0100
0000
0001
0000
,  // measure 83
1000
0000
0000
0000
;
